  0
SECTION
  2
HEADER
  9
$ACADVER
  1
AC1015
  9
$ACADMAINTVER
 70
    13
  9
$DWGCODEPAGE
  3
ANSI_932
  9
$INSBASE
 10
0.0
 20
0.0
 30
0.0
  9
$EXTMIN
 10
7822.435452134293
 20
-3326.608932019036
 30
0.0
  9
$EXTMAX
 10
9895.135452134294
 20
-1860.913932019035
 30
0.0
  9
$LIMMIN
 10
7822.435452134293
 20
-3326.608932019036
  9
$LIMMAX
 10
9895.135452134294
 20
-1860.913932019035
  9
$ORTHOMODE
 70
     1
  9
$REGENMODE
 70
     1
  9
$FILLMODE
 70
     1
  9
$QTEXTMODE
 70
     0
  9
$MIRRTEXT
 70
     1
  9
$LTSCALE
 40
24.5
  9
$ATTMODE
 70
     1
  9
$TEXTSIZE
 40
0.2
  9
$TRACEWID
 40
0.05
  9
$TEXTSTYLE
  7
STANDARD
  9
$CLAYER
  8
001
  9
$CELTYPE
  6
ByLayer
  9
$CECOLOR
 62
   256
  9
$CELTSCALE
 40
1.0
  9
$DISPSILH
 70
     0
  9
$DIMSCALE
 40
15.0
  9
$DIMASZ
 40
0.75
  9
$DIMEXO
 40
0.625
  9
$DIMDLI
 40
3.75
  9
$DIMRND
 40
0.0
  9
$DIMDLE
 40
0.0
  9
$DIMEXE
 40
0.0
  9
$DIMTP
 40
0.0
  9
$DIMTM
 40
0.0
  9
$DIMTXT
 40
0.75
  9
$DIMCEN
 40
2.5
  9
$DIMTSZ
 40
0.0
  9
$DIMTOL
 70
     0
  9
$DIMLIM
 70
     0
  9
$DIMTIH
 70
     0
  9
$DIMTOH
 70
     0
  9
$DIMSE1
 70
     0
  9
$DIMSE2
 70
     0
  9
$DIMTAD
 70
     1
  9
$DIMZIN
 70
     8
  9
$DIMBLK
  1
Open
  9
$DIMASO
 70
     1
  9
$DIMSHO
 70
     1
  9
$DIMPOST
  1

  9
$DIMAPOST
  1

  9
$DIMALT
 70
     0
  9
$DIMALTD
 70
     2
  9
$DIMALTF
 40
0.0394
  9
$DIMLFAC
 40
1.0
  9
$DIMTOFL
 70
     1
  9
$DIMTVP
 40
1.0
  9
$DIMTIX
 70
     0
  9
$DIMSOXD
 70
     0
  9
$DIMSAH
 70
     0
  9
$DIMBLK1
  1

  9
$DIMBLK2
  1

  9
$DIMSTYLE
  2
ISO-25
  9
$DIMCLRD
 70
     0
  9
$DIMCLRE
 70
     0
  9
$DIMCLRT
 70
     0
  9
$DIMTFAC
 40
1.0
  9
$DIMGAP
 40
0.5
  9
$DIMJUST
 70
     0
  9
$DIMSD1
 70
     0
  9
$DIMSD2
 70
     0
  9
$DIMTOLJ
 70
     1
  9
$DIMTZIN
 70
     0
  9
$DIMALTZ
 70
     0
  9
$DIMALTTZ
 70
     0
  9
$DIMUPT
 70
     0
  9
$DIMDEC
 70
     0
  9
$DIMTDEC
 70
     0
  9
$DIMALTU
 70
     2
  9
$DIMALTTD
 70
     2
  9
$DIMTXSTY
  7
STANDARD
  9
$DIMAUNIT
 70
     0
  9
$DIMADEC
 70
     0
  9
$DIMALTRND
 40
0.0
  9
$DIMAZIN
 70
     0
  9
$DIMDSEP
 70
    46
  9
$DIMATFIT
 70
     3
  9
$DIMFRAC
 70
     0
  9
$DIMLDRBLK
  1

  9
$DIMLUNIT
 70
     2
  9
$DIMLWD
 70
    -2
  9
$DIMLWE
 70
    -2
  9
$DIMTMOVE
 70
     0
  9
$LUNITS
 70
     2
  9
$LUPREC
 70
     4
  9
$SKETCHINC
 40
0.1
  9
$FILLETRAD
 40
0.0
  9
$AUNITS
 70
     0
  9
$AUPREC
 70
     0
  9
$MENU
  1
.
  9
$ELEVATION
 40
0.0
  9
$PELEVATION
 40
0.0
  9
$THICKNESS
 40
0.0
  9
$LIMCHECK
 70
     0
  9
$CHAMFERA
 40
0.0
  9
$CHAMFERB
 40
0.0
  9
$CHAMFERC
 40
0.0
  9
$CHAMFERD
 40
0.0
  9
$SKPOLY
 70
     0
  9
$TDCREATE
 40
2453874.389934525
  9
$TDUCREATE
 40
2453874.014934525
  9
$TDUPDATE
 40
2454278.538197338
  9
$TDUUPDATE
 40
2454278.163197338
  9
$TDINDWG
 40
0.8715321528
  9
$TDUSRTIMER
 40
0.8715321528
  9
$USRTIMER
 70
     1
  9
$ANGBASE
 50
0.0
  9
$ANGDIR
 70
     0
  9
$PDMODE
 70
     0
  9
$PDSIZE
 40
0.0
  9
$PLINEWID
 40
0.0
  9
$SPLFRAME
 70
     0
  9
$SPLINETYPE
 70
     6
  9
$SPLINESEGS
 70
     8
  9
$HANDSEED
  5
BE60
  9
$SURFTAB1
 70
     6
  9
$SURFTAB2
 70
     6
  9
$SURFTYPE
 70
     6
  9
$SURFU
 70
     6
  9
$SURFV
 70
     6
  9
$UCSBASE
  2

  9
$UCSNAME
  2

  9
$UCSORG
 10
0.0
 20
0.0
 30
0.0
  9
$UCSXDIR
 10
1.0
 20
0.0
 30
0.0
  9
$UCSYDIR
 10
0.0
 20
1.0
 30
0.0
  9
$UCSORTHOREF
  2

  9
$UCSORTHOVIEW
 70
     0
  9
$UCSORGTOP
 10
0.0
 20
0.0
 30
0.0
  9
$UCSORGBOTTOM
 10
0.0
 20
0.0
 30
0.0
  9
$UCSORGLEFT
 10
0.0
 20
0.0
 30
0.0
  9
$UCSORGRIGHT
 10
0.0
 20
0.0
 30
0.0
  9
$UCSORGFRONT
 10
0.0
 20
0.0
 30
0.0
  9
$UCSORGBACK
 10
0.0
 20
0.0
 30
0.0
  9
$PUCSBASE
  2

  9
$PUCSNAME
  2

  9
$PUCSORG
 10
0.0
 20
0.0
 30
0.0
  9
$PUCSXDIR
 10
1.0
 20
0.0
 30
0.0
  9
$PUCSYDIR
 10
0.0
 20
1.0
 30
0.0
  9
$PUCSORTHOREF
  2

  9
$PUCSORTHOVIEW
 70
     0
  9
$PUCSORGTOP
 10
0.0
 20
0.0
 30
0.0
  9
$PUCSORGBOTTOM
 10
0.0
 20
0.0
 30
0.0
  9
$PUCSORGLEFT
 10
0.0
 20
0.0
 30
0.0
  9
$PUCSORGRIGHT
 10
0.0
 20
0.0
 30
0.0
  9
$PUCSORGFRONT
 10
0.0
 20
0.0
 30
0.0
  9
$PUCSORGBACK
 10
0.0
 20
0.0
 30
0.0
  9
$USERI1
 70
     0
  9
$USERI2
 70
     0
  9
$USERI3
 70
     0
  9
$USERI4
 70
     0
  9
$USERI5
 70
     0
  9
$USERR1
 40
0.0
  9
$USERR2
 40
0.0
  9
$USERR3
 40
0.0
  9
$USERR4
 40
0.0
  9
$USERR5
 40
0.0
  9
$WORLDVIEW
 70
     1
  9
$SHADEDGE
 70
     3
  9
$SHADEDIF
 70
    70
  9
$TILEMODE
 70
     1
  9
$MAXACTVP
 70
    64
  9
$PINSBASE
 10
0.0
 20
0.0
 30
0.0
  9
$PLIMCHECK
 70
     0
  9
$PEXTMIN
 10
1.000000000000000E+20
 20
1.000000000000000E+20
 30
1.000000000000000E+20
  9
$PEXTMAX
 10
-1.000000000000000E+20
 20
-1.000000000000000E+20
 30
-1.000000000000000E+20
  9
$PLIMMIN
 10
0.0
 20
0.0
  9
$PLIMMAX
 10
12.0
 20
9.0
  9
$UNITMODE
 70
     0
  9
$VISRETAIN
 70
     1
  9
$PLINEGEN
 70
     0
  9
$PSLTSCALE
 70
     1
  9
$TREEDEPTH
 70
  3020
  9
$CMLSTYLE
  2
Standard
  9
$CMLJUST
 70
     0
  9
$CMLSCALE
 40
1.0
  9
$PROXYGRAPHICS
 70
     1
  9
$MEASUREMENT
 70
     0
  9
$CELWEIGHT
370
    -1
  9
$ENDCAPS
280
     0
  9
$JOINSTYLE
280
     0
  9
$LWDISPLAY
290
     0
  9
$INSUNITS
 70
     0
  9
$HYPERLINKBASE
  1

  9
$STYLESHEET
  1
ZenithProtter.ctb
  9
$XEDIT
290
     1
  9
$CEPSNTYPE
380
     0
  9
$PSTYLEMODE
290
     1
  9
$FINGERPRINTGUID
  2
{DB2F255E-76A1-4E9F-8FDF-6D653DC3006F}
  9
$VERSIONGUID
  2
{08530C75-7FCA-40D5-B152-7256E3B9F5E6}
  9
$EXTNAMES
290
     1
  9
$PSVPSCALE
 40
0.0
  9
$OLESTARTUP
290
     0
  0
ENDSEC
  0
SECTION
  2
CLASSES
  0
CLASS
  1
ACDBDICTIONARYWDFLT
  2
AcDbDictionaryWithDefault
  3
AutoCAD 2000
 90
        0
280
     0
281
     0
  0
CLASS
  1
ACDBPLACEHOLDER
  2
AcDbPlaceHolder
  3
AutoCAD 2000
 90
        0
280
     0
281
     0
  0
CLASS
  1
LAYOUT
  2
AcDbLayout
  3
AutoCAD 2000
 90
        0
280
     0
281
     0
  0
CLASS
  1
DICTIONARYVAR
  2
AcDbDictionaryVar
  3
AutoCAD 2000
 90
        0
280
     0
281
     0
  0
ENDSEC
  0
SECTION
  2
TABLES
  0
TABLE
  2
VPORT
  5
8
330
0
100
AcDbSymbolTable
 70
     2
  0
VPORT
  5
BE5F
330
8
100
AcDbSymbolTableRecord
100
AcDbViewportTableRecord
  2
*Active
 70
     0
 10
0.0
 20
0.0
 11
1.0
 21
1.0
 12
8858.738193699641
 22
-2593.767233450421
 13
0.0
 23
0.0
 14
1.0
 24
1.0
 15
0.0
 25
0.0
 16
0.0
 26
0.0
 36
1.0
 17
0.0
 27
0.0
 37
0.0
 40
1477.903183130653
 41
1.723287671232876
 42
50.0
 43
0.0
 44
0.0
 50
0.0
 51
0.0
 71
     0
 72
   100
 73
     1
 74
     1
 75
     0
 76
     0
 77
     0
 78
     0
281
     0
 65
     1
110
0.0
120
0.0
130
0.0
111
1.0
121
0.0
131
0.0
112
0.0
122
1.0
132
0.0
 79
     0
146
0.0
  0
ENDTAB
  0
TABLE
  2
LTYPE
  5
5
330
0
100
AcDbSymbolTable
 70
     3
  0
LTYPE
  5
13
330
5
100
AcDbSymbolTableRecord
100
AcDbLinetypeTableRecord
  2
ByBlock
 70
     0
  3

 72
    65
 73
     0
 40
0.0
  0
LTYPE
  5
14
330
5
100
AcDbSymbolTableRecord
100
AcDbLinetypeTableRecord
  2
ByLayer
 70
     0
  3

 72
    65
 73
     0
 40
0.0
  0
LTYPE
  5
15
330
5
100
AcDbSymbolTableRecord
100
AcDbLinetypeTableRecord
  2
CONTINUOUS
 70
     0
  3
Solid-Line
 72
    65
 73
     0
 40
0.0
  0
LTYPE
  5
22
330
5
100
AcDbSymbolTableRecord
100
AcDbLinetypeTableRecord
  2
DASHED
 70
     0
  3
DASHED
 72
    65
 73
     2
 40
0.75
 49
0.5
 74
     0
 49
-0.25
 74
     0
  0
LTYPE
  5
24
330
5
100
AcDbSymbolTableRecord
100
AcDbLinetypeTableRecord
  2
CENTER
 70
     0
  3
CENTER
 72
    65
 73
     4
 40
2.0
 49
1.25
 74
     0
 49
-0.25
 74
     0
 49
0.25
 74
     0
 49
-0.25
 74
     0
  0
ENDTAB
  0
TABLE
  2
LAYER
  5
2
330
0
100
AcDbSymbolTable
 70
     6
  0
LAYER
  5
10
330
2
100
AcDbSymbolTableRecord
100
AcDbLayerTableRecord
  2
0
 70
     0
 62
     7
  6
CONTINUOUS
370
     5
390
F
  0
LAYER
  5
26
330
2
100
AcDbSymbolTableRecord
100
AcDbLayerTableRecord
  2
001
 70
     0
 62
     4
  6
CONTINUOUS
370
     5
390
F
  0
LAYER
  5
586
330
2
100
AcDbSymbolTableRecord
100
AcDbLayerTableRecord
  2
DEFPOINTS
 70
     0
 62
     7
  6
CONTINUOUS
290
     0
370
    -3
390
F
  0
LAYER
  5
587
330
2
100
AcDbSymbolTableRecord
100
AcDbLayerTableRecord
  2
003
 70
     0
 62
     3
  6
CONTINUOUS
370
    13
390
F
  0
LAYER
  5
2C96
330
2
100
AcDbSymbolTableRecord
100
AcDbLayerTableRecord
  2
002
 70
     0
 62
     1
  6
CONTINUOUS
370
    15
390
F
  0
LAYER
  5
445B
330
2
100
AcDbSymbolTableRecord
100
AcDbLayerTableRecord
  2
004
 70
     0
 62
     4
  6
CONTINUOUS
370
    -3
390
F
  0
ENDTAB
  0
TABLE
  2
STYLE
  5
3
330
0
100
AcDbSymbolTable
 70
     1
  0
STYLE
  5
11
330
3
100
AcDbSymbolTableRecord
100
AcDbTextStyleTableRecord
  2
STANDARD
 70
     0
 40
0.0
 41
1.0
 50
0.0
 71
     0
 42
0.2
  3
TXT
  4
BIGFONT
  0
ENDTAB
  0
TABLE
  2
VIEW
  5
6
330
0
100
AcDbSymbolTable
 70
     0
  0
ENDTAB
  0
TABLE
  2
UCS
  5
7
330
0
100
AcDbSymbolTable
 70
     0
  0
ENDTAB
  0
TABLE
  2
APPID
  5
9
330
0
100
AcDbSymbolTable
 70
     1
  0
APPID
  5
12
330
9
100
AcDbSymbolTableRecord
100
AcDbRegAppTableRecord
  2
ACAD
 70
     0
  0
ENDTAB
  0
TABLE
  2
DIMSTYLE
  5
A
330
0
100
AcDbSymbolTable
 70
     2
100
AcDbDimStyleTable
 71
     2
340
58A
340
4BA
  0
DIMSTYLE
105
4BA
330
A
100
AcDbSymbolTableRecord
100
AcDbDimStyleTableRecord
  2
Standard
 70
     0
340
11
  0
DIMSTYLE
105
58A
102
{ACAD_REACTORS
330
BAFA
330
BAFB
330
BB4F
330
BB53
330
BB72
330
B7FC
330
B806
330
B8D7
330
BE3E
102
}
330
A
100
AcDbSymbolTableRecord
100
AcDbDimStyleTableRecord
  2
ISO-25
 70
     0
 40
15.0
 41
0.75
 42
0.625
 43
3.75
 44
0.0
 73
     0
 74
     0
 77
     1
 78
     8
140
0.75
141
2.5
143
0.0394
145
1.0
147
0.5
172
     1
271
     0
272
     0
340
11
342
1390
  0
ENDTAB
  0
TABLE
  2
BLOCK_RECORD
  5
1
330
0
100
AcDbSymbolTable
 70
    10
  0
BLOCK_RECORD
  5
1E
330
1
100
AcDbSymbolTableRecord
100
AcDbBlockTableRecord
  2
*Model_Space
340
21
  0
BLOCK_RECORD
  5
1A
330
1
100
AcDbSymbolTableRecord
100
AcDbBlockTableRecord
  2
*Paper_Space
340
1D
  0
BLOCK_RECORD
  5
1390
330
1
100
AcDbSymbolTableRecord
100
AcDbBlockTableRecord
  2
_Open
340
0
102
{BLKREFS
331
BB0D
331
BB6C
331
B858
331
BDF5
331
BDF6
331
BDFE
331
BDFF
331
BE09
331
BE0A
331
BE12
331
BE13
331
BE1B
331
BE1C
331
BE24
331
BE25
331
BE2D
331
BE2E
331
BE36
331
BE37
331
BE45
331
BE46
102
}
  0
BLOCK_RECORD
  5
BD8C
330
1
100
AcDbSymbolTableRecord
100
AcDbBlockTableRecord
  2
*D1
340
0
  0
BLOCK_RECORD
  5
BD9A
330
1
100
AcDbSymbolTableRecord
100
AcDbBlockTableRecord
  2
*D2
340
0
  0
BLOCK_RECORD
  5
BDA6
330
1
100
AcDbSymbolTableRecord
100
AcDbBlockTableRecord
  2
*D3
340
0
  0
BLOCK_RECORD
  5
BDB4
330
1
100
AcDbSymbolTableRecord
100
AcDbBlockTableRecord
  2
*D4
340
0
  0
BLOCK_RECORD
  5
BDC0
330
1
100
AcDbSymbolTableRecord
100
AcDbBlockTableRecord
  2
*D5
340
0
  0
BLOCK_RECORD
  5
BDCC
330
1
100
AcDbSymbolTableRecord
100
AcDbBlockTableRecord
  2
*D6
340
0
  0
BLOCK_RECORD
  5
BDD8
330
1
100
AcDbSymbolTableRecord
100
AcDbBlockTableRecord
  2
*D7
340
0
  0
BLOCK_RECORD
  5
BDE4
330
1
100
AcDbSymbolTableRecord
100
AcDbBlockTableRecord
  2
*D8
340
0
  0
BLOCK_RECORD
  5
BE3F
330
1
100
AcDbSymbolTableRecord
100
AcDbBlockTableRecord
  2
*D9
340
0
  0
ENDTAB
  0
ENDSEC
  0
SECTION
  2
BLOCKS
  0
BLOCK
  5
1F
330
1E
100
AcDbEntity
  8
0
100
AcDbBlockBegin
  2
*Model_Space
 70
     0
 10
0.0
 20
0.0
 30
0.0
  3
*Model_Space
  1

  0
ENDBLK
  5
20
330
1E
100
AcDbEntity
  8
0
100
AcDbBlockEnd
  0
BLOCK
  5
1B
330
1A
100
AcDbEntity
 67
     1
  8
0
100
AcDbBlockBegin
  2
*Paper_Space
 70
     0
 10
0.0
 20
0.0
 30
0.0
  3
*Paper_Space
  1

  0
ENDBLK
  5
1C
330
1A
100
AcDbEntity
 67
     1
  8
0
100
AcDbBlockEnd
  0
BLOCK
  5
1394
330
1390
100
AcDbEntity
  8
0
100
AcDbBlockBegin
  2
_Open
 70
     0
 10
0.0
 20
0.0
 30
0.0
  3
_Open
  1

  0
LINE
  5
1391
330
1390
100
AcDbEntity
  8
0
  6
ByBlock
 62
     0
370
    -2
100
AcDbLine
 10
-1.0
 20
0.1666666666666666
 30
0.0
 11
0.0
 21
0.0
 31
0.0
  0
LINE
  5
1392
330
1390
100
AcDbEntity
  8
0
  6
ByBlock
 62
     0
370
    -2
100
AcDbLine
 10
-1.0
 20
-0.1666666666666666
 30
0.0
 11
0.0
 21
0.0
 31
0.0
  0
LINE
  5
1393
330
1390
100
AcDbEntity
  8
0
  6
ByBlock
 62
     0
370
    -2
100
AcDbLine
 10
0.0
 20
0.0
 30
0.0
 11
-1.0
 21
0.0
 31
0.0
  0
ENDBLK
  5
1395
330
1390
100
AcDbEntity
  8
0
100
AcDbBlockEnd
  0
BLOCK
  5
BD98
330
BD8C
100
AcDbEntity
  8
0
100
AcDbBlockBegin
  2
*D1
 70
     1
 10
0.0
 20
0.0
 30
0.0
  3
*D1
  1

  0
LINE
  5
BDF0
330
BD8C
100
AcDbEntity
  8
001
 62
     0
370
    -2
100
AcDbLine
 10
8954.297256634317
 20
-2966.498002117094
 30
0.0
 11
8954.297256634317
 21
-2940.290957274146
 31
0.0
  0
LINE
  5
BDF1
330
BD8C
100
AcDbEntity
  8
001
 62
     0
370
    -2
100
AcDbLine
 10
8976.297256634316
 20
-2960.498002117094
 30
0.0
 11
8976.297256634316
 21
-2940.290957274146
 31
0.0
  0
LINE
  5
BDF2
330
BD8C
100
AcDbEntity
  8
001
 62
     0
370
    -2
100
AcDbLine
 10
8943.047256634315
 20
-2940.290957274146
 30
0.0
 11
8931.797256634316
 21
-2940.290957274146
 31
0.0
  0
LINE
  5
BDF3
330
BD8C
100
AcDbEntity
  8
001
 62
     0
370
    -2
100
AcDbLine
 10
8987.547256634316
 20
-2940.290957274146
 30
0.0
 11
9032.547256634316
 21
-2940.290957274146
 31
0.0
  0
LINE
  5
BDF4
330
BD8C
100
AcDbEntity
  8
001
 62
     0
370
    -2
100
AcDbLine
 10
8954.297256634317
 20
-2940.290957274146
 30
0.0
 11
8976.297256634316
 21
-2940.290957274146
 31
0.0
  0
INSERT
  5
BDF5
330
BD8C
100
AcDbEntity
  8
001
 62
     0
370
    -2
100
AcDbBlockReference
  2
_Open
 10
8954.297256634317
 20
-2940.290957274146
 30
0.0
 41
11.25
 42
11.25
 43
11.25
  0
INSERT
  5
BDF6
330
BD8C
100
AcDbEntity
  8
001
 62
     0
370
    -2
100
AcDbBlockReference
  2
_Open
 10
8976.297256634316
 20
-2940.290957274146
 30
0.0
 41
11.25
 42
11.25
 43
11.25
 50
180.0
  0
MTEXT
  5
BDF7
330
BD8C
100
AcDbEntity
  8
001
 62
     0
100
AcDbMText
 10
9015.672256634315
 20
-2927.165957274146
 30
0.0
 40
11.25
 41
0.0
 71
     5
 72
     1
  1
\A1;22
 73
     1
 44
1.0
  0
POINT
  5
BDF8
330
BD8C
100
AcDbEntity
  8
DEFPOINTS
 62
     0
100
AcDbPoint
 10
8954.297256634317
 20
-2975.873002117094
 30
0.0
  0
POINT
  5
BDF9
330
BD8C
100
AcDbEntity
  8
DEFPOINTS
 62
     0
100
AcDbPoint
 10
8976.297256634316
 20
-2969.873002117094
 30
0.0
  0
POINT
  5
BDFA
330
BD8C
100
AcDbEntity
  8
DEFPOINTS
 62
     0
100
AcDbPoint
 10
8976.297256634316
 20
-2940.290957274146
 30
0.0
  0
ENDBLK
  5
BD99
330
BD8C
100
AcDbEntity
  8
0
100
AcDbBlockEnd
  0
BLOCK
  5
BDA4
330
BD9A
100
AcDbEntity
  8
0
100
AcDbBlockBegin
  2
*D2
 70
     1
 10
0.0
 20
0.0
 30
0.0
  3
*D2
  1

  0
LINE
  5
BDFB
330
BD9A
100
AcDbEntity
  8
001
 62
     0
370
    -2
100
AcDbLine
 10
8947.654306634317
 20
-2968.373002117094
 30
0.0
 11
8906.346936722306
 21
-2968.373002117094
 31
0.0
  0
LINE
  5
BDFC
330
BD9A
100
AcDbEntity
  8
001
 62
     0
370
    -2
100
AcDbLine
 10
8947.654306634317
 20
-3098.373002117094
 30
0.0
 11
8906.346936722306
 21
-3098.373002117094
 31
0.0
  0
LINE
  5
BDFD
330
BD9A
100
AcDbEntity
  8
001
 62
     0
370
    -2
100
AcDbLine
 10
8906.346936722306
 20
-2979.623002117094
 30
0.0
 11
8906.346936722306
 21
-3087.123002117094
 31
0.0
  0
INSERT
  5
BDFE
330
BD9A
100
AcDbEntity
  8
001
 62
     0
370
    -2
100
AcDbBlockReference
  2
_Open
 10
8906.346936722306
 20
-2968.373002117094
 30
0.0
 41
11.25
 42
11.25
 43
11.25
 50
90.0
  0
INSERT
  5
BDFF
330
BD9A
100
AcDbEntity
  8
001
 62
     0
370
    -2
100
AcDbBlockReference
  2
_Open
 10
8906.346936722306
 20
-3098.373002117094
 30
0.0
 41
11.25
 42
11.25
 43
11.25
 50
270.0
  0
MTEXT
  5
BE00
330
BD9A
100
AcDbEntity
  8
001
 62
     0
100
AcDbMText
 10
8893.221936722303
 20
-3033.373002117093
 30
0.0
 40
11.25
 41
0.0
 71
     5
 72
     1
  1
\A1;M130
 11
0.0000000000000001
 21
1.0
 31
0.0
 73
     1
 44
1.0
  0
POINT
  5
BE01
330
BD9A
100
AcDbEntity
  8
DEFPOINTS
 62
     0
100
AcDbPoint
 10
8957.029306634316
 20
-2968.373002117094
 30
0.0
  0
POINT
  5
BE02
330
BD9A
100
AcDbEntity
  8
DEFPOINTS
 62
     0
100
AcDbPoint
 10
8957.029306634316
 20
-3098.373002117094
 30
0.0
  0
POINT
  5
BE03
330
BD9A
100
AcDbEntity
  8
DEFPOINTS
 62
     0
100
AcDbPoint
 10
8906.346936722306
 20
-3098.373002117094
 30
0.0
  0
ENDBLK
  5
BDA5
330
BD9A
100
AcDbEntity
  8
0
100
AcDbBlockEnd
  0
BLOCK
  5
BDB2
330
BDA6
100
AcDbEntity
  8
0
100
AcDbBlockBegin
  2
*D3
 70
     1
 10
0.0
 20
0.0
 30
0.0
  3
*D3
  1

  0
LINE
  5
BE04
330
BDA6
100
AcDbEntity
  8
001
 62
     0
370
    -2
100
AcDbLine
 10
9598.338486816407
 20
-2921.498002117094
 30
0.0
 11
9598.338486816407
 21
-2903.510696392246
 31
0.0
  0
LINE
  5
BE05
330
BDA6
100
AcDbEntity
  8
001
 62
     0
370
    -2
100
AcDbLine
 10
9623.338486816408
 20
-2921.498002117094
 30
0.0
 11
9623.338486816408
 21
-2903.510696392246
 31
0.0
  0
LINE
  5
BE06
330
BDA6
100
AcDbEntity
  8
001
 62
     0
370
    -2
100
AcDbLine
 10
9587.088486816409
 20
-2903.510696392246
 30
0.0
 11
9575.838486816408
 21
-2903.510696392246
 31
0.0
  0
LINE
  5
BE07
330
BDA6
100
AcDbEntity
  8
001
 62
     0
370
    -2
100
AcDbLine
 10
9634.58848681641
 20
-2903.510696392246
 30
0.0
 11
9679.588486816408
 21
-2903.510696392246
 31
0.0
  0
LINE
  5
BE08
330
BDA6
100
AcDbEntity
  8
001
 62
     0
370
    -2
100
AcDbLine
 10
9598.338486816407
 20
-2903.510696392246
 30
0.0
 11
9623.338486816408
 21
-2903.510696392246
 31
0.0
  0
INSERT
  5
BE09
330
BDA6
100
AcDbEntity
  8
001
 62
     0
370
    -2
100
AcDbBlockReference
  2
_Open
 10
9598.338486816407
 20
-2903.510696392246
 30
0.0
 41
11.25
 42
11.25
 43
11.25
  0
INSERT
  5
BE0A
330
BDA6
100
AcDbEntity
  8
001
 62
     0
370
    -2
100
AcDbBlockReference
  2
_Open
 10
9623.338486816408
 20
-2903.510696392246
 30
0.0
 41
11.25
 42
11.25
 43
11.25
 50
180.0
  0
MTEXT
  5
BE0B
330
BDA6
100
AcDbEntity
  8
001
 62
     0
100
AcDbMText
 10
9662.713486816409
 20
-2890.385696392246
 30
0.0
 40
11.25
 41
0.0
 71
     5
 72
     1
  1
\A1;25
 73
     1
 44
1.0
  0
POINT
  5
BE0C
330
BDA6
100
AcDbEntity
  8
DEFPOINTS
 62
     0
100
AcDbPoint
 10
9598.338486816407
 20
-2930.873002117094
 30
0.0
  0
POINT
  5
BE0D
330
BDA6
100
AcDbEntity
  8
DEFPOINTS
 62
     0
100
AcDbPoint
 10
9623.338486816408
 20
-2930.873002117094
 30
0.0
  0
POINT
  5
BE0E
330
BDA6
100
AcDbEntity
  8
DEFPOINTS
 62
     0
100
AcDbPoint
 10
9623.338486816408
 20
-2903.510696392246
 30
0.0
  0
ENDBLK
  5
BDB3
330
BDA6
100
AcDbEntity
  8
0
100
AcDbBlockEnd
  0
BLOCK
  5
BDBE
330
BDB4
100
AcDbEntity
  8
0
100
AcDbBlockBegin
  2
*D4
 70
     1
 10
0.0
 20
0.0
 30
0.0
  3
*D4
  1

  0
LINE
  5
BE0F
330
BDB4
100
AcDbEntity
  8
001
 62
     0
370
    -2
100
AcDbLine
 10
9588.963486816409
 20
-2930.873002117094
 30
0.0
 11
9542.176742421714
 21
-2930.873002117094
 31
0.0
  0
LINE
  5
BE10
330
BDB4
100
AcDbEntity
  8
001
 62
     0
370
    -2
100
AcDbLine
 10
9588.963486816409
 20
-3135.873002117094
 30
0.0
 11
9542.176742421714
 21
-3135.873002117094
 31
0.0
  0
LINE
  5
BE11
330
BDB4
100
AcDbEntity
  8
001
 62
     0
370
    -2
100
AcDbLine
 10
9542.176742421714
 20
-2942.123002117094
 30
0.0
 11
9542.176742421714
 21
-3124.623002117094
 31
0.0
  0
INSERT
  5
BE12
330
BDB4
100
AcDbEntity
  8
001
 62
     0
370
    -2
100
AcDbBlockReference
  2
_Open
 10
9542.176742421714
 20
-2930.873002117094
 30
0.0
 41
11.25
 42
11.25
 43
11.25
 50
90.0
  0
INSERT
  5
BE13
330
BDB4
100
AcDbEntity
  8
001
 62
     0
370
    -2
100
AcDbBlockReference
  2
_Open
 10
9542.176742421714
 20
-3135.873002117094
 30
0.0
 41
11.25
 42
11.25
 43
11.25
 50
270.0
  0
MTEXT
  5
BE14
330
BDB4
100
AcDbEntity
  8
001
 62
     0
100
AcDbMText
 10
9529.051742421714
 20
-3033.373002117092
 30
0.0
 40
11.25
 41
0.0
 71
     5
 72
     1
  1
\A1;φ205
 11
0.0000000000000001
 21
1.0
 31
0.0
 73
     1
 44
1.0
  0
POINT
  5
BE15
330
BDB4
100
AcDbEntity
  8
DEFPOINTS
 62
     0
100
AcDbPoint
 10
9598.338486816407
 20
-2930.873002117094
 30
0.0
  0
POINT
  5
BE16
330
BDB4
100
AcDbEntity
  8
DEFPOINTS
 62
     0
100
AcDbPoint
 10
9598.338486816407
 20
-3135.873002117094
 30
0.0
  0
POINT
  5
BE17
330
BDB4
100
AcDbEntity
  8
DEFPOINTS
 62
     0
100
AcDbPoint
 10
9542.176742421714
 20
-3135.873002117094
 30
0.0
  0
ENDBLK
  5
BDBF
330
BDB4
100
AcDbEntity
  8
0
100
AcDbBlockEnd
  0
BLOCK
  5
BDCA
330
BDC0
100
AcDbEntity
  8
0
100
AcDbBlockBegin
  2
*D5
 70
     1
 10
0.0
 20
0.0
 30
0.0
  3
*D5
  1

  0
LINE
  5
BE18
330
BDC0
100
AcDbEntity
  8
001
 62
     0
370
    -2
100
AcDbLine
 10
9551.135633031336
 20
-2226.747034275195
 30
0.0
 11
9637.203869662148
 21
-2226.747034275195
 31
0.0
  0
LINE
  5
BE19
330
BDC0
100
AcDbEntity
  8
001
 62
     0
370
    -2
100
AcDbLine
 10
9473.317762221487
 20
-2351.747034275195
 30
0.0
 11
9637.203869662148
 21
-2351.747034275195
 31
0.0
  0
LINE
  5
BE1A
330
BDC0
100
AcDbEntity
  8
001
 62
     0
370
    -2
100
AcDbLine
 10
9637.203869662148
 20
-2237.997034275195
 30
0.0
 11
9637.203869662148
 21
-2340.497034275194
 31
0.0
  0
INSERT
  5
BE1B
330
BDC0
100
AcDbEntity
  8
001
 62
     0
370
    -2
100
AcDbBlockReference
  2
_Open
 10
9637.203869662148
 20
-2226.747034275195
 30
0.0
 41
11.25
 42
11.25
 43
11.25
 50
90.0
  0
INSERT
  5
BE1C
330
BDC0
100
AcDbEntity
  8
001
 62
     0
370
    -2
100
AcDbBlockReference
  2
_Open
 10
9637.203869662148
 20
-2351.747034275195
 30
0.0
 41
11.25
 42
11.25
 43
11.25
 50
270.0
  0
MTEXT
  5
BE1D
330
BDC0
100
AcDbEntity
  8
001
 62
     0
100
AcDbMText
 10
9624.078869662149
 20
-2289.247034275193
 30
0.0
 40
11.25
 41
0.0
 71
     5
 72
     1
  1
\A1;125
 11
0.0000000000000001
 21
1.0
 31
0.0
 73
     1
 44
1.0
  0
POINT
  5
BE1E
330
BDC0
100
AcDbEntity
  8
DEFPOINTS
 62
     0
100
AcDbPoint
 10
9541.760633031335
 20
-2226.747034275195
 30
0.0
  0
POINT
  5
BE1F
330
BDC0
100
AcDbEntity
  8
DEFPOINTS
 62
     0
100
AcDbPoint
 10
9463.942762221487
 20
-2351.747034275195
 30
0.0
  0
POINT
  5
BE20
330
BDC0
100
AcDbEntity
  8
DEFPOINTS
 62
     0
100
AcDbPoint
 10
9637.203869662148
 20
-2351.747034275195
 30
0.0
  0
ENDBLK
  5
BDCB
330
BDC0
100
AcDbEntity
  8
0
100
AcDbBlockEnd
  0
BLOCK
  5
BDD6
330
BDCC
100
AcDbEntity
  8
0
100
AcDbBlockBegin
  2
*D6
 70
     1
 10
0.0
 20
0.0
 30
0.0
  3
*D6
  1

  0
LINE
  5
BE21
330
BDCC
100
AcDbEntity
  8
001
 62
     0
370
    -2
100
AcDbLine
 10
8263.949781190676
 20
-2960.873002117094
 30
0.0
 11
8327.470251676293
 21
-2960.873002117094
 31
0.0
  0
LINE
  5
BE22
330
BDCC
100
AcDbEntity
  8
001
 62
     0
370
    -2
100
AcDbLine
 10
8263.949781190676
 20
-3105.873002117094
 30
0.0
 11
8327.470251676293
 21
-3105.873002117094
 31
0.0
  0
LINE
  5
BE23
330
BDCC
100
AcDbEntity
  8
001
 62
     0
370
    -2
100
AcDbLine
 10
8327.470251676293
 20
-2972.123002117094
 30
0.0
 11
8327.470251676293
 21
-3094.623002117094
 31
0.0
  0
INSERT
  5
BE24
330
BDCC
100
AcDbEntity
  8
001
 62
     0
370
    -2
100
AcDbBlockReference
  2
_Open
 10
8327.470251676293
 20
-2960.873002117094
 30
0.0
 41
11.25
 42
11.25
 43
11.25
 50
90.0
  0
INSERT
  5
BE25
330
BDCC
100
AcDbEntity
  8
001
 62
     0
370
    -2
100
AcDbBlockReference
  2
_Open
 10
8327.470251676293
 20
-3105.873002117094
 30
0.0
 41
11.25
 42
11.25
 43
11.25
 50
270.0
  0
MTEXT
  5
BE26
330
BDCC
100
AcDbEntity
  8
001
 62
     0
100
AcDbMText
 10
8314.345251676293
 20
-3033.373002117093
 30
0.0
 40
11.25
 41
0.0
 71
     5
 72
     1
  1
\A1;φ145
 11
0.0000000000000001
 21
1.0
 31
0.0
 73
     1
 44
1.0
  0
POINT
  5
BE27
330
BDCC
100
AcDbEntity
  8
DEFPOINTS
 62
     0
100
AcDbPoint
 10
8254.574781190676
 20
-2960.873002117094
 30
0.0
  0
POINT
  5
BE28
330
BDCC
100
AcDbEntity
  8
DEFPOINTS
 62
     0
100
AcDbPoint
 10
8254.574781190676
 20
-3105.873002117094
 30
0.0
  0
POINT
  5
BE29
330
BDCC
100
AcDbEntity
  8
DEFPOINTS
 62
     0
100
AcDbPoint
 10
8327.470251676293
 20
-3105.873002117094
 30
0.0
  0
ENDBLK
  5
BDD7
330
BDCC
100
AcDbEntity
  8
0
100
AcDbBlockEnd
  0
BLOCK
  5
BDE2
330
BDD8
100
AcDbEntity
  8
0
100
AcDbBlockBegin
  2
*D7
 70
     1
 10
0.0
 20
0.0
 30
0.0
  3
*D7
  1

  0
LINE
  5
BE2A
330
BDD8
100
AcDbEntity
  8
001
 62
     0
370
    -2
100
AcDbLine
 10
8076.574781190677
 20
-2964.870981117094
 30
0.0
 11
8076.574781190677
 21
-2928.062595239642
 31
0.0
  0
LINE
  5
BE2B
330
BDD8
100
AcDbEntity
  8
001
 62
     0
370
    -2
100
AcDbLine
 10
8256.574781190677
 20
-2953.498002117094
 30
0.0
 11
8256.574781190677
 21
-2928.062595239642
 31
0.0
  0
LINE
  5
BE2C
330
BDD8
100
AcDbEntity
  8
001
 62
     0
370
    -2
100
AcDbLine
 10
8087.824781190676
 20
-2928.062595239642
 30
0.0
 11
8245.324781190676
 21
-2928.062595239642
 31
0.0
  0
INSERT
  5
BE2D
330
BDD8
100
AcDbEntity
  8
001
 62
     0
370
    -2
100
AcDbBlockReference
  2
_Open
 10
8076.574781190677
 20
-2928.062595239642
 30
0.0
 41
11.25
 42
11.25
 43
11.25
 50
180.0
  0
INSERT
  5
BE2E
330
BDD8
100
AcDbEntity
  8
001
 62
     0
370
    -2
100
AcDbBlockReference
  2
_Open
 10
8256.574781190677
 20
-2928.062595239642
 30
0.0
 41
11.25
 42
11.25
 43
11.25
  0
MTEXT
  5
BE2F
330
BDD8
100
AcDbEntity
  8
001
 62
     0
100
AcDbMText
 10
8166.574781190677
 20
-2914.937595239642
 30
0.0
 40
11.25
 41
0.0
 71
     5
 72
     1
  1
\A1;180
 73
     1
 44
1.0
  0
POINT
  5
BE30
330
BDD8
100
AcDbEntity
  8
DEFPOINTS
 62
     0
100
AcDbPoint
 10
8076.574781190677
 20
-2974.245981117094
 30
0.0
  0
POINT
  5
BE31
330
BDD8
100
AcDbEntity
  8
DEFPOINTS
 62
     0
100
AcDbPoint
 10
8256.574781190677
 20
-2962.873002117094
 30
0.0
  0
POINT
  5
BE32
330
BDD8
100
AcDbEntity
  8
DEFPOINTS
 62
     0
100
AcDbPoint
 10
8256.574781190677
 20
-2928.062595239642
 30
0.0
  0
ENDBLK
  5
BDE3
330
BDD8
100
AcDbEntity
  8
0
100
AcDbBlockEnd
  0
BLOCK
  5
BDEE
330
BDE4
100
AcDbEntity
  8
0
100
AcDbBlockBegin
  2
*D8
 70
     1
 10
0.0
 20
0.0
 30
0.0
  3
*D8
  1

  0
LINE
  5
BE33
330
BDE4
100
AcDbEntity
  8
001
  6
Continuous
 62
     0
370
    -2
100
AcDbLine
 10
8490.667167471565
 20
-2262.663083538841
 30
0.0
 11
8591.356360426566
 21
-2280.417304922569
 31
0.0
  0
LINE
  5
BE34
330
BDE4
100
AcDbEntity
  8
001
  6
Continuous
 62
     0
370
    -2
100
AcDbLine
 10
8471.565867928203
 20
-2370.991936370184
 30
0.0
 11
8572.255060883202
 21
-2388.746157753911
 31
0.0
  0
LINE
  5
BE35
330
BDE4
100
AcDbEntity
  8
001
  6
Continuous
 62
     0
370
    -2
100
AcDbLine
 10
8589.402818427812
 20
-2291.496392143956
 30
0.0
 11
8574.208602881956
 21
-2377.667070532524
 31
0.0
  0
INSERT
  5
BE36
330
BDE4
100
AcDbEntity
  8
001
  6
Continuous
 62
     0
370
    -2
100
AcDbBlockReference
  2
_Open
 10
8591.356360426566
 20
-2280.417304922569
 30
0.0
 41
11.25
 42
11.25
 43
11.25
 50
79.99999999999963
  0
INSERT
  5
BE37
330
BDE4
100
AcDbEntity
  8
001
  6
Continuous
 62
     0
370
    -2
100
AcDbBlockReference
  2
_Open
 10
8572.255060883202
 20
-2388.746157753911
 30
0.0
 41
11.25
 42
11.25
 43
11.25
 50
259.9999999999996
  0
MTEXT
  5
BE38
330
BDE4
100
AcDbEntity
  8
001
  6
Continuous
 62
     0
100
AcDbMText
 10
8568.880108896598
 20
-2332.302599006362
 30
0.0
 40
11.25
 41
0.0
 71
     5
 72
     1
  1
\A1;110
 11
0.1736481776669372
 21
0.984807753012207
 31
0.0
 73
     1
 44
1.0
  0
POINT
  5
BE39
330
BDE4
100
AcDbEntity
  8
DEFPOINTS
  6
Continuous
 62
     0
100
AcDbPoint
 10
8481.434594787074
 20
-2261.035131873213
 30
0.0
  0
POINT
  5
BE3A
330
BDE4
100
AcDbEntity
  8
DEFPOINTS
  6
Continuous
 62
     0
100
AcDbPoint
 10
8462.333295243714
 20
-2369.363984704556
 30
0.0
  0
POINT
  5
BE3B
330
BDE4
100
AcDbEntity
  8
DEFPOINTS
  6
Continuous
 62
     0
100
AcDbPoint
 10
8572.255060883202
 20
-2388.746157753911
 30
0.0
  0
ENDBLK
  5
BDEF
330
BDE4
100
AcDbEntity
  8
0
100
AcDbBlockEnd
  0
BLOCK
  5
BE4D
330
BE3F
100
AcDbEntity
  8
0
100
AcDbBlockBegin
  2
*D9
 70
     1
 10
0.0
 20
0.0
 30
0.0
  3
*D9
  1

  0
LINE
  5
BE40
330
BE3F
100
AcDbEntity
  8
001
 62
     0
370
    -2
100
AcDbLine
 10
8404.272353467767
 20
-2153.875632688303
 30
0.0
 11
8409.8709522166
 21
-2122.124401388711
 31
0.0
  0
LINE
  5
BE41
330
BE3F
100
AcDbEntity
  8
001
 62
     0
370
    -2
100
AcDbLine
 10
8356.137739412334
 20
-2153.733205372792
 30
0.0
 11
8356.137739412336
 21
-2117.423354413512
 31
0.0
  0
ARC
  5
BE42
330
BE3F
100
AcDbEntity
  8
001
 62
     0
370
    -2
100
AcDbCircle
 10
8356.137739412336
 20
-2426.860594275193
 30
0.0
 40
309.4372398616811
100
AcDbArc
 50
75.83364287557575
 51
77.91682143778782
  0
ARC
  5
BE43
330
BE3F
100
AcDbEntity
  8
001
 62
     0
370
    -2
100
AcDbCircle
 10
8356.137739412336
 20
-2426.860594275193
 30
0.0
 40
309.4372398616811
100
AcDbArc
 50
92.08317856221208
 51
94.16635712442412
  0
ARC
  5
BE44
330
BE3F
100
AcDbEntity
  8
001
 62
     0
370
    -2
100
AcDbCircle
 10
8356.137739412336
 20
-2426.860594275193
 30
0.0
 40
309.4372398616811
100
AcDbArc
 50
79.99999999999989
 51
90.0
  0
INSERT
  5
BE45
330
BE3F
100
AcDbEntity
  8
001
 62
     0
370
    -2
100
AcDbBlockReference
  2
_Open
 10
8409.8709522166
 20
-2122.124401388711
 30
0.0
 41
11.25
 42
11.25
 43
11.25
 50
168.9584107188938
  0
INSERT
  5
BE46
330
BE3F
100
AcDbEntity
  8
001
 62
     0
370
    -2
100
AcDbBlockReference
  2
_Open
 10
8356.137739412336
 20
-2117.423354413512
 30
0.0
 41
11.25
 42
11.25
 43
11.25
 50
1.041589281106032
  0
MTEXT
  5
BE47
330
BE3F
100
AcDbEntity
  8
001
 62
     0
100
AcDbMText
 10
8384.250891009827
 20
-2105.525801120388
 30
0.0
 40
11.25
 41
0.0
 71
     5
 72
     1
  1
\A1;10°
 11
0.9961946980917455
 21
-0.0871557427476592
 31
0.0
 73
     1
 44
1.0
  0
POINT
  5
BE48
330
BE3F
100
AcDbEntity
  8
DEFPOINTS
 62
     0
100
AcDbPoint
 10
8392.061210326748
 20
-2119.515658330777
 30
0.0
  0
POINT
  5
BE49
330
BE3F
100
AcDbEntity
  8
DEFPOINTS
 62
     0
100
AcDbPoint
 10
8356.137739412334
 20
-2661.545809632293
 30
0.0
  0
POINT
  5
BE4A
330
BE3F
100
AcDbEntity
  8
DEFPOINTS
 62
     0
100
AcDbPoint
 10
8314.756403971498
 20
-2661.545809632293
 30
0.0
  0
POINT
  5
BE4B
330
BE3F
100
AcDbEntity
  8
DEFPOINTS
 62
     0
100
AcDbPoint
 10
8402.64440180214
 20
-2163.108205372792
 30
0.0
  0
POINT
  5
BE4C
330
BE3F
100
AcDbEntity
  8
DEFPOINTS
 62
     0
100
AcDbPoint
 10
8356.137739412334
 20
-2163.108205372792
 30
0.0
  0
ENDBLK
  5
BE4E
330
BE3F
100
AcDbEntity
  8
0
100
AcDbBlockEnd
  0
ENDSEC
  0
SECTION
  2
ENTITIES
  0
LWPOLYLINE
  5
B7F3
330
1E
100
AcDbEntity
  8
001
  6
DASHED
100
AcDbPolyline
 90
        4
 70
     1
 43
0.0
 10
7822.435452134293
 20
-3326.608932019036
 10
9895.135452134294
 20
-3326.608932019036
 10
9895.135452134294
 20
-1860.913932019035
 10
7822.435452134293
 20
-1860.913932019035
  0
LINE
  5
B7F4
330
1E
100
AcDbEntity
  8
003
  6
Continuous
100
AcDbLine
 10
8399.022016981845
 20
-2551.860594275194
 30
0.0
 11
8754.039322070331
 21
-2551.860594275194
 31
0.0
  0
LINE
  5
B7F5
330
1E
100
AcDbEntity
  8
003
100
AcDbLine
 10
8662.879947791308
 20
-2201.747034275194
 30
0.0
 11
8456.873544595421
 21
-2201.747034275194
 31
0.0
  0
LWPOLYLINE
  5
B7F6
330
1E
100
AcDbEntity
  8
003
  6
Continuous
100
AcDbPolyline
 90
       12
 70
     1
 43
0.0
 10
8214.806805150368
 20
-2091.747034275195
 10
8514.771903674215
 20
-2091.747034275195
 10
8614.771903674215
 20
-2201.747034275194
 10
8664.789354412292
 20
-2201.747034275194
 10
8664.789354412292
 20
-2199.447034275195
 10
8615.789354412292
 20
-2199.447034275195
 10
8515.789354412293
 20
-2089.447034275195
 10
8213.789354412293
 20
-2089.447034275195
 10
8113.789354412292
 20
-2199.447034275195
 10
8064.789354412292
 20
-2199.447034275195
 10
8064.789354412292
 20
-2201.747034275194
 10
8114.806805150369
 20
-2201.747034275194
  0
LINE
  5
B7F7
330
1E
100
AcDbEntity
  8
001
 62
     3
100
AcDbLine
 10
9853.135452134294
 20
-3282.858932019037
 30
0.0
 11
7898.875452134292
 21
-3282.858932019037
 31
0.0
  0
LINE
  5
B7F8
330
1E
100
AcDbEntity
  8
001
 62
     3
100
AcDbLine
 10
7898.875452134292
 20
-1940.538932019036
 30
0.0
 11
9853.135452134294
 21
-1940.538932019036
 31
0.0
  0
LINE
  5
B7F9
330
1E
100
AcDbEntity
  8
001
 62
     3
100
AcDbLine
 10
7898.875452134292
 20
-3282.858932019037
 30
0.0
 11
7898.875452134292
 21
-1940.538932019036
 31
0.0
  0
MTEXT
  5
B7FA
330
1E
100
AcDbEntity
  8
001
100
AcDbMText
 10
8286.72763307564
 20
-3024.957465979793
 30
0.0
 40
11.25
 41
0.0
 71
     5
 72
     1
  1
\A1;M130
 11
0.0000000000000001
 21
1.0
 31
0.0
 73
     1
 44
1.0
  0
LINE
  5
B7FB
330
1E
100
AcDbEntity
  8
001
100
AcDbLine
 10
8265.949781190677
 20
-2968.373002117094
 30
0.0
 11
8299.852633075643
 21
-2968.373002117094
 31
0.0
  0
DIMENSION
  5
B7FC
330
1E
100
AcDbEntity
  8
001
100
AcDbDimension
  2
*D6
 10
8327.470251676293
 20
-3105.873002117094
 30
0.0
 11
8314.345251676293
 21
-3033.373002117093
 31
0.0
 70
    32
  1
φ145
 71
     5
 42
145.0
  3
ISO-25
100
AcDbAlignedDimension
 13
8254.574781190676
 23
-2960.873002117094
 33
0.0
 14
8254.574781190676
 24
-3105.873002117094
 34
0.0
 50
90.0
100
AcDbRotatedDimension
  0
LINE
  5
B7FD
330
1E
100
AcDbEntity
  8
002
100
AcDbLine
 10
8114.742859190675
 20
-2973.392390117092
 30
0.0
 11
8119.876634190676
 21
-2968.258616117093
 31
0.0
  0
LINE
  5
B7FE
330
1E
100
AcDbEntity
  8
002
100
AcDbLine
 10
8210.251127190678
 20
-2965.932801117093
 30
0.0
 11
8081.446147190677
 21
-2969.247636117094
 31
0.0
  0
LINE
  5
B7FF
330
1E
100
AcDbEntity
  8
002
100
AcDbLine
 10
8210.251127190678
 20
-3100.813202117093
 30
0.0
 11
8081.446147190677
 21
-3097.498368117094
 31
0.0
  0
LINE
  5
B800
330
1E
100
AcDbEntity
  8
004
  6
CENTER
 62
     6
100
AcDbLine
 10
8264.761671190676
 20
-3033.373002117094
 30
0.0
 11
8067.384179923196
 21
-3033.373002117094
 31
0.0
  0
LINE
  5
B801
330
1E
100
AcDbEntity
  8
001
100
AcDbLine
 10
8063.372177923197
 20
-2857.418486117092
 30
0.0
 11
8215.372177923198
 21
-2857.418486117092
 31
0.0
  0
TEXT
  5
B802
330
1E
100
AcDbEntity
  8
001
100
AcDbText
 10
8063.372177923197
 20
-2857.418486117092
 30
0.0
 40
18.0
  1
アンカー頭部部品図
 41
0.787037
100
AcDbText
  0
LINE
  5
B803
330
1E
100
AcDbEntity
  8
001
100
AcDbLine
 10
8092.265305923197
 20
-2902.127892117092
 30
0.0
 11
8241.265305923196
 21
-2902.127892117092
 31
0.0
  0
TEXT
  5
B804
330
1E
100
AcDbEntity
  8
001
100
AcDbText
 10
8092.265305923197
 20
-2902.127892117092
 30
0.0
 40
16.0
  1
ヘッドキャップ（Ｌ型）
 41
0.703125
100
AcDbText
  0
LINE
  5
B805
330
1E
100
AcDbEntity
  8
002
100
AcDbLine
 10
8086.446147190676
 20
-2974.120615117093
 30
0.0
 11
8212.703415190677
 21
-2970.871347117094
 31
0.0
  0
DIMENSION
  5
B806
330
1E
100
AcDbEntity
  8
001
100
AcDbDimension
  2
*D7
 10
8256.574781190677
 20
-2928.062595239642
 30
0.0
 11
8166.574781190677
 21
-2914.937595239642
 31
0.0
 70
    32
 71
     5
 42
180.0000000000009
  3
ISO-25
100
AcDbAlignedDimension
 13
8076.574781190677
 23
-2974.245981117094
 33
0.0
 14
8256.574781190677
 24
-2962.873002117094
 34
0.0
100
AcDbRotatedDimension
  0
LINE
  5
B807
330
1E
100
AcDbEntity
  8
002
100
AcDbLine
 10
8081.574781190676
 20
-2979.118960117093
 30
0.0
 11
8081.574781190676
 21
-3033.373002117094
 31
0.0
  0
LINE
  5
B808
330
1E
100
AcDbEntity
  8
002
100
AcDbLine
 10
8076.574781190677
 20
-3092.500023117094
 30
0.0
 11
8076.574781190677
 21
-2974.245981117094
 31
0.0
  0
ARC
  5
B809
330
1E
100
AcDbEntity
  8
002
100
AcDbCircle
 10
8081.574781190676
 20
-3092.500023117094
 30
0.0
 40
5.0
100
AcDbArc
 50
180.0
 51
268.5258020000122
  0
LINE
  5
B80A
330
1E
100
AcDbEntity
  8
002
100
AcDbLine
 10
8076.574781190677
 20
-3011.560468117093
 30
0.0
 11
8081.574781190676
 21
-3006.560468117093
 31
0.0
  0
LINE
  5
B80B
330
1E
100
AcDbEntity
  8
002
100
AcDbLine
 10
8076.574781190677
 20
-3021.459963117093
 30
0.0
 11
8081.574781190676
 21
-3016.459963117093
 31
0.0
  0
LINE
  5
B80C
330
1E
100
AcDbEntity
  8
002
100
AcDbLine
 10
8076.574781190677
 20
-3001.660973117093
 30
0.0
 11
8081.574781190676
 21
-2996.660973117093
 31
0.0
  0
LINE
  5
B80D
330
1E
100
AcDbEntity
  8
002
100
AcDbLine
 10
8078.770365190676
 20
-3029.163874117093
 30
0.0
 11
8081.574781190676
 21
-3026.359458117092
 31
0.0
  0
LINE
  5
B80E
330
1E
100
AcDbEntity
  8
002
100
AcDbLine
 10
8076.574781190677
 20
-3029.106381117093
 30
0.0
 11
8081.574781190676
 21
-3029.237310117094
 31
0.0
  0
LINE
  5
B80F
330
1E
100
AcDbEntity
  8
002
100
AcDbLine
 10
8076.574781190677
 20
-3029.606381117093
 30
0.0
 11
8081.574781190676
 21
-3029.737310117094
 31
0.0
  0
ARC
  5
B810
330
1E
100
AcDbEntity
  8
002
100
AcDbCircle
 10
8081.574781190676
 20
-2974.245981117094
 30
0.0
 40
5.0
100
AcDbArc
 50
91.47419799998777
 51
180.0
  0
LINE
  5
B811
330
1E
100
AcDbEntity
  8
002
100
AcDbLine
 10
8094.420877190676
 20
-2973.915383117093
 30
0.0
 11
8099.554652190676
 21
-2968.781608117093
 31
0.0
  0
LINE
  5
B812
330
1E
100
AcDbEntity
  8
002
100
AcDbLine
 10
8104.581868190676
 20
-2973.653886117094
 30
0.0
 11
8109.715643190677
 21
-2968.520112117094
 31
0.0
  0
LINE
  5
B813
330
1E
100
AcDbEntity
  8
002
100
AcDbLine
 10
8076.574781190677
 20
-2991.761478117094
 30
0.0
 11
8081.574781190676
 21
-2986.761478117094
 31
0.0
  0
LINE
  5
B814
330
1E
100
AcDbEntity
  8
002
100
AcDbLine
 10
8076.574781190677
 20
-2981.861983117092
 30
0.0
 11
8089.393661190676
 21
-2969.043104117094
 31
0.0
  0
ARC
  5
B815
330
1E
100
AcDbEntity
  8
002
100
AcDbCircle
 10
8086.574781190675
 20
-2979.118960117093
 30
0.0
 40
5.0
100
AcDbArc
 50
91.47419799998777
 51
180.0
  0
LINE
  5
B816
330
1E
100
AcDbEntity
  8
002
100
AcDbLine
 10
8223.976705190676
 20
-2969.873002117094
 30
0.0
 11
8223.976705190676
 21
-3033.373002117094
 31
0.0
  0
LINE
  5
B817
330
1E
100
AcDbEntity
  8
002
100
AcDbLine
 10
8226.574781190675
 20
-2968.373002117094
 30
0.0
 11
8226.574781190675
 21
-2998.948334117094
 31
0.0
  0
LINE
  5
B818
330
1E
100
AcDbEntity
  8
002
100
AcDbLine
 10
8255.708756190676
 20
-2969.873002117094
 30
0.0
 11
8255.708756190676
 21
-2998.948334117094
 31
0.0
  0
LINE
  5
B819
330
1E
100
AcDbEntity
  8
002
100
AcDbLine
 10
8256.574781190677
 20
-3103.873002117094
 30
0.0
 11
8256.574781190677
 21
-2962.873002117094
 31
0.0
  0
LINE
  5
B81A
330
1E
100
AcDbEntity
  8
002
100
AcDbLine
 10
8219.574781190678
 20
-3051.125147117092
 30
0.0
 11
8254.574781190676
 21
-3051.125147117092
 31
0.0
  0
LINE
  5
B81B
330
1E
100
AcDbEntity
  8
002
100
AcDbLine
 10
8217.574781190677
 20
-3104.232958117094
 30
0.0
 11
8254.574781190676
 21
-3104.232958117094
 31
0.0
  0
LINE
  5
B81C
330
1E
100
AcDbEntity
  8
002
100
AcDbLine
 10
8217.574781190677
 20
-3103.232958117094
 30
0.0
 11
8254.574781190676
 21
-3103.232958117094
 31
0.0
  0
LINE
  5
B81D
330
1E
100
AcDbEntity
  8
002
100
AcDbLine
 10
8219.574781190678
 20
-3084.547247117094
 30
0.0
 11
8254.574781190676
 21
-3084.547247117094
 31
0.0
  0
LINE
  5
B81E
330
1E
100
AcDbEntity
  8
002
100
AcDbLine
 10
8219.574781190678
 20
-3052.125147117092
 30
0.0
 11
8254.574781190676
 21
-3052.125147117092
 31
0.0
  0
LINE
  5
B81F
330
1E
100
AcDbEntity
  8
002
100
AcDbLine
 10
8254.574781190676
 20
-3105.873002117094
 30
0.0
 11
8218.977906190676
 21
-3105.873002117094
 31
0.0
  0
ARC
  5
B820
330
1E
100
AcDbEntity
  8
002
100
AcDbCircle
 10
8217.574781190677
 20
-3105.232958117094
 30
0.0
 40
1.0
100
AcDbArc
 50
90.0
 51
180.0
  0
ARC
  5
B821
330
1E
100
AcDbEntity
  8
002
100
AcDbCircle
 10
8217.574781190677
 20
-3104.232958117094
 30
0.0
 40
1.0
100
AcDbArc
 50
90.0
 51
180.0
  0
ARC
  5
B822
330
1E
100
AcDbEntity
  8
002
100
AcDbCircle
 10
8218.977906190676
 20
-3100.873002117094
 30
0.0
 40
5.0
100
AcDbArc
 50
218.6598080000221
 51
270.0
  0
LINE
  5
B823
330
1E
100
AcDbEntity
  8
002
100
AcDbLine
 10
8214.026837190676
 20
-3102.688071117094
 30
0.0
 11
8215.073562190674
 21
-3103.996477117094
 31
0.0
  0
ARC
  5
B824
330
1E
100
AcDbEntity
  8
002
100
AcDbCircle
 10
8219.574781190678
 20
-3081.547247117094
 30
0.0
 40
3.0
100
AcDbArc
 50
180.0
 51
270.0
  0
LINE
  5
B825
330
1E
100
AcDbEntity
  8
002
100
AcDbLine
 10
8216.574781190677
 20
-3033.373002117094
 30
0.0
 11
8216.574781190677
 21
-3105.257633117093
 31
0.0
  0
ARC
  5
B826
330
1E
100
AcDbEntity
  8
002
100
AcDbCircle
 10
8219.574781190678
 20
-3055.125147117093
 30
0.0
 40
3.0
100
AcDbArc
 50
90.0
 51
180.0
  0
ARC
  5
B827
330
1E
100
AcDbEntity
  8
002
100
AcDbCircle
 10
8219.574781190678
 20
-3054.125147117092
 30
0.0
 40
3.0
100
AcDbArc
 50
90.0
 51
180.0
  0
ARC
  5
B828
330
1E
100
AcDbEntity
  8
002
100
AcDbCircle
 10
8210.122493190677
 20
-3105.811547117093
 30
0.0
 40
5.0
100
AcDbArc
 50
38.65980800002215
 51
88.52580200001224
  0
LINE
  5
B829
330
1E
100
AcDbEntity
  8
002
100
AcDbLine
 10
8254.574781190676
 20
-3105.873002117094
 30
0.0
 11
8256.574781190677
 21
-3103.873002117094
 31
0.0
  0
LINE
  5
B82A
330
1E
100
AcDbEntity
  8
002
100
AcDbLine
 10
8254.574781190676
 20
-3105.873002117094
 30
0.0
 11
8254.574781190676
 21
-3033.373002117094
 31
0.0
  0
LINE
  5
B82B
330
1E
100
AcDbEntity
  8
002
100
AcDbLine
 10
8196.030788190675
 20
-2971.300422117094
 30
0.0
 11
8201.164562190674
 21
-2966.166647117093
 31
0.0
  0
LINE
  5
B82C
330
1E
100
AcDbEntity
  8
002
100
AcDbLine
 10
8155.386823190676
 20
-2972.346406117094
 30
0.0
 11
8160.520598190677
 21
-2967.212631117094
 31
0.0
  0
LINE
  5
B82D
330
1E
100
AcDbEntity
  8
002
100
AcDbLine
 10
8135.064841190676
 20
-2972.869398117092
 30
0.0
 11
8140.198616190676
 21
-2967.735623117094
 31
0.0
  0
LINE
  5
B82E
330
1E
100
AcDbEntity
  8
002
100
AcDbLine
 10
8145.225832190675
 20
-2972.607902117093
 30
0.0
 11
8150.359607190676
 21
-2967.474127117093
 31
0.0
  0
LINE
  5
B82F
330
1E
100
AcDbEntity
  8
002
100
AcDbLine
 10
8124.903850190676
 20
-2973.130894117094
 30
0.0
 11
8130.037625190675
 21
-2967.997120117093
 31
0.0
  0
LINE
  5
B830
330
1E
100
AcDbEntity
  8
002
100
AcDbLine
 10
8170.928577190675
 20
-2966.944779117093
 30
0.0
 11
8170.797516190676
 21
-2971.949807117093
 31
0.0
  0
LINE
  5
B831
330
1E
100
AcDbEntity
  8
002
100
AcDbLine
 10
8175.708805190676
 20
-2971.823414117094
 30
0.0
 11
8180.842580190676
 21
-2966.689639117094
 31
0.0
  0
LINE
  5
B832
330
1E
100
AcDbEntity
  8
002
100
AcDbLine
 10
8185.869796190676
 20
-2971.561918117093
 30
0.0
 11
8191.003571190675
 21
-2966.428143117093
 31
0.0
  0
LINE
  5
B833
330
1E
100
AcDbEntity
  8
002
100
AcDbLine
 10
8170.427903190676
 20
-2966.957664117093
 30
0.0
 11
8170.296842190676
 21
-2971.962692117093
 31
0.0
  0
LINE
  5
B834
330
1E
100
AcDbEntity
  8
002
100
AcDbLine
 10
8162.226850190675
 20
-2967.168720117093
 30
0.0
 11
8162.357734190676
 21
-2972.167008117094
 31
0.0
  0
LINE
  5
B835
330
1E
100
AcDbEntity
  8
002
100
AcDbLine
 10
8162.726850190676
 20
-2967.155853117094
 30
0.0
 11
8162.857734190676
 21
-2972.154140117094
 31
0.0
  0
LINE
  5
B836
330
1E
100
AcDbEntity
  8
004
  6
CENTER
 62
     6
100
AcDbLine
 10
8166.574781190675
 20
-2975.285649117093
 30
0.0
 11
8166.574781190675
 21
-2964.466423117093
 31
0.0
  0
LINE
  5
B837
330
1E
100
AcDbEntity
  8
002
100
AcDbLine
 10
8238.556187190676
 20
-2968.373002117094
 30
0.0
 11
8246.056187190676
 21
-2960.873002117094
 31
0.0
  0
LINE
  5
B838
330
1E
100
AcDbEntity
  8
002
100
AcDbLine
 10
8223.976705190676
 20
-2969.873002117094
 30
0.0
 11
8255.708756190676
 21
-2969.873002117094
 31
0.0
  0
LINE
  5
B839
330
1E
100
AcDbEntity
  8
002
100
AcDbLine
 10
8226.574781190675
 20
-2968.373002117094
 30
0.0
 11
8256.574781190677
 21
-2968.373002117094
 31
0.0
  0
LINE
  5
B83A
330
1E
100
AcDbEntity
  8
002
100
AcDbLine
 10
8254.574781190676
 20
-2960.873002117094
 30
0.0
 11
8218.977906190676
 21
-2960.873002117094
 31
0.0
  0
ARC
  5
B83B
330
1E
100
AcDbEntity
  8
002
100
AcDbCircle
 10
8218.977906190676
 20
-2965.873002117094
 30
0.0
 40
5.0
100
AcDbArc
 50
90.0
 51
141.3401919999778
  0
LINE
  5
B83C
330
1E
100
AcDbEntity
  8
002
100
AcDbLine
 10
8214.026837190676
 20
-2964.057932117093
 30
0.0
 11
8215.073562190674
 21
-2962.749526117093
 31
0.0
  0
LINE
  5
B83D
330
1E
100
AcDbEntity
  8
002
100
AcDbLine
 10
8212.574781190676
 20
-2970.873002117094
 30
0.0
 11
8223.976705190676
 21
-2970.873002117094
 31
0.0
  0
LINE
  5
B83E
330
1E
100
AcDbEntity
  8
002
100
AcDbLine
 10
8223.976705190676
 20
-2969.873002117094
 30
0.0
 11
8226.574781190675
 21
-2968.373002117094
 31
0.0
  0
LINE
  5
B83F
330
1E
100
AcDbEntity
  8
002
100
AcDbLine
 10
8228.656692190677
 20
-2968.373002117094
 30
0.0
 11
8236.156692190675
 21
-2960.873002117094
 31
0.0
  0
LINE
  5
B840
330
1E
100
AcDbEntity
  8
002
100
AcDbLine
 10
8216.257197190676
 20
-2970.873002117094
 30
0.0
 11
8226.257197190676
 21
-2960.873002117094
 31
0.0
  0
LINE
  5
B841
330
1E
100
AcDbEntity
  8
002
100
AcDbLine
 10
8206.191779190676
 20
-2971.038926117093
 30
0.0
 11
8211.485657190676
 21
-2965.745047117094
 31
0.0
  0
ARC
  5
B842
330
1E
100
AcDbEntity
  8
002
100
AcDbCircle
 10
8210.122493190677
 20
-2960.934456117092
 30
0.0
 40
5.0
100
AcDbArc
 50
271.4741979999877
 51
321.3401919999778
  0
LINE
  5
B843
330
1E
100
AcDbEntity
  8
002
100
AcDbLine
 10
8254.574781190676
 20
-2960.873002117094
 30
0.0
 11
8256.574781190677
 21
-2962.873002117094
 31
0.0
  0
LINE
  5
B844
330
1E
100
AcDbEntity
  8
002
100
AcDbLine
 10
8255.708756190676
 20
-2969.873002117094
 30
0.0
 11
8256.574781190677
 21
-2968.373002117094
 31
0.0
  0
LINE
  5
B845
330
1E
100
AcDbEntity
  8
002
100
AcDbLine
 10
8248.455682190678
 20
-2968.373002117094
 30
0.0
 11
8255.265232190675
 21
-2961.563452117094
 31
0.0
  0
ARC
  5
B846
330
1E
100
AcDbEntity
  8
002
100
AcDbCircle
 10
8398.633284190678
 20
-3033.373002117094
 30
0.0
 40
69.5
100
AcDbArc
 50
45.81273299997833
 51
74.18726700002179
  0
LINE
  5
B847
330
1E
100
AcDbEntity
  8
004
  6
CENTER
 62
     6
100
AcDbLine
 10
8386.627981190676
 20
-3033.373002117094
 30
0.0
 11
8478.475294190678
 21
-3033.373002117094
 31
0.0
  0
ARC
  5
B848
330
1E
100
AcDbEntity
  8
002
100
AcDbCircle
 10
8398.633284190678
 20
-3033.373002117094
 30
0.0
 40
69.5
100
AcDbArc
 50
285.8127329999782
 51
314.1872670000216
  0
ARC
  5
B849
330
1E
100
AcDbEntity
  8
002
100
AcDbCircle
 10
8398.633284190678
 20
-3033.373002117094
 30
0.0
 40
59.0
100
AcDbArc
 50
270.0
 51
90.0
  0
ARC
  5
B84A
330
1E
100
AcDbEntity
  8
002
100
AcDbCircle
 10
8398.633284190678
 20
-3033.373002117094
 30
0.0
 40
62.5
100
AcDbArc
 50
270.0
 51
90.0
  0
ARC
  5
B84B
330
1E
100
AcDbEntity
  8
002
100
AcDbCircle
 10
8398.633284190678
 20
-3033.373002117094
 30
0.0
 40
63.5
100
AcDbArc
 50
270.0
 51
90.0
  0
ARC
  5
B84C
330
1E
100
AcDbEntity
  8
002
100
AcDbCircle
 10
8398.633284190678
 20
-3033.373002117094
 30
0.0
 40
65.0
100
AcDbArc
 50
270.0
 51
90.0
  0
LINE
  5
B84D
330
1E
100
AcDbEntity
  8
001
100
AcDbLine
 10
8299.852633075643
 20
-2979.623002117094
 30
0.0
 11
8299.852633075643
 21
-3046.531521353039
 31
0.0
  0
LINE
  5
B84E
330
1E
100
AcDbEntity
  8
004
  6
CENTER
 62
     6
100
AcDbLine
 10
8398.633284190678
 20
-2950.451862117093
 30
0.0
 11
8398.633284190678
 21
-3116.025643117092
 31
0.0
  0
ARC
  5
B84F
330
1E
100
AcDbEntity
  8
002
100
AcDbCircle
 10
8398.633284190678
 20
-3033.373002117094
 30
0.0
 40
72.5
100
AcDbArc
 50
270.0
 51
284.1986339999946
  0
ARC
  5
B850
330
1E
100
AcDbEntity
  8
002
100
AcDbCircle
 10
8398.633284190678
 20
-3033.373002117094
 30
0.0
 40
4.135691
100
AcDbArc
 50
270.0
 51
90.0
  0
ARC
  5
B851
330
1E
100
AcDbEntity
  8
002
100
AcDbCircle
 10
8398.633284190678
 20
-3033.373002117094
 30
0.0
 40
3.635691
100
AcDbArc
 50
270.0
 51
90.0
  0
ARC
  5
B852
330
1E
100
AcDbEntity
  8
002
100
AcDbCircle
 10
8417.844116190677
 20
-3101.205102117093
 30
0.0
 40
1.0
100
AcDbArc
 50
105.8127329999782
 51
194.9999999999944
  0
ARC
  5
B853
330
1E
100
AcDbEntity
  8
002
100
AcDbCircle
 10
8416.171109190676
 20
-3102.688762117093
 30
0.0
 40
1.0
100
AcDbArc
 50
284.1986339999946
 51
14.99999999999445
  0
ARC
  5
B854
330
1E
100
AcDbEntity
  8
002
100
AcDbCircle
 10
8417.844116190677
 20
-3101.205102117093
 30
0.0
 40
1.0
100
AcDbArc
 50
105.8127329999782
 51
194.9999999999944
  0
ARC
  5
B855
330
1E
100
AcDbEntity
  8
002
100
AcDbCircle
 10
8417.844116190677
 20
-3101.205102117093
 30
0.0
 40
1.0
100
AcDbArc
 50
105.8127329999782
 51
194.9999999999944
  0
ARC
  5
B856
330
1E
100
AcDbEntity
  8
002
100
AcDbCircle
 10
8416.171109190676
 20
-3102.688762117093
 30
0.0
 40
1.0
100
AcDbArc
 50
284.1986339999946
 51
14.99999999999445
  0
LINE
  5
B857
330
1E
100
AcDbEntity
  8
002
100
AcDbLine
 10
8416.878191190678
 20
-3101.463921117094
 30
0.0
 11
8417.137035190677
 21
-3102.429943117093
 31
0.0
  0
INSERT
  5
B858
330
1E
100
AcDbEntity
  8
001
100
AcDbBlockReference
  2
_Open
 10
8299.852633075643
 20
-2968.373002117094
 30
0.0
 41
11.25
 42
11.25
 43
11.25
 50
90.0
  0
ARC
  5
B859
330
1E
100
AcDbEntity
  8
002
100
AcDbCircle
 10
8398.633284190678
 20
-3033.373002117094
 30
0.0
 40
72.5
100
AcDbArc
 50
75.80136600000535
 51
90.0
  0
ARC
  5
B85A
330
1E
100
AcDbEntity
  8
002
100
AcDbCircle
 10
8416.171109190676
 20
-2964.057241117094
 30
0.0
 40
1.0
100
AcDbArc
 50
345.0000000000055
 51
75.80136600000535
  0
LINE
  5
B85B
330
1E
100
AcDbEntity
  8
002
100
AcDbLine
 10
8417.137035190677
 20
-2964.316060117093
 30
0.0
 11
8416.878191190678
 21
-2965.282082117093
 31
0.0
  0
ARC
  5
B85C
330
1E
100
AcDbEntity
  8
002
100
AcDbCircle
 10
8417.844116190677
 20
-2965.540901117094
 30
0.0
 40
1.0
100
AcDbArc
 50
165.0000000000055
 51
254.1872670000218
  0
ARC
  5
B85D
330
1E
100
AcDbEntity
  8
002
100
AcDbCircle
 10
8398.633284190678
 20
-3033.373002117094
 30
0.0
 40
72.5
100
AcDbArc
 50
15.80136600003083
 51
44.19863400003243
  0
ARC
  5
B85E
330
1E
100
AcDbEntity
  8
002
100
AcDbCircle
 10
8467.431406190677
 20
-3013.903324117093
 30
0.0
 40
1.0
100
AcDbArc
 50
284.9999999999944
 51
15.80136600003083
  0
ARC
  5
B85F
330
1E
100
AcDbEntity
  8
002
100
AcDbCircle
 10
8466.983022190676
 20
-3016.094020117094
 30
0.0
 40
1.0
100
AcDbArc
 50
104.9999999999944
 51
194.1872670000072
  0
LINE
  5
B860
330
1E
100
AcDbEntity
  8
002
100
AcDbLine
 10
8467.690225190676
 20
-3014.869250117093
 30
0.0
 11
8466.724203190675
 21
-3015.128095117094
 31
0.0
  0
ARC
  5
B861
330
1E
100
AcDbEntity
  8
002
100
AcDbCircle
 10
8466.983022190676
 20
-3050.651983117093
 30
0.0
 40
1.0
100
AcDbArc
 50
165.8127329999928
 51
255.0000000000055
  0
ARC
  5
B862
330
1E
100
AcDbEntity
  8
002
100
AcDbCircle
 10
8398.633284190678
 20
-3033.373002117094
 30
0.0
 40
69.5
100
AcDbArc
 50
345.8127329999927
 51
14.1872670000072
  0
ARC
  5
B863
330
1E
100
AcDbEntity
  8
002
100
AcDbCircle
 10
8447.772190190677
 20
-3083.926121117094
 30
0.0
 40
1.0
100
AcDbArc
 50
45.0
 51
134.1872670000216
  0
ARC
  5
B864
330
1E
100
AcDbEntity
  8
002
100
AcDbCircle
 10
8447.772190190677
 20
-3083.926121117094
 30
0.0
 40
1.0
100
AcDbArc
 50
45.0
 51
134.1872670000216
  0
ARC
  5
B865
330
1E
100
AcDbEntity
  8
002
100
AcDbCircle
 10
8449.893580190677
 20
-3083.219085117093
 30
0.0
 40
1.0
100
AcDbArc
 50
225.0
 51
315.8013659999675
  0
LINE
  5
B866
330
1E
100
AcDbEntity
  8
002
100
AcDbLine
 10
8449.186473190676
 20
-3083.926191117094
 30
0.0
 11
8448.479296190674
 21
-3083.219014117094
 31
0.0
  0
ARC
  5
B867
330
1E
100
AcDbEntity
  8
002
100
AcDbCircle
 10
8398.633284190678
 20
-3033.373002117094
 30
0.0
 40
72.5
100
AcDbArc
 50
315.8013659999675
 51
344.1986339999691
  0
ARC
  5
B868
330
1E
100
AcDbEntity
  8
002
100
AcDbCircle
 10
8467.431406190677
 20
-3052.842679117093
 30
0.0
 40
1.0
100
AcDbArc
 50
344.1986339999691
 51
75.00000000000555
  0
LINE
  5
B869
330
1E
100
AcDbEntity
  8
002
100
AcDbLine
 10
8466.724203190675
 20
-3051.617909117094
 30
0.0
 11
8467.690225190676
 21
-3051.876753117094
 31
0.0
  0
ARC
  5
B86A
330
1E
100
AcDbEntity
  8
002
100
AcDbCircle
 10
8447.772190190677
 20
-2982.819882117093
 30
0.0
 40
1.0
100
AcDbArc
 50
225.8127329999783
 51
315.0
  0
ARC
  5
B86B
330
1E
100
AcDbEntity
  8
002
100
AcDbCircle
 10
8449.893580190677
 20
-2983.526919117093
 30
0.0
 40
1.0
100
AcDbArc
 50
44.19863400003243
 51
135.0
  0
LINE
  5
B86C
330
1E
100
AcDbEntity
  8
002
100
AcDbLine
 10
8448.479296190674
 20
-2983.526989117093
 30
0.0
 11
8449.186473190676
 21
-2982.819812117093
 31
0.0
  0
LINE
  5
B86D
330
1E
100
AcDbEntity
  8
003
100
AcDbLine
 10
8266.201478950943
 20
-2334.780653716783
 30
0.0
 11
8322.62037720025
 21
-2344.728827699984
 31
0.0
  0
LINE
  5
B86E
330
1E
100
AcDbEntity
  8
003
100
AcDbLine
 10
8284.105527031385
 20
-2360.277005918755
 30
0.0
 11
8250.3241713432
 21
-2551.860594275194
 31
0.0
  0
LINE
  5
B86F
330
1E
100
AcDbEntity
  8
003
100
AcDbLine
 10
8293.461200685001
 20
-2361.926663606591
 30
0.0
 11
8259.970724156117
 21
-2551.860594275194
 31
0.0
  0
LINE
  5
B870
330
1E
100
AcDbEntity
  8
003
100
AcDbLine
 10
8319.450670100195
 20
-2366.509308278786
 30
0.0
 11
8254.462813211913
 21
-2355.050195690963
 31
0.0
  0
LINE
  5
B871
330
1E
100
AcDbEntity
  8
003
100
AcDbLine
 10
8335.06777711007
 20
-2201.747034275196
 30
0.0
 11
8062.879947791307
 21
-2201.747034275194
 31
0.0
  0
LINE
  5
B872
330
1E
100
AcDbEntity
  8
003
  6
Continuous
100
AcDbLine
 10
8325.779536343821
 20
-2233.588945385914
 30
0.0
 11
8201.359528239715
 21
-2211.650341017195
 31
0.0
  0
LINE
  5
B873
330
1E
100
AcDbEntity
  8
001
100
AcDbLine
 10
8130.488845268386
 20
-1995.696681181753
 30
0.0
 11
8354.708765506966
 21
-1995.696681181753
 31
0.0
  0
TEXT
  5
B874
330
1E
100
AcDbEntity
  8
001
100
AcDbText
 10
8130.488845268386
 20
-1992.055132522146
 30
0.0
 40
18.0
  1
10°振りアンカー頭部構造図
 41
0.787037
100
AcDbText
  0
LWPOLYLINE
  5
B875
330
1E
100
AcDbEntity
  8
002
100
AcDbPolyline
 90
       27
 70
     0
 43
0.0
 10
8359.457021515309
 20
-2613.77757140576
 10
8359.376316507088
 20
-2613.874532026886
 10
8359.29549220007
 20
-2613.971358884055
 10
8355.566593996989
 20
-2618.130134005949
 10
8351.582491938513
 20
-2621.958317165134
 10
8347.339058472531
 20
-2625.412266239713
 10
8342.832166866077
 20
-2628.448338534214
 10
8338.057686781583
 20
-2631.022891435592
 10
8335.483456739764
 20
-2632.161756558662
 10
8332.849081962946
 20
-2633.17412819624
 10
8330.167136825847
 20
-2634.068713687828
 10
8327.450199062234
 20
-2634.854221683232
 10
8324.710845832287
 20
-2635.53936001311
 10
8320.389905581508
 20
-2636.434642538299
 10
8316.042833226639
 20
-2637.148766703584
 10
8311.66771549562
 20
-2637.726165539452
 10
8307.262636904525
 20
-2638.211272404409
 10
8302.825681886996
 20
-2638.648517052337
 10
8298.262593677943
 20
-2639.101171570249
 10
8293.712558895316
 20
-2639.650513708902
 10
8289.223954779515
 20
-2640.396816617127
 10
8284.845158816514
 20
-2641.440352051027
 10
8280.624549065858
 20
-2642.881392585858
 10
8278.539348898169
 20
-2643.800440138153
 10
8276.50218306638
 20
-2644.83524109356
 10
8274.506987464359
 20
-2645.971179396732
 10
8272.547695200515
 20
-2647.193638501179
  0
LINE
  5
B876
330
1E
100
AcDbEntity
  8
003
100
AcDbLine
 10
8266.201478950943
 20
-2334.780653716783
 30
0.0
 11
8222.405720124646
 21
-2215.361352487676
 31
0.0
  0
LINE
  5
B877
330
1E
100
AcDbEntity
  8
003
100
AcDbLine
 10
7989.495999636535
 20
-2411.345851848878
 30
0.0
 11
7989.495999636535
 21
-2182.784408339081
 31
0.0
  0
LINE
  5
B878
330
1E
100
AcDbEntity
  8
003
100
AcDbLine
 10
8254.462813211913
 20
-2355.050195690963
 30
0.0
 11
8201.907902955893
 21
-2211.747034275195
 31
0.0
  0
LINE
  5
B879
330
1E
100
AcDbEntity
  8
003
  6
Continuous
100
AcDbLine
 10
7989.495999636535
 20
-2551.860594275196
 30
0.0
 11
8270.352630852437
 21
-2551.860594275194
 31
0.0
  0
LINE
  5
B87A
330
1E
100
AcDbEntity
  8
003
100
AcDbLine
 10
7989.495999636535
 20
-2457.947888848879
 30
0.0
 11
7989.495999636535
 21
-2595.443754374702
 31
0.0
  0
LINE
  5
B87B
330
1E
100
AcDbEntity
  8
003
100
AcDbLine
 10
7989.495999636535
 20
-2411.345851848878
 30
0.0
 11
8009.219882636534
 21
-2411.345851848878
 31
0.0
  0
LINE
  5
B87C
330
1E
100
AcDbEntity
  8
003
100
AcDbLine
 10
8009.219882636534
 20
-2411.345851848878
 30
0.0
 11
7971.095601636534
 21
-2457.947888848879
 31
0.0
  0
LINE
  5
B87D
330
1E
100
AcDbEntity
  8
003
100
AcDbLine
 10
7971.095601636534
 20
-2457.947888848879
 30
0.0
 11
7989.495999636535
 21
-2457.947888848879
 31
0.0
  0
LINE
  5
B87E
330
1E
100
AcDbEntity
  8
003
100
AcDbLine
 10
8249.307309147557
 20
-2636.36812537157
 30
0.0
 11
8250.606564519726
 21
-2640.660529970104
 31
0.0
  0
LINE
  5
B87F
330
1E
100
AcDbEntity
  8
003
100
AcDbLine
 10
8241.084881675565
 20
-2687.381308705908
 30
0.0
 11
8239.590513305136
 21
-2689.673717197623
 31
0.0
  0
LINE
  5
B880
330
1E
100
AcDbEntity
  8
003
100
AcDbLine
 10
8252.538744030166
 20
-2645.113710235489
 30
0.0
 11
8253.915183104735
 21
-2649.377113040886
 31
0.0
  0
LINE
  5
B881
330
1E
100
AcDbEntity
  8
003
100
AcDbLine
 10
8250.606564519726
 20
-2640.660529970104
 30
0.0
 11
8252.538744030166
 21
-2645.113710235489
 31
0.0
  0
LINE
  5
B882
330
1E
100
AcDbEntity
  8
003
100
AcDbLine
 10
8253.547216184474
 20
-2653.100185085801
 30
0.0
 11
8252.018299824088
 21
-2655.045386526746
 31
0.0
  0
LINE
  5
B883
330
1E
100
AcDbEntity
  8
003
100
AcDbLine
 10
8248.058834449841
 20
-2675.042896693568
 30
0.0
 11
8248.330025950187
 21
-2678.265162054627
 31
0.0
  0
LINE
  5
B884
330
1E
100
AcDbEntity
  8
003
100
AcDbLine
 10
8246.700922730054
 20
-2671.624139189603
 30
0.0
 11
8248.058834449841
 21
-2675.042896693568
 31
0.0
  0
LINE
  5
B885
330
1E
100
AcDbEntity
  8
003
100
AcDbLine
 10
8245.043131507387
 20
-2668.196315419489
 30
0.0
 11
8246.700922730054
 21
-2671.624139189603
 31
0.0
  0
LINE
  5
B886
330
1E
100
AcDbEntity
  8
003
100
AcDbLine
 10
8243.872298196686
 20
-2664.946852708652
 30
0.0
 11
8245.043131507387
 21
-2668.196315419489
 31
0.0
  0
LINE
  5
B887
330
1E
100
AcDbEntity
  8
003
100
AcDbLine
 10
8243.975263340852
 20
-2662.063177918659
 30
0.0
 11
8243.872298196686
 21
-2664.946852708652
 31
0.0
  0
LINE
  5
B888
330
1E
100
AcDbEntity
  8
003
100
AcDbLine
 10
8245.307366289354
 20
-2660.146997075488
 30
0.0
 11
8243.975263340852
 21
-2662.063177918659
 31
0.0
  0
LINE
  5
B889
330
1E
100
AcDbEntity
  8
003
100
AcDbLine
 10
8247.414493070214
 20
-2658.43070039807
 30
0.0
 11
8245.307366289354
 21
-2660.146997075488
 31
0.0
  0
LINE
  5
B88A
330
1E
100
AcDbEntity
  8
003
100
AcDbLine
 10
8249.812765178836
 20
-2656.776194314212
 30
0.0
 11
8247.414493070214
 21
-2658.43070039807
 31
0.0
  0
LINE
  5
B88B
330
1E
100
AcDbEntity
  8
003
100
AcDbLine
 10
8243.190537185476
 20
-2685.186659292052
 30
0.0
 11
8241.084881675565
 21
-2687.381308705908
 31
0.0
  0
LINE
  5
B88C
330
1E
100
AcDbEntity
  8
003
100
AcDbLine
 10
8245.422961037325
 20
-2682.997357207709
 30
0.0
 11
8243.190537185476
 21
-2685.186659292052
 31
0.0
  0
LINE
  5
B88D
330
1E
100
AcDbEntity
  8
003
100
AcDbLine
 10
8247.297630610894
 20
-2680.720995107629
 30
0.0
 11
8245.422961037325
 21
-2682.997357207709
 31
0.0
  0
LINE
  5
B88E
330
1E
100
AcDbEntity
  8
003
100
AcDbLine
 10
8248.330025950187
 20
-2678.265162054627
 30
0.0
 11
8247.297630610894
 21
-2680.720995107629
 31
0.0
  0
LINE
  5
B88F
330
1E
100
AcDbEntity
  8
003
100
AcDbLine
 10
8252.018299824088
 20
-2655.045386526746
 30
0.0
 11
8249.812765178836
 21
-2656.776194314212
 31
0.0
  0
LINE
  5
B890
330
1E
100
AcDbEntity
  8
003
100
AcDbLine
 10
8253.915183104735
 20
-2649.377113040886
 30
0.0
 11
8253.547216184474
 21
-2653.100185085801
 31
0.0
  0
LINE
  5
B891
330
1E
100
AcDbEntity
  8
003
100
AcDbLine
 10
8270.352630852437
 20
-2551.860594275194
 30
0.0
 11
8270.72204317119
 21
-2554.05027276164
 31
0.0
  0
LINE
  5
B892
330
1E
100
AcDbEntity
  8
003
100
AcDbLine
 10
8265.030105194
 20
-2561.843586044759
 30
0.0
 11
8263.903418332491
 21
-2563.918413211226
 31
0.0
  0
LINE
  5
B893
330
1E
100
AcDbEntity
  8
003
100
AcDbLine
 10
8266.721572021898
 20
-2559.907996218297
 30
0.0
 11
8265.030105194
 21
-2561.843586044759
 31
0.0
  0
LINE
  5
B894
330
1E
100
AcDbEntity
  8
003
100
AcDbLine
 10
8268.531556952833
 20
-2558.0230055595
 30
0.0
 11
8266.721572021898
 21
-2559.907996218297
 31
0.0
  0
LINE
  5
B895
330
1E
100
AcDbEntity
  8
003
100
AcDbLine
 10
8270.013800093067
 20
-2556.099976243325
 30
0.0
 11
8268.531556952833
 21
-2558.0230055595
 31
0.0
  0
LINE
  5
B896
330
1E
100
AcDbEntity
  8
003
100
AcDbLine
 10
8270.72204317119
 20
-2554.05027276164
 30
0.0
 11
8270.013800093067
 21
-2556.099976243325
 31
0.0
  0
LINE
  5
B897
330
1E
100
AcDbEntity
  8
003
100
AcDbLine
 10
8258.24470744458
 20
-2590.939637490764
 30
0.0
 11
8259.32235004719
 21
-2593.764004648325
 31
0.0
  0
LINE
  5
B898
330
1E
100
AcDbEntity
  8
003
100
AcDbLine
 10
8260.912660392897
 20
-2584.542278398947
 30
0.0
 11
8259.141834795642
 21
-2586.356520170102
 31
0.0
  0
LINE
  5
B899
330
1E
100
AcDbEntity
  8
003
100
AcDbLine
 10
8258.119914390421
 20
-2588.342098957364
 30
0.0
 11
8258.24470744458
 21
-2590.939637490764
 31
0.0
  0
LINE
  5
B89A
330
1E
100
AcDbEntity
  8
003
100
AcDbLine
 10
8259.141834795642
 20
-2586.356520170102
 30
0.0
 11
8258.119914390421
 21
-2588.342098957364
 31
0.0
  0
LINE
  5
B89B
330
1E
100
AcDbEntity
  8
003
100
AcDbLine
 10
8262.97283143648
 20
-2582.78617925441
 30
0.0
 11
8260.912660392897
 21
-2584.542278398947
 31
0.0
  0
LINE
  5
B89C
330
1E
100
AcDbEntity
  8
003
100
AcDbLine
 10
8264.862784241454
 20
-2580.975027652401
 30
0.0
 11
8262.97283143648
 21
-2582.78617925441
 31
0.0
  0
LINE
  5
B89D
330
1E
100
AcDbEntity
  8
003
100
AcDbLine
 10
8266.122957382718
 20
-2578.995632969008
 30
0.0
 11
8264.862784241454
 21
-2580.975027652401
 31
0.0
  0
LINE
  5
B89E
330
1E
100
AcDbEntity
  8
003
100
AcDbLine
 10
8266.378593593799
 20
-2576.203968068534
 30
0.0
 11
8266.122957382718
 21
-2578.995632969008
 31
0.0
  0
LINE
  5
B89F
330
1E
100
AcDbEntity
  8
003
100
AcDbLine
 10
8265.623842531367
 20
-2573.140501988626
 30
0.0
 11
8266.378593593799
 21
-2576.203968068534
 31
0.0
  0
LINE
  5
B8A0
330
1E
100
AcDbEntity
  8
003
100
AcDbLine
 10
8264.519320153443
 20
-2569.96514589648
 30
0.0
 11
8265.623842531367
 21
-2573.140501988626
 31
0.0
  0
LINE
  5
B8A1
330
1E
100
AcDbEntity
  8
003
100
AcDbLine
 10
8263.72564010114
 20
-2566.837812581616
 30
0.0
 11
8264.519320153443
 21
-2569.96514589648
 31
0.0
  0
LINE
  5
B8A2
330
1E
100
AcDbEntity
  8
003
100
AcDbLine
 10
8263.903418332491
 20
-2563.918413211226
 30
0.0
 11
8263.72564010114
 21
-2566.837812581616
 31
0.0
  0
LINE
  5
B8A3
330
1E
100
AcDbEntity
  8
003
100
AcDbLine
 10
8261.711456953795
 20
-2602.078177679091
 30
0.0
 11
8260.560623419289
 21
-2604.03562861105
 31
0.0
  0
LINE
  5
B8A4
330
1E
100
AcDbEntity
  8
003
100
AcDbLine
 10
8256.606778601
 20
-2619.068922172402
 30
0.0
 11
8257.763989983827
 21
-2621.67579812352
 31
0.0
  0
LINE
  5
B8A5
330
1E
100
AcDbEntity
  8
003
100
AcDbLine
 10
8255.13888924795
 20
-2616.376678632418
 30
0.0
 11
8256.606778601
 21
-2619.068922172402
 31
0.0
  0
LINE
  5
B8A6
330
1E
100
AcDbEntity
  8
003
100
AcDbLine
 10
8253.991077907164
 20
-2613.740638918379
 30
0.0
 11
8255.13888924795
 21
-2616.376678632418
 31
0.0
  0
LINE
  5
B8A7
330
1E
100
AcDbEntity
  8
003
100
AcDbLine
 10
8253.794105311518
 20
-2611.302376298146
 30
0.0
 11
8253.991077907164
 21
-2613.740638918379
 31
0.0
  0
LINE
  5
B8A8
330
1E
100
AcDbEntity
  8
003
100
AcDbLine
 10
8254.801203609309
 20
-2609.347059425419
 30
0.0
 11
8253.794105311518
 21
-2611.302376298146
 31
0.0
  0
LINE
  5
B8A9
330
1E
100
AcDbEntity
  8
003
100
AcDbLine
 10
8256.600992085685
 20
-2607.558525566397
 30
0.0
 11
8254.801203609309
 21
-2609.347059425419
 31
0.0
  0
LINE
  5
B8AA
330
1E
100
AcDbEntity
  8
003
100
AcDbLine
 10
8258.688967730137
 20
-2605.825230078921
 30
0.0
 11
8256.600992085685
 21
-2607.558525566397
 31
0.0
  0
LINE
  5
B8AB
330
1E
100
AcDbEntity
  8
003
100
AcDbLine
 10
8260.560623419289
 20
-2604.03562861105
 30
0.0
 11
8258.688967730137
 21
-2605.825230078921
 31
0.0
  0
LINE
  5
B8AC
330
1E
100
AcDbEntity
  8
003
100
AcDbLine
 10
8261.711815995377
 20
-2599.485264853951
 30
0.0
 11
8261.711456953795
 21
-2602.078177679091
 31
0.0
  0
LINE
  5
B8AD
330
1E
100
AcDbEntity
  8
003
100
AcDbLine
 10
8260.696749353813
 20
-2596.663211042923
 30
0.0
 11
8261.711815995377
 21
-2599.485264853951
 31
0.0
  0
LINE
  5
B8AE
330
1E
100
AcDbEntity
  8
003
100
AcDbLine
 10
8255.31345968176
 20
-2627.537341009503
 30
0.0
 11
8253.247641108524
 21
-2629.131444391168
 31
0.0
  0
LINE
  5
B8AF
330
1E
100
AcDbEntity
  8
003
100
AcDbLine
 10
8257.03609825593
 20
-2625.882824231144
 30
0.0
 11
8255.31345968176
 21
-2627.537341009503
 31
0.0
  0
LINE
  5
B8B0
330
1E
100
AcDbEntity
  8
003
100
AcDbLine
 10
8257.979763474724
 20
-2624.055734376372
 30
0.0
 11
8257.03609825593
 21
-2625.882824231144
 31
0.0
  0
LINE
  5
B8B1
330
1E
100
AcDbEntity
  8
003
100
AcDbLine
 10
8257.763989983827
 20
-2621.67579812352
 30
0.0
 11
8257.979763474724
 21
-2624.055734376372
 31
0.0
  0
LINE
  5
B8B2
330
1E
100
AcDbEntity
  8
003
100
AcDbLine
 10
8249.829639533379
 20
-2632.587049045787
 30
0.0
 11
8249.307309147557
 21
-2636.36812537157
 31
0.0
  0
LINE
  5
B8B3
330
1E
100
AcDbEntity
  8
003
100
AcDbLine
 10
8251.274437050993
 20
-2630.7772932447
 30
0.0
 11
8249.829639533379
 21
-2632.587049045787
 31
0.0
  0
LINE
  5
B8B4
330
1E
100
AcDbEntity
  8
003
100
AcDbLine
 10
8253.247641108524
 20
-2629.131444391168
 30
0.0
 11
8251.274437050993
 21
-2630.7772932447
 31
0.0
  0
LINE
  5
B8B5
330
1E
100
AcDbEntity
  8
003
100
AcDbLine
 10
8259.32235004719
 20
-2593.764004648325
 30
0.0
 11
8260.696749353813
 21
-2596.663211042923
 31
0.0
  0
LINE
  5
B8B6
330
1E
100
AcDbEntity
  8
004
  6
CENTER
100
AcDbLine
 10
8240.871610352138
 20
-2333.406423549946
 30
0.0
 11
8267.592069849042
 21
-2323.606979067079
 31
0.0
  0
LINE
  5
B8B7
330
1E
100
AcDbEntity
  8
003
100
AcDbLine
 10
8247.404359701162
 20
-2335.803683332265
 30
0.0
 11
8264.303735712283
 21
-2329.606016698051
 31
0.0
  0
LINE
  5
B8B8
330
1E
100
AcDbEntity
  8
003
100
AcDbLine
 10
8244.305526470879
 20
-2327.353994834302
 30
0.0
 11
8261.204902481999
 21
-2321.156328200088
 31
0.0
  0
LINE
  5
B8B9
330
1E
100
AcDbEntity
  8
003
 48
0.25
100
AcDbLine
 10
7989.495999636535
 20
-2217.010895491388
 30
0.0
 11
8062.879947791307
 21
-2201.747034275194
 31
0.0
  0
LINE
  5
B8BA
330
1E
100
AcDbEntity
  8
003
  6
Continuous
100
AcDbLine
 10
8211.00833056473
 20
-2213.351685198616
 30
0.0
 11
8209.99318273132
 21
-2201.747034275194
 31
0.0
  0
LINE
  5
B8BB
330
1E
100
AcDbEntity
  8
002
100
AcDbLine
 10
8373.107071890865
 20
-2297.261344139804
 30
0.0
 11
8378.889679123201
 21
-2264.466552945139
 31
0.0
  0
LINE
  5
B8BC
330
1E
100
AcDbEntity
  8
002
100
AcDbLine
 10
8384.517337008801
 20
-2299.273281737132
 30
0.0
 11
8390.299942848407
 21
-2266.478490296891
 31
0.0
  0
LINE
  5
B8BD
330
1E
100
AcDbEntity
  8
002
100
AcDbLine
 10
8395.589118361952
 20
-2267.892823039857
 30
0.0
 11
8383.822448804705
 21
-2306.379865356562
 31
0.0
  0
LINE
  5
B8BE
330
1E
100
AcDbEntity
  8
002
100
AcDbLine
 10
8398.093052579374
 20
-2301.667046674649
 30
0.0
 11
8403.875658418984
 21
-2268.87225523441
 31
0.0
  0
LINE
  5
B8BF
330
1E
100
AcDbEntity
  8
002
100
AcDbLine
 10
8411.167924870753
 20
-2291.803383743004
 30
0.0
 11
8407.551101761598
 21
-2250.462916211691
 31
0.0
  0
LINE
  5
B8C0
330
1E
100
AcDbEntity
  8
002
100
AcDbLine
 10
8409.503316304583
 20
-2303.678984026402
 30
0.0
 11
8415.285922144191
 21
-2270.884192586161
 31
0.0
  0
LINE
  5
B8C1
330
1E
100
AcDbEntity
  8
002
100
AcDbLine
 10
8422.031605943258
 20
-2321.023003826543
 30
0.0
 11
8429.815013345528
 21
-2276.881106931387
 31
0.0
  0
LINE
  5
B8C2
330
1E
100
AcDbEntity
  8
002
100
AcDbLine
 10
8420.575097657737
 20
-2272.298525329126
 30
0.0
 11
8408.808428100488
 21
-2310.785567645833
 31
0.0
  0
LINE
  5
B8C3
330
1E
100
AcDbEntity
  8
002
100
AcDbLine
 10
8382.496498779916
 20
-2308.298884787642
 30
0.0
 11
8378.879676244334
 21
-2266.958418075481
 31
0.0
  0
LINE
  5
B8C4
330
1E
100
AcDbEntity
  8
002
100
AcDbLine
 10
8398.421729504979
 20
-2268.392289528243
 30
0.0
 11
8396.315437756234
 21
-2308.58271637841
 31
0.0
  0
LINE
  5
B8C5
330
1E
100
AcDbEntity
  8
002
100
AcDbLine
 10
8394.947023647281
 20
-2321.944199346526
 30
0.0
 11
8415.152566125154
 21
-2207.352869564187
 31
0.0
  0
LINE
  5
B8C6
330
1E
100
AcDbEntity
  8
002
100
AcDbLine
 10
8405.524421813781
 20
-2323.809280028978
 30
0.0
 11
8425.729964291653
 21
-2209.217950246637
 31
0.0
  0
LINE
  5
B8C7
330
1E
100
AcDbEntity
  8
002
100
AcDbLine
 10
8372.994984504066
 20
-2362.184649959106
 30
0.0
 11
8400.74398499587
 21
-2204.812247957366
 31
0.0
  0
LINE
  5
B8C8
330
1E
100
AcDbEntity
  8
002
100
AcDbLine
 10
8447.180169078263
 20
-2199.108949020019
 30
0.0
 11
8431.344629487368
 21
-2304.741598012973
 31
0.0
  0
LINE
  5
B8C9
330
1E
100
AcDbEntity
  8
002
100
AcDbLine
 10
8435.817914662168
 20
-2303.42442865856
 30
0.0
 11
8451.972995935296
 21
-2195.660245487629
 31
0.0
  0
LINE
  5
B8CA
330
1E
100
AcDbEntity
  8
002
100
AcDbLine
 10
8348.121092595082
 20
-2292.855641850534
 30
0.0
 11
8353.903699827418
 21
-2260.060850655869
 31
0.0
  0
LINE
  5
B8CB
330
1E
100
AcDbEntity
  8
002
100
AcDbLine
 10
8359.531356320289
 20
-2294.867579202287
 30
0.0
 11
8365.313963552624
 21
-2262.072788007623
 31
0.0
  0
LINE
  5
B8CC
330
1E
100
AcDbEntity
  8
002
100
AcDbLine
 10
8348.449770339836
 20
-2259.580884130551
 30
0.0
 11
8346.343479164668
 21
-2299.77131179987
 31
0.0
  0
LINE
  5
B8CD
330
1E
100
AcDbEntity
  8
002
100
AcDbLine
 10
8370.603138247018
 20
-2263.487121324164
 30
0.0
 11
8358.836469508922
 21
-2301.974163067292
 31
0.0
  0
ARC
  5
B8CE
330
1E
100
AcDbEntity
  8
002
100
AcDbCircle
 10
8319.336457284142
 20
-2282.77513907421
 30
0.0
 40
4.228575
100
AcDbArc
 50
298.6598079999946
 51
348.5258020000171
  0
LINE
  5
B8CF
330
1E
100
AcDbEntity
  8
002
100
AcDbLine
 10
8330.416347132661
 20
-2304.868761853645
 30
0.0
 11
8338.19975453493
 21
-2260.726864958489
 31
0.0
  0
LINE
  5
B8D0
330
1E
100
AcDbEntity
  8
002
100
AcDbLine
 10
8354.11921452771
 20
-2328.156443208094
 30
0.0
 11
8350.208250153496
 21
-2283.453919120118
 31
0.0
  0
LINE
  5
B8D1
330
1E
100
AcDbEntity
  8
002
100
AcDbLine
 10
8344.975063662987
 20
-2313.132794522411
 30
0.0
 11
8365.180607533588
 21
-2198.541464985646
 31
0.0
  0
LINE
  5
B8D2
330
1E
100
AcDbEntity
  8
002
100
AcDbLine
 10
8348.481490429671
 20
-2181.705709013996
 30
0.0
 11
8327.233536380957
 21
-2286.384003307263
 31
0.0
  0
LINE
  5
B8D3
330
1E
100
AcDbEntity
  8
002
100
AcDbLine
 10
8360.534323623925
 20
-2286.744337054278
 30
0.0
 11
8356.91750051477
 21
-2245.403869522964
 31
0.0
  0
LINE
  5
B8D4
330
1E
100
AcDbEntity
  8
002
100
AcDbLine
 10
8373.435749635619
 20
-2263.986586419821
 30
0.0
 11
8371.329458460449
 21
-2304.17701408914
 31
0.0
  0
LINE
  5
B8D5
330
1E
100
AcDbEntity
  8
002
100
AcDbLine
 10
8355.552461829486
 20
-2314.997875204862
 30
0.0
 11
8375.75800570009
 21
-2200.406545668096
 31
0.0
  0
LINE
  5
B8D6
330
1E
100
AcDbEntity
  8
002
100
AcDbLine
 10
8362.417586337565
 20
-2360.319569276654
 30
0.0
 11
8390.166586829371
 21
-2202.947167274917
 31
0.0
  0
DIMENSION
  5
B8D7
330
1E
100
AcDbEntity
  8
001
  6
Continuous
100
AcDbDimension
  2
*D8
 10
8572.255060883202
 20
-2388.746157753911
 30
0.0
 11
8568.880108896598
 21
-2332.302599006362
 31
0.0
 70
    33
 71
     5
 42
109.9999999999993
  3
ISO-25
100
AcDbAlignedDimension
 13
8481.434594787078
 23
-2261.035131873213
 33
0.0
 14
8462.333295243714
 24
-2369.363984704556
 34
0.0
  0
LINE
  5
B8D8
330
1E
100
AcDbEntity
  8
003
100
AcDbLine
 10
8472.143373191379
 20
-2371.093766129583
 30
0.0
 11
8554.141731104403
 21
-2273.855361696005
 31
0.0
  0
LINE
  5
B8D9
330
1E
100
AcDbEntity
  8
003
100
AcDbLine
 10
8476.241519102954
 20
-2394.155765286159
 30
0.0
 11
8574.63954915644
 21
-2277.469680064232
 31
0.0
  0
LINE
  5
B8DA
330
1E
100
AcDbEntity
  8
004
  6
CENTER
 62
     6
100
AcDbLine
 10
8314.756403971498
 20
-2661.545809632293
 30
0.0
 11
8402.64440180214
 21
-2163.108205372792
 31
0.0
  0
LINE
  5
B8DB
330
1E
100
AcDbEntity
  8
004
  6
CENTER
 62
     6
100
AcDbLine
 10
8356.137739412334
 20
-2661.545809632293
 30
0.0
 11
8356.137739412334
 21
-2163.108205372792
 31
0.0
  0
LINE
  5
B8DC
330
1E
100
AcDbEntity
  8
002
100
AcDbLine
 10
8406.577343265359
 20
-2338.049498493144
 30
0.0
 11
8458.21503436707
 21
-2347.154616655865
 31
0.0
  0
LINE
  5
B8DD
330
1E
100
AcDbEntity
  8
003
100
AcDbLine
 10
8476.241519102954
 20
-2394.155765286159
 30
0.0
 11
8408.863694942361
 21
-2382.275236985216
 31
0.0
  0
LINE
  5
B8DE
330
1E
100
AcDbEntity
  8
003
100
AcDbLine
 10
8446.598806278402
 20
-2388.928955233797
 30
0.0
 11
8417.86956230435
 21
-2551.860594275194
 31
0.0
  0
LINE
  5
B8DF
330
1E
100
AcDbEntity
  8
003
100
AcDbLine
 10
8412.810606167171
 20
-2360.631798463125
 30
0.0
 11
8472.143373191379
 21
-2371.093766129583
 31
0.0
  0
LINE
  5
B8E0
330
1E
100
AcDbEntity
  8
002
100
AcDbLine
 10
8412.065024424295
 20
-2360.500332285533
 30
0.0
 11
8454.541190202037
 21
-2367.990026349194
 31
0.0
  0
LINE
  5
B8E1
330
1E
100
AcDbEntity
  8
003
 62
     3
100
AcDbLine
 10
8412.065024424295
 20
-2360.500332285533
 30
0.0
 11
8454.541190202037
 21
-2367.990026349194
 31
0.0
  0
LINE
  5
B8E2
330
1E
100
AcDbEntity
  8
003
100
AcDbLine
 10
8437.243132624784
 20
-2387.279297545961
 30
0.0
 11
8408.223009491434
 21
-2551.860594275194
 31
0.0
  0
ARC
  5
B8E3
330
1E
100
AcDbEntity
  8
002
100
AcDbCircle
 10
8369.565716140758
 20
-2521.166358464947
 30
0.0
 40
2.114285999999999
100
AcDbArc
 50
308.1896849999879
 51
31.81031500001687
  0
LINE
  5
B8E4
330
1E
100
AcDbEntity
  8
002
100
AcDbLine
 10
8308.366956044139
 20
-2518.247339594947
 30
0.0
 11
8310.858962171799
 21
-2522.264917319224
 31
0.0
  0
LINE
  5
B8E5
330
1E
100
AcDbEntity
  8
002
100
AcDbLine
 10
8308.08150698351
 20
-2516.765739013581
 30
0.0
 11
8371.647881430256
 21
-2521.53350038378
 31
0.0
  0
LINE
  5
B8E6
330
1E
100
AcDbEntity
  8
002
100
AcDbLine
 10
8366.382125913915
 20
-2527.04571184103
 30
0.0
 11
8311.144411232429
 21
-2523.746517900588
 31
0.0
  0
LINE
  5
B8E7
330
1E
100
AcDbEntity
  8
002
100
AcDbLine
 10
8305.878655716087
 20
-2529.258729357836
 30
0.0
 11
8369.44503040841
 21
-2534.026489335307
 31
0.0
  0
LINE
  5
B8E8
330
1E
100
AcDbEntity
  8
002
100
AcDbLine
 10
8364.264355680914
 20
-2560.307089009298
 30
0.0
 11
8360.548544795447
 21
-2563.23006110286
 31
0.0
  0
LINE
  5
B8E9
330
1E
100
AcDbEntity
  8
002
100
AcDbLine
 10
8362.261873504426
 20
-2553.513291144601
 30
0.0
 11
8364.753878239358
 21
-2557.530868623302
 31
0.0
  0
LINE
  5
B8EA
330
1E
100
AcDbEntity
  8
002
100
AcDbLine
 10
8366.467206948337
 20
-2547.814098665043
 30
0.0
 11
8362.751395243718
 21
-2550.737071332181
 31
0.0
  0
LINE
  5
B8EB
330
1E
100
AcDbEntity
  8
002
100
AcDbLine
 10
8301.47295342682
 20
-2554.244708653621
 30
0.0
 11
8365.039327873565
 21
-2559.012470023819
 31
0.0
  0
LINE
  5
B8EC
330
1E
100
AcDbEntity
  8
002
100
AcDbLine
 10
8303.675804694242
 20
-2541.751718309364
 30
0.0
 11
8367.242179140987
 21
-2546.519479679562
 31
0.0
  0
LINE
  5
B8ED
330
1E
100
AcDbEntity
  8
002
100
AcDbLine
 10
8364.179274892068
 20
-2539.538700792556
 30
0.0
 11
8308.941559965008
 21
-2536.239508244844
 31
0.0
  0
LINE
  5
B8EE
330
1E
100
AcDbEntity
  8
002
100
AcDbLine
 10
8290.543779188855
 20
-2637.478045232606
 30
0.0
 11
8286.827967484235
 21
-2640.401017899745
 31
0.0
  0
ARC
  5
B8EF
330
1E
100
AcDbEntity
  8
002
100
AcDbCircle
 10
8288.135160581084
 20
-2642.062778804056
 30
0.0
 40
2.114285999999999
100
AcDbArc
 50
128.1896849999879
 51
153.0805882558152
  0
LINE
  5
B8F0
330
1E
100
AcDbEntity
  8
002
100
AcDbLine
 10
8359.773572602795
 20
-2564.524680088339
 30
0.0
 11
8304.535857675739
 21
-2561.225487540627
 31
0.0
  0
LINE
  5
B8F1
330
1E
100
AcDbEntity
  8
002
100
AcDbLine
 10
8361.976423624644
 20
-2552.031691136813
 30
0.0
 11
8306.738708943159
 21
-2548.73249719637
 31
0.0
  0
LINE
  5
B8F2
330
1E
100
AcDbEntity
  8
002
100
AcDbLine
 10
8355.367870067953
 20
-2589.510660776852
 30
0.0
 11
8300.130155386469
 21
-2586.21146683641
 31
0.0
  0
LINE
  5
B8F3
330
1E
100
AcDbEntity
  8
002
100
AcDbLine
 10
8357.570721335376
 20
-2577.017670432597
 30
0.0
 11
8302.333006653892
 21
-2573.718476492153
 31
0.0
  0
LINE
  5
B8F4
330
1E
100
AcDbEntity
  8
002
100
AcDbLine
 10
8297.067251137548
 20
-2579.230687949403
 30
0.0
 11
8360.633625584295
 21
-2583.9984493196
 31
0.0
  0
LINE
  5
B8F5
330
1E
100
AcDbEntity
  8
002
100
AcDbLine
 10
8299.270102159397
 20
-2566.737698997876
 30
0.0
 11
8362.836476851716
 21
-2571.505458975345
 31
0.0
  0
LINE
  5
B8F6
330
1E
100
AcDbEntity
  8
002
100
AcDbLine
 10
8345.303908379959
 20
-2626.783247250742
 30
0.0
 11
8293.521601829777
 21
-2623.690436476447
 31
0.0
  0
LINE
  5
B8F7
330
1E
100
AcDbEntity
  8
002
100
AcDbLine
 10
8350.962167778682
 20
-2614.496640072633
 30
0.0
 11
8295.724453097198
 21
-2611.197446132191
 31
0.0
  0
LINE
  5
B8F8
330
1E
100
AcDbEntity
  8
002
100
AcDbLine
 10
8353.165019046107
 20
-2602.003649728378
 30
0.0
 11
8297.927304938196
 21
-2598.704456607089
 31
0.0
  0
LINE
  5
B8F9
330
1E
100
AcDbEntity
  8
002
100
AcDbLine
 10
8292.661548848277
 20
-2604.216667245186
 30
0.0
 11
8356.227923295024
 21
-2608.984428615386
 31
0.0
  0
LINE
  5
B8FA
330
1E
100
AcDbEntity
  8
002
100
AcDbLine
 10
8288.255845739858
 20
-2629.202647114545
 30
0.0
 11
8334.213753506661
 21
-2632.649694551634
 31
0.0
  0
LINE
  5
B8FB
330
1E
100
AcDbEntity
  8
002
100
AcDbLine
 10
8290.458697580856
 20
-2616.709657589441
 30
0.0
 11
8352.223598561428
 21
-2621.34230042132
 31
0.0
  0
LINE
  5
B8FC
330
1E
100
AcDbEntity
  8
002
100
AcDbLine
 10
8294.864399870126
 20
-2591.723678293658
 30
0.0
 11
8358.430774562448
 21
-2596.491438271128
 31
0.0
  0
ARC
  5
B8FD
330
1E
100
AcDbEntity
  8
002
100
AcDbCircle
 10
8307.960820432011
 20
-2529.625870457519
 30
0.0
 40
2.114285999999999
100
AcDbArc
 50
128.1896849999879
 51
211.8103150000168
  0
LINE
  5
B8FE
330
1E
100
AcDbEntity
  8
002
100
AcDbLine
 10
8310.36943903978
 20
-2525.041136886068
 30
0.0
 11
8306.653627335162
 21
-2527.964109553206
 31
0.0
  0
LINE
  5
B8FF
330
1E
100
AcDbEntity
  8
002
100
AcDbLine
 10
8306.164105595868
 20
-2530.740329365626
 30
0.0
 11
8308.656110330801
 21
-2534.757906844326
 31
0.0
  0
ARC
  5
B900
330
1E
100
AcDbEntity
  8
002
100
AcDbCircle
 10
8309.062245942934
 20
-2523.379375981754
 30
0.0
 40
2.114285999999999
100
AcDbArc
 50
308.1896849999879
 51
31.81031500001687
  0
ARC
  5
B901
330
1E
100
AcDbEntity
  8
002
100
AcDbCircle
 10
8303.555118716316
 20
-2554.611850572453
 30
0.0
 40
2.114285999999999
100
AcDbArc
 50
128.1896849999879
 51
211.8103150000168
  0
ARC
  5
B902
330
1E
100
AcDbEntity
  8
002
100
AcDbCircle
 10
8305.757969164586
 20
-2542.118860801775
 30
0.0
 40
2.114285999999999
100
AcDbArc
 50
128.1896849999879
 51
211.8103150000168
  0
LINE
  5
B903
330
1E
100
AcDbEntity
  8
002
100
AcDbLine
 10
8305.963737324088
 20
-2550.027117001002
 30
0.0
 11
8302.247925045891
 21
-2552.950088848989
 31
0.0
  0
LINE
  5
B904
330
1E
100
AcDbEntity
  8
002
100
AcDbLine
 10
8301.7584033066
 20
-2555.726308661409
 30
0.0
 11
8304.250408615109
 21
-2559.743886959262
 31
0.0
  0
ARC
  5
B905
330
1E
100
AcDbEntity
  8
002
100
AcDbCircle
 10
8302.453693205391
 20
-2560.858345048218
 30
0.0
 40
2.114285999999999
100
AcDbArc
 50
308.1896849999879
 51
31.81031500001687
  0
LINE
  5
B906
330
1E
100
AcDbEntity
  8
002
100
AcDbLine
 10
8308.166587772358
 20
-2537.534127230323
 30
0.0
 11
8304.45077688689
 21
-2540.457099323885
 31
0.0
  0
LINE
  5
B907
330
1E
100
AcDbEntity
  8
002
100
AcDbLine
 10
8303.961254328447
 20
-2543.233319709881
 30
0.0
 11
8306.453259063379
 21
-2547.250897188582
 31
0.0
  0
ARC
  5
B908
330
1E
100
AcDbEntity
  8
002
100
AcDbCircle
 10
8304.656543653662
 20
-2548.365355277537
 30
0.0
 40
2.114285999999999
100
AcDbArc
 50
308.1896849999879
 51
31.81031500001687
  0
ARC
  5
B909
330
1E
100
AcDbEntity
  8
002
100
AcDbCircle
 10
8299.149416427047
 20
-2579.597829868236
 30
0.0
 40
2.114285999999999
100
AcDbArc
 50
128.1896849999879
 51
211.8103150000168
  0
ARC
  5
B90A
330
1E
100
AcDbEntity
  8
002
100
AcDbCircle
 10
8296.946564586049
 20
-2592.090819393339
 30
0.0
 40
2.114285999999999
100
AcDbArc
 50
128.1896849999879
 51
211.8103150000168
  0
ARC
  5
B90B
330
1E
100
AcDbEntity
  8
002
100
AcDbCircle
 10
8301.352266875317
 20
-2567.104840097556
 30
0.0
 40
2.114285999999999
100
AcDbArc
 50
128.1896849999879
 51
211.8103150000168
  0
LINE
  5
B90C
330
1E
100
AcDbEntity
  8
002
100
AcDbLine
 10
8297.352700198178
 20
-2580.712288530767
 30
0.0
 11
8299.84470632584
 21
-2584.729866255043
 31
0.0
  0
ARC
  5
B90D
330
1E
100
AcDbEntity
  8
002
100
AcDbCircle
 10
8300.250841937971
 20
-2573.351335392471
 30
0.0
 40
2.114285999999999
100
AcDbArc
 50
308.1896849999879
 51
31.81031500001687
  0
LINE
  5
B90E
330
1E
100
AcDbEntity
  8
002
100
AcDbLine
 10
8299.555552039178
 20
-2568.219299005665
 30
0.0
 11
8302.047556774111
 21
-2572.236876484365
 31
0.0
  0
LINE
  5
B90F
330
1E
100
AcDbEntity
  8
002
100
AcDbLine
 10
8301.558035034817
 20
-2575.013096296785
 30
0.0
 11
8297.842223330199
 21
-2577.936068963923
 31
0.0
  0
ARC
  5
B910
330
1E
100
AcDbEntity
  8
002
100
AcDbCircle
 10
8298.047990096971
 20
-2585.844324917576
 30
0.0
 40
2.114285999999999
100
AcDbArc
 50
308.1896849999879
 51
31.81031500001687
  0
LINE
  5
B911
330
1E
100
AcDbEntity
  8
002
100
AcDbLine
 10
8299.355183193819
 20
-2587.506085821889
 30
0.0
 11
8295.639371489199
 21
-2590.429058489027
 31
0.0
  0
LINE
  5
B912
330
1E
100
AcDbEntity
  8
002
100
AcDbLine
 10
8303.760885483089
 20
-2562.520106526106
 30
0.0
 11
8300.045074597621
 21
-2565.443078619668
 31
0.0
  0
ARC
  5
B913
330
1E
100
AcDbEntity
  8
002
100
AcDbCircle
 10
8306.859395494663
 20
-2535.872365752435
 30
0.0
 40
2.114285999999999
100
AcDbArc
 50
308.1896849999879
 51
31.81031500001687
  0
ARC
  5
B914
330
1E
100
AcDbEntity
  8
002
100
AcDbCircle
 10
8294.743713318625
 20
-2604.583809737596
 30
0.0
 40
2.114285999999999
100
AcDbArc
 50
128.1896849999879
 51
211.8103150000168
  0
LINE
  5
B915
330
1E
100
AcDbEntity
  8
002
100
AcDbLine
 10
8292.946997908908
 20
-2605.69826782655
 30
0.0
 11
8295.439003217417
 21
-2609.715846124403
 31
0.0
  0
LINE
  5
B916
330
1E
100
AcDbEntity
  8
002
100
AcDbLine
 10
8297.152331926398
 20
-2599.999076166144
 30
0.0
 11
8293.436521040929
 21
-2602.922048259706
 31
0.0
  0
ARC
  5
B917
330
1E
100
AcDbEntity
  8
002
100
AcDbCircle
 10
8293.642287807703
 20
-2610.830304213359
 30
0.0
 40
2.114285999999999
100
AcDbArc
 50
308.1896849999879
 51
31.81031500001687
  0
ARC
  5
B918
330
1E
100
AcDbEntity
  8
002
100
AcDbCircle
 10
8295.845139648701
 20
-2598.337314688254
 30
0.0
 40
2.114285999999999
100
AcDbArc
 50
308.1896849999879
 51
31.81031500001687
  0
ARC
  5
B919
330
1E
100
AcDbEntity
  8
002
100
AcDbCircle
 10
8291.439437359432
 20
-2623.323293984038
 30
0.0
 40
2.114285999999999
100
AcDbArc
 50
308.1896849999879
 51
31.81031500001687
  0
ARC
  5
B91A
330
1E
100
AcDbEntity
  8
002
100
AcDbCircle
 10
8292.540862870355
 20
-2617.076799508275
 30
0.0
 40
2.114285999999999
100
AcDbArc
 50
128.1896849999879
 51
211.8103150000168
  0
ARC
  5
B91B
330
1E
100
AcDbEntity
  8
002
100
AcDbCircle
 10
8290.338011029355
 20
-2629.569789033377
 30
0.0
 40
2.114285999999999
100
AcDbArc
 50
128.1896849999879
 51
211.8103150000168
  0
LINE
  5
B91C
330
1E
100
AcDbEntity
  8
002
100
AcDbLine
 10
8288.541296193216
 20
-2630.684247941486
 30
0.0
 11
8291.033300928146
 21
-2634.701825420187
 31
0.0
  0
ARC
  5
B91D
330
1E
100
AcDbEntity
  8
002
100
AcDbCircle
 10
8289.236586092009
 20
-2635.816284328293
 30
0.0
 40
2.114285999999999
100
AcDbArc
 50
308.1896849999879
 51
31.81031500001687
  0
LINE
  5
B91E
330
1E
100
AcDbEntity
  8
002
100
AcDbLine
 10
8292.746629637127
 20
-2624.985055461928
 30
0.0
 11
8289.03081875166
 21
-2627.90802755549
 31
0.0
  0
LINE
  5
B91F
330
1E
100
AcDbEntity
  8
002
100
AcDbLine
 10
8313.375344954808
 20
-2637.500804001216
 30
0.0
 11
8291.31875080793
 21
-2636.183425427975
 31
0.0
  0
LINE
  5
B920
330
1E
100
AcDbEntity
  8
002
100
AcDbLine
 10
8290.744147460639
 20
-2618.191257597229
 30
0.0
 11
8293.236152769146
 21
-2622.208835895084
 31
0.0
  0
LINE
  5
B921
330
1E
100
AcDbEntity
  8
002
100
AcDbLine
 10
8294.949481478125
 20
-2612.492065936823
 30
0.0
 11
8291.233669199931
 21
-2615.415037784809
 31
0.0
  0
LINE
  5
B922
330
1E
100
AcDbEntity
  8
002
100
AcDbLine
 10
8295.149849749908
 20
-2593.205278301448
 30
0.0
 11
8297.64185448484
 21
-2597.222855780148
 31
0.0
  0
ARC
  5
B923
330
1E
100
AcDbEntity
  8
002
100
AcDbCircle
 10
8364.058588914142
 20
-2552.398833055645
 30
0.0
 40
2.114285999999999
100
AcDbArc
 50
128.1896849999879
 51
211.8103150000168
  0
LINE
  5
B924
330
1E
100
AcDbEntity
  8
002
100
AcDbLine
 10
8362.061505232643
 20
-2572.800078779979
 30
0.0
 11
8358.345692954449
 21
-2575.723050627963
 31
0.0
  0
ARC
  5
B925
330
1E
100
AcDbEntity
  8
002
100
AcDbCircle
 10
8358.551460294796
 20
-2583.631307400768
 30
0.0
 40
2.114285999999999
100
AcDbArc
 50
308.1896849999879
 51
31.81031500001687
  0
ARC
  5
B926
330
1E
100
AcDbEntity
  8
002
100
AcDbCircle
 10
8357.450034783873
 20
-2589.877801876531
 30
0.0
 40
2.114285999999999
100
AcDbArc
 50
128.1896849999879
 51
211.8103150000168
  0
LINE
  5
B927
330
1E
100
AcDbEntity
  8
002
100
AcDbLine
 10
8359.858653391645
 20
-2585.293068305082
 30
0.0
 11
8356.142842506177
 21
-2588.216040398643
 31
0.0
  0
LINE
  5
B928
330
1E
100
AcDbEntity
  8
002
100
AcDbLine
 10
8357.856170396004
 20
-2578.499271013959
 30
0.0
 11
8360.348176523665
 21
-2582.516848738238
 31
0.0
  0
ARC
  5
B929
330
1E
100
AcDbEntity
  8
002
100
AcDbCircle
 10
8359.652886624871
 20
-2577.384812351429
 30
0.0
 40
2.114285999999999
100
AcDbArc
 50
128.1896849999879
 51
211.8103150000168
  0
ARC
  5
B92A
330
1E
100
AcDbEntity
  8
002
100
AcDbCircle
 10
8360.754311562219
 20
-2571.138317056513
 30
0.0
 40
2.114285999999999
100
AcDbArc
 50
308.1896849999879
 51
31.81031500001687
  0
LINE
  5
B92B
330
1E
100
AcDbEntity
  8
002
100
AcDbLine
 10
8360.059022237003
 20
-2566.006281488855
 30
0.0
 11
8362.551026971933
 21
-2570.023858967557
 31
0.0
  0
ARC
  5
B92C
330
1E
100
AcDbEntity
  8
002
100
AcDbCircle
 10
8361.855737073144
 20
-2564.89182258075
 30
0.0
 40
2.114285999999999
100
AcDbArc
 50
128.1896849999879
 51
211.8103150000168
  0
LINE
  5
B92D
330
1E
100
AcDbEntity
  8
002
100
AcDbLine
 10
8353.450468106734
 20
-2603.485250309742
 30
0.0
 11
8355.942473415245
 21
-2607.502828607596
 31
0.0
  0
ARC
  5
B92E
330
1E
100
AcDbEntity
  8
002
100
AcDbCircle
 10
8354.145758005527
 20
-2608.617286696551
 30
0.0
 40
2.114285999999999
100
AcDbArc
 50
308.1896849999879
 51
31.81031500001687
  0
ARC
  5
B92F
330
1E
100
AcDbEntity
  8
002
100
AcDbCircle
 10
8356.348609846525
 20
-2596.124297171447
 30
0.0
 40
2.114285999999999
100
AcDbArc
 50
308.1896849999879
 51
31.81031500001687
  0
ARC
  5
B930
330
1E
100
AcDbEntity
  8
002
100
AcDbCircle
 10
8355.247183516452
 20
-2602.370792220787
 30
0.0
 40
2.114285999999999
100
AcDbArc
 50
128.1896849999879
 51
211.8103150000168
  0
LINE
  5
B931
330
1E
100
AcDbEntity
  8
002
100
AcDbLine
 10
8357.655802124222
 20
-2597.786058649337
 30
0.0
 11
8353.939991238755
 21
-2600.709030742899
 31
0.0
  0
ARC
  5
B932
330
1E
100
AcDbEntity
  8
002
100
AcDbCircle
 10
8353.044333068181
 20
-2614.863781991467
 30
0.0
 40
2.114285999999999
100
AcDbArc
 50
128.1896849999879
 51
211.8103150000168
  0
LINE
  5
B933
330
1E
100
AcDbEntity
  8
002
100
AcDbLine
 10
8351.247617658463
 20
-2615.978240080421
 30
0.0
 11
8353.739622393396
 21
-2619.995817559123
 31
0.0
  0
LINE
  5
B934
330
1E
100
AcDbEntity
  8
002
100
AcDbLine
 10
8355.452951102376
 20
-2610.279047600863
 30
0.0
 11
8351.737139397755
 21
-2613.202020268001
 31
0.0
  0
LINE
  5
B935
330
1E
100
AcDbEntity
  8
002
100
AcDbLine
 10
8355.653319947732
 20
-2590.99226078464
 30
0.0
 11
8358.145324682665
 21
-2595.00983826334
 31
0.0
  0
LINE
  5
B936
330
1E
100
AcDbEntity
  8
003
100
AcDbLine
 10
8383.163897139537
 20
-2638.950941729117
 30
0.0
 11
8384.631786492583
 21
-2641.643185269102
 31
0.0
  0
LINE
  5
B937
330
1E
100
AcDbEntity
  8
003
100
AcDbLine
 10
8385.061106147517
 20
-2648.457087327846
 30
0.0
 11
8383.338467573347
 21
-2650.111604106203
 31
0.0
  0
LINE
  5
B938
330
1E
100
AcDbEntity
  8
003
100
AcDbLine
 10
8386.004771366309
 20
-2646.629997473073
 30
0.0
 11
8385.061106147517
 21
-2648.457087327846
 31
0.0
  0
LINE
  5
B939
330
1E
100
AcDbEntity
  8
003
100
AcDbLine
 10
8385.788997875414
 20
-2644.250061220222
 30
0.0
 11
8386.004771366309
 21
-2646.629997473073
 31
0.0
  0
LINE
  5
B93A
330
1E
100
AcDbEntity
  8
003
100
AcDbLine
 10
8384.631786492583
 20
-2641.643185269102
 30
0.0
 11
8385.788997875414
 21
-2644.250061220222
 31
0.0
  0
LINE
  5
B93B
330
1E
100
AcDbEntity
  8
003
100
AcDbLine
 10
8380.043307715679
 20
-2677.619649623448
 30
0.0
 11
8377.837773070419
 21
-2679.350457410913
 31
0.0
  0
LINE
  5
B93C
330
1E
100
AcDbEntity
  8
003
100
AcDbLine
 10
8381.572224076062
 20
-2675.674448182502
 30
0.0
 11
8380.043307715679
 21
-2677.619649623448
 31
0.0
  0
LINE
  5
B93D
330
1E
100
AcDbEntity
  8
003
100
AcDbLine
 10
8381.940190996321
 20
-2671.951376137587
 30
0.0
 11
8381.572224076062
 21
-2675.674448182502
 31
0.0
  0
LINE
  5
B93E
330
1E
100
AcDbEntity
  8
003
100
AcDbLine
 10
8380.563751921753
 20
-2667.687973332191
 30
0.0
 11
8381.940190996321
 21
-2671.951376137587
 31
0.0
  0
LINE
  5
B93F
330
1E
100
AcDbEntity
  8
003
100
AcDbLine
 10
8378.631572411313
 20
-2663.234793066804
 30
0.0
 11
8380.563751921753
 21
-2667.687973332191
 31
0.0
  0
LINE
  5
B940
330
1E
100
AcDbEntity
  8
003
100
AcDbLine
 10
8377.332317039142
 20
-2658.942388468271
 30
0.0
 11
8378.631572411313
 21
-2663.234793066804
 31
0.0
  0
LINE
  5
B941
330
1E
100
AcDbEntity
  8
003
100
AcDbLine
 10
8377.854647424966
 20
-2655.161312142487
 30
0.0
 11
8377.332317039142
 21
-2658.942388468271
 31
0.0
  0
LINE
  5
B942
330
1E
100
AcDbEntity
  8
003
100
AcDbLine
 10
8379.299444942581
 20
-2653.351556341402
 30
0.0
 11
8377.854647424966
 21
-2655.161312142487
 31
0.0
  0
LINE
  5
B943
330
1E
100
AcDbEntity
  8
003
100
AcDbLine
 10
8381.272649000111
 20
-2651.70570748787
 30
0.0
 11
8379.299444942581
 21
-2653.351556341402
 31
0.0
  0
LINE
  5
B944
330
1E
100
AcDbEntity
  8
003
100
AcDbLine
 10
8375.439500961801
 20
-2681.004963494771
 30
0.0
 11
8373.332374180945
 21
-2682.721260172189
 31
0.0
  0
LINE
  5
B945
330
1E
100
AcDbEntity
  8
003
100
AcDbLine
 10
8377.837773070419
 20
-2679.350457410913
 30
0.0
 11
8375.439500961801
 21
-2681.004963494771
 31
0.0
  0
LINE
  5
B946
330
1E
100
AcDbEntity
  8
003
100
AcDbLine
 10
8383.338467573347
 20
-2650.111604106203
 30
0.0
 11
8381.272649000111
 21
-2651.70570748787
 31
0.0
  0
LINE
  5
B947
330
1E
100
AcDbEntity
  8
003
100
AcDbLine
 10
8372.000271232439
 20
-2684.63744101536
 30
0.0
 11
8371.897306088269
 21
-2687.521115805353
 31
0.0
  0
LINE
  5
B948
330
1E
100
AcDbEntity
  8
003
100
AcDbLine
 10
8371.897306088269
 20
-2687.521115805353
 30
0.0
 11
8373.068139398977
 21
-2690.770578516191
 31
0.0
  0
LINE
  5
B949
330
1E
100
AcDbEntity
  8
003
100
AcDbLine
 10
8373.332374180945
 20
-2682.721260172189
 30
0.0
 11
8372.000271232439
 21
-2684.63744101536
 31
0.0
  0
LINE
  5
B94A
330
1E
100
AcDbEntity
  8
003
100
AcDbLine
 10
8399.022016981845
 20
-2551.860594275194
 30
0.0
 11
8400.211201329039
 21
-2554.378208645388
 31
0.0
  0
LINE
  5
B94B
330
1E
100
AcDbEntity
  8
003
100
AcDbLine
 10
8396.181836347997
 20
-2562.536771197563
 30
0.0
 11
8394.737715525439
 21
-2564.681172522973
 31
0.0
  0
LINE
  5
B94C
330
1E
100
AcDbEntity
  8
003
100
AcDbLine
 10
8398.417335201115
 20
-2560.701893036437
 30
0.0
 11
8396.181836347997
 21
-2562.536771197563
 31
0.0
  0
LINE
  5
B94D
330
1E
100
AcDbEntity
  8
003
100
AcDbLine
 10
8399.899578341351
 20
-2558.778863720261
 30
0.0
 11
8398.417335201115
 21
-2560.701893036437
 31
0.0
  0
LINE
  5
B94E
330
1E
100
AcDbEntity
  8
003
100
AcDbLine
 10
8400.607821419473
 20
-2556.729160238577
 30
0.0
 11
8399.899578341351
 21
-2558.778863720261
 31
0.0
  0
LINE
  5
B94F
330
1E
100
AcDbEntity
  8
003
100
AcDbLine
 10
8400.211201329039
 20
-2554.378208645388
 30
0.0
 11
8400.607821419473
 21
-2556.729160238577
 31
0.0
  0
LINE
  5
B950
330
1E
100
AcDbEntity
  8
003
100
AcDbLine
 10
8398.038807984654
 20
-2578.674239340025
 30
0.0
 11
8396.556564844416
 21
-2580.597268656202
 31
0.0
  0
LINE
  5
B951
330
1E
100
AcDbEntity
  8
003
100
AcDbLine
 10
8398.747051062777
 20
-2576.624535858341
 30
0.0
 11
8398.038807984654
 21
-2578.674239340025
 31
0.0
  0
LINE
  5
B952
330
1E
100
AcDbEntity
  8
003
100
AcDbLine
 10
8398.350430972342
 20
-2574.273584265152
 30
0.0
 11
8398.747051062777
 21
-2576.624535858341
 31
0.0
  0
LINE
  5
B953
330
1E
100
AcDbEntity
  8
003
100
AcDbLine
 10
8397.179416868388
 20
-2571.794437997561
 30
0.0
 11
8398.350430972342
 21
-2574.273584265152
 31
0.0
  0
LINE
  5
B954
330
1E
100
AcDbEntity
  8
003
100
AcDbLine
 10
8395.80577744282
 20
-2569.296431685674
 30
0.0
 11
8397.179416868388
 21
-2571.794437997561
 31
0.0
  0
LINE
  5
B955
330
1E
100
AcDbEntity
  8
003
100
AcDbLine
 10
8394.801286658896
 20
-2566.888898858215
 30
0.0
 11
8395.80577744282
 21
-2569.296431685674
 31
0.0
  0
LINE
  5
B956
330
1E
100
AcDbEntity
  8
003
100
AcDbLine
 10
8396.556564844416
 20
-2580.597268656202
 30
0.0
 11
8394.746579913485
 21
-2582.482259314998
 31
0.0
  0
LINE
  5
B957
330
1E
100
AcDbEntity
  8
003
100
AcDbLine
 10
8391.750647992727
 20
-2589.412075678316
 30
0.0
 11
8392.54432804503
 21
-2592.539408993181
 31
0.0
  0
LINE
  5
B958
330
1E
100
AcDbEntity
  8
003
100
AcDbLine
 10
8391.92842622408
 20
-2586.492676307927
 30
0.0
 11
8391.750647992727
 21
-2589.412075678316
 31
0.0
  0
LINE
  5
B959
330
1E
100
AcDbEntity
  8
003
100
AcDbLine
 10
8393.055113085585
 20
-2584.41784914146
 30
0.0
 11
8391.92842622408
 21
-2586.492676307927
 31
0.0
  0
LINE
  5
B95A
330
1E
100
AcDbEntity
  8
003
100
AcDbLine
 10
8394.746579913485
 20
-2582.482259314998
 30
0.0
 11
8393.055113085585
 21
-2584.41784914146
 31
0.0
  0
LINE
  5
B95B
330
1E
100
AcDbEntity
  8
003
100
AcDbLine
 10
8394.737715525439
 20
-2564.681172522973
 30
0.0
 11
8394.801286658896
 21
-2566.888898858215
 31
0.0
  0
ARC
  5
B95C
330
1E
100
AcDbEntity
  8
002
100
AcDbCircle
 10
8367.36286569249
 20
-2533.659348235625
 30
0.0
 40
2.114285999999999
100
AcDbArc
 50
308.1896849999879
 51
31.81031500001687
  0
ARC
  5
B95D
330
1E
100
AcDbEntity
  8
002
100
AcDbCircle
 10
8368.464290629836
 20
-2527.412852940711
 30
0.0
 40
2.114285999999999
100
AcDbArc
 50
128.1896849999879
 51
211.8103150000168
  0
LINE
  5
B95E
330
1E
100
AcDbEntity
  8
002
100
AcDbLine
 10
8366.667575793696
 20
-2528.527311848818
 30
0.0
 11
8369.159580528627
 21
-2532.544889327519
 31
0.0
  0
LINE
  5
B95F
330
1E
100
AcDbEntity
  8
002
100
AcDbLine
 10
8370.872909237606
 20
-2522.82811936926
 30
0.0
 11
8367.157097532986
 21
-2525.751092036398
 31
0.0
  0
ARC
  5
B960
330
1E
100
AcDbEntity
  8
002
100
AcDbCircle
 10
8365.16001385149
 20
-2546.15233776073
 30
0.0
 40
2.114285999999999
100
AcDbArc
 50
308.1896849999879
 51
31.81031500001687
  0
ARC
  5
B961
330
1E
100
AcDbEntity
  8
002
100
AcDbCircle
 10
8362.957163403219
 20
-2558.645327531408
 30
0.0
 40
2.114285999999999
100
AcDbArc
 50
308.1896849999879
 51
31.81031500001687
  0
ARC
  5
B962
330
1E
100
AcDbEntity
  8
002
100
AcDbCircle
 10
8366.261439362414
 20
-2539.905843284967
 30
0.0
 40
2.114285999999999
100
AcDbArc
 50
128.1896849999879
 51
211.8103150000168
  0
LINE
  5
B963
330
1E
100
AcDbEntity
  8
002
100
AcDbLine
 10
8364.464723952698
 20
-2541.02030137392
 30
0.0
 11
8366.956729261204
 21
-2545.037879671774
 31
0.0
  0
LINE
  5
B964
330
1E
100
AcDbEntity
  8
002
100
AcDbLine
 10
8368.670057970183
 20
-2535.321109713515
 30
0.0
 11
8364.954247084716
 21
-2538.244081807077
 31
0.0
  0
LINE
  5
B965
330
1E
100
AcDbEntity
  8
003
100
AcDbLine
 10
8394.403601485388
 20
-2598.778231165235
 30
0.0
 11
8394.147965274305
 21
-2601.56989606571
 31
0.0
  0
LINE
  5
B966
330
1E
100
AcDbEntity
  8
003
100
AcDbLine
 10
8393.648850422954
 20
-2595.714765085325
 30
0.0
 11
8394.403601485388
 21
-2598.778231165235
 31
0.0
  0
LINE
  5
B967
330
1E
100
AcDbEntity
  8
003
100
AcDbLine
 10
8388.721757245399
 20
-2619.237474139623
 30
0.0
 11
8389.736823886964
 21
-2622.059527950652
 31
0.0
  0
LINE
  5
B968
330
1E
100
AcDbEntity
  8
003
100
AcDbLine
 10
8387.347357938777
 20
-2616.338267745026
 30
0.0
 11
8388.721757245399
 21
-2619.237474139623
 31
0.0
  0
LINE
  5
B969
330
1E
100
AcDbEntity
  8
003
100
AcDbLine
 10
8386.269715336167
 20
-2613.513900587464
 30
0.0
 11
8387.347357938777
 21
-2616.338267745026
 31
0.0
  0
LINE
  5
B96A
330
1E
100
AcDbEntity
  8
003
100
AcDbLine
 10
8386.144922282008
 20
-2610.916362054066
 30
0.0
 11
8386.269715336167
 21
-2613.513900587464
 31
0.0
  0
LINE
  5
B96B
330
1E
100
AcDbEntity
  8
003
100
AcDbLine
 10
8387.166842687229
 20
-2608.930783266802
 30
0.0
 11
8386.144922282008
 21
-2610.916362054066
 31
0.0
  0
LINE
  5
B96C
330
1E
100
AcDbEntity
  8
003
100
AcDbLine
 10
8388.937668284482
 20
-2607.116541495648
 30
0.0
 11
8387.166842687229
 21
-2608.930783266802
 31
0.0
  0
LINE
  5
B96D
330
1E
100
AcDbEntity
  8
003
100
AcDbLine
 10
8390.997839328065
 20
-2605.360442351109
 30
0.0
 11
8388.937668284482
 21
-2607.116541495648
 31
0.0
  0
LINE
  5
B96E
330
1E
100
AcDbEntity
  8
003
100
AcDbLine
 10
8392.887792133043
 20
-2603.5492907491
 30
0.0
 11
8390.997839328065
 21
-2605.360442351109
 31
0.0
  0
LINE
  5
B96F
330
1E
100
AcDbEntity
  8
003
100
AcDbLine
 10
8394.147965274305
 20
-2601.56989606571
 30
0.0
 11
8392.887792133043
 21
-2603.5492907491
 31
0.0
  0
LINE
  5
B970
330
1E
100
AcDbEntity
  8
001
 62
     3
100
AcDbLine
 10
8382.016085798751
 20
-2636.31490201508
 30
0.0
 11
8383.163897139537
 21
-2638.950941729117
 31
0.0
  0
LINE
  5
B971
330
1E
100
AcDbEntity
  8
001
 62
     3
100
AcDbLine
 10
8382.826211500898
 20
-2631.921322522121
 30
0.0
 11
8381.819113203105
 21
-2633.876639394848
 31
0.0
  0
LINE
  5
B972
330
1E
100
AcDbEntity
  8
001
 62
     3
100
AcDbLine
 10
8381.819113203105
 20
-2633.876639394848
 30
0.0
 11
8382.016085798751
 21
-2636.31490201508
 31
0.0
  0
LINE
  5
B973
330
1E
100
AcDbEntity
  8
003
100
AcDbLine
 10
8384.62599997727
 20
-2630.132788663097
 30
0.0
 11
8382.826211500898
 21
-2631.921322522121
 31
0.0
  0
LINE
  5
B974
330
1E
100
AcDbEntity
  8
003
100
AcDbLine
 10
8386.713975621725
 20
-2628.399493175621
 30
0.0
 11
8384.62599997727
 21
-2630.132788663097
 31
0.0
  0
LINE
  5
B975
330
1E
100
AcDbEntity
  8
003
100
AcDbLine
 10
8388.585631310876
 20
-2626.609891707752
 30
0.0
 11
8386.713975621725
 21
-2628.399493175621
 31
0.0
  0
LINE
  5
B976
330
1E
100
AcDbEntity
  8
003
100
AcDbLine
 10
8389.73646484538
 20
-2624.652440775793
 30
0.0
 11
8388.585631310876
 21
-2626.609891707752
 31
0.0
  0
LINE
  5
B977
330
1E
100
AcDbEntity
  8
003
100
AcDbLine
 10
8389.736823886964
 20
-2622.059527950652
 30
0.0
 11
8389.73646484538
 21
-2624.652440775793
 31
0.0
  0
LINE
  5
B978
330
1E
100
AcDbEntity
  8
003
100
AcDbLine
 10
8392.54432804503
 20
-2592.539408993181
 30
0.0
 11
8393.648850422954
 21
-2595.714765085325
 31
0.0
  0
LINE
  5
B979
330
1E
100
AcDbEntity
  8
002
100
AcDbLine
 10
8357.33763504864
 20
-2310.474471620455
 30
0.0
 11
8369.830624573742
 21
-2312.677323461453
 31
0.0
  0
LINE
  5
B97A
330
1E
100
AcDbEntity
  8
002
  6
Continuous
100
AcDbLine
 10
8283.803662925095
 20
-2337.88439367082
 30
0.0
 11
8432.692526632854
 21
-2364.137517469525
 31
0.0
  0
LINE
  5
B97B
330
1E
100
AcDbEntity
  8
002
100
AcDbLine
 10
8382.74414375587
 20
-2363.903689774422
 30
0.0
 11
8339.781476481046
 21
-2361.337650388906
 31
0.0
  0
LINE
  5
B97C
330
1E
100
AcDbEntity
  8
002
100
AcDbLine
 10
8370.787827629607
 20
-2502.059731726094
 30
0.0
 11
8315.550113521698
 21
-2498.760538604805
 31
0.0
  0
LINE
  5
B97D
330
1E
100
AcDbEntity
  8
002
100
AcDbLine
 10
8368.584977181338
 20
-2514.552721496775
 30
0.0
 11
8313.347262499855
 21
-2511.253527556333
 31
0.0
  0
LINE
  5
B97E
330
1E
100
AcDbEntity
  8
002
100
AcDbLine
 10
8325.704316386163
 20
-2416.821820437722
 30
0.0
 11
8389.270690832908
 21
-2421.58958180792
 31
0.0
  0
LINE
  5
B97F
330
1E
100
AcDbEntity
  8
002
100
AcDbLine
 10
8381.802083475569
 20
-2439.594782790273
 30
0.0
 11
8326.564369367661
 21
-2436.295589668983
 31
0.0
  0
LINE
  5
B980
330
1E
100
AcDbEntity
  8
002
100
AcDbLine
 10
8384.004935316568
 20
-2427.10179326517
 30
0.0
 11
8328.767220635084
 21
-2423.802599324728
 31
0.0
  0
LINE
  5
B981
330
1E
100
AcDbEntity
  8
002
100
AcDbLine
 10
8321.298613851318
 20
-2441.807801126233
 30
0.0
 11
8384.864988543641
 21
-2446.575561103704
 31
0.0
  0
LINE
  5
B982
330
1E
100
AcDbEntity
  8
002
100
AcDbLine
 10
8323.501465118742
 20
-2429.314810781978
 30
0.0
 11
8387.067839565487
 21
-2434.082572152176
 31
0.0
  0
LINE
  5
B983
330
1E
100
AcDbEntity
  8
002
100
AcDbLine
 10
8372.990679470609
 20
-2489.566742200992
 30
0.0
 11
8317.752964789125
 21
-2486.267548260548
 31
0.0
  0
LINE
  5
B984
330
1E
100
AcDbEntity
  8
002
100
AcDbLine
 10
8375.19353073803
 20
-2477.073751856736
 30
0.0
 11
8319.955815810969
 21
-2473.774559309022
 31
0.0
  0
LINE
  5
B985
330
1E
100
AcDbEntity
  8
002
100
AcDbLine
 10
8377.396381759876
 20
-2464.580762905208
 30
0.0
 11
8322.15866707839
 21
-2461.281568964766
 31
0.0
  0
LINE
  5
B986
330
1E
100
AcDbEntity
  8
002
100
AcDbLine
 10
8319.095762829473
 20
-2454.300790077761
 30
0.0
 11
8382.662137276216
 21
-2459.068551447959
 31
0.0
  0
LINE
  5
B987
330
1E
100
AcDbEntity
  8
002
100
AcDbLine
 10
8312.487209272779
 20
-2491.779759717799
 30
0.0
 11
8376.053583719526
 21
-2496.547521087997
 31
0.0
  0
LINE
  5
B988
330
1E
100
AcDbEntity
  8
002
100
AcDbLine
 10
8314.690060540202
 20
-2479.286769373542
 30
0.0
 11
8378.256434986949
 21
-2484.054530743742
 31
0.0
  0
LINE
  5
B989
330
1E
100
AcDbEntity
  8
002
100
AcDbLine
 10
8316.89291156205
 20
-2466.793780422016
 30
0.0
 11
8380.459286254369
 21
-2471.561540399487
 31
0.0
  0
LINE
  5
B98A
330
1E
100
AcDbEntity
  8
002
100
AcDbLine
 10
8310.284358005358
 20
-2504.272750062055
 30
0.0
 11
8373.850732697677
 21
-2509.040510039524
 31
0.0
  0
LINE
  5
B98B
330
1E
100
AcDbEntity
  8
002
100
AcDbLine
 10
8379.599233027297
 20
-2452.087772560953
 30
0.0
 11
8324.361518345815
 21
-2448.788578620511
 31
0.0
  0
LINE
  5
B98C
330
1E
100
AcDbEntity
  8
002
100
AcDbLine
 10
8392.816339321532
 20
-2377.129833854453
 30
0.0
 11
8337.578625213623
 21
-2373.830640733163
 31
0.0
  0
LINE
  5
B98D
330
1E
100
AcDbEntity
  8
002
100
AcDbLine
 10
8386.207786583991
 20
-2414.608802920914
 30
0.0
 11
8330.970071656931
 21
-2411.309610373202
 31
0.0
  0
LINE
  5
B98E
330
1E
100
AcDbEntity
  8
002
100
AcDbLine
 10
8388.410637605836
 20
-2402.115813969387
 30
0.0
 11
8333.172922924353
 21
-2398.816620028945
 31
0.0
  0
LINE
  5
B98F
330
1E
100
AcDbEntity
  8
002
100
AcDbLine
 10
8390.61348887326
 20
-2389.622823625131
 30
0.0
 11
8335.375774191776
 21
-2386.32362968469
 31
0.0
  0
LINE
  5
B990
330
1E
100
AcDbEntity
  8
002
100
AcDbLine
 10
8332.312869697281
 20
-2379.342852190413
 30
0.0
 11
8395.879244389602
 21
-2384.110612167882
 31
0.0
  0
LINE
  5
B991
330
1E
100
AcDbEntity
  8
002
100
AcDbLine
 10
8334.515720964704
 20
-2366.849861846156
 30
0.0
 11
8398.082095411449
 21
-2371.617623216354
 31
0.0
  0
LINE
  5
B992
330
1E
100
AcDbEntity
  8
002
100
AcDbLine
 10
8327.907167408012
 20
-2404.328831486195
 30
0.0
 11
8391.473541281181
 21
-2409.096592037242
 31
0.0
  0
LINE
  5
B993
330
1E
100
AcDbEntity
  8
002
100
AcDbLine
 10
8330.110018675433
 20
-2391.835841141939
 30
0.0
 11
8393.676393122179
 21
-2396.603602512137
 31
0.0
  0
LINE
  5
B994
330
1E
100
AcDbEntity
  8
002
100
AcDbLine
 10
8337.004021866333
 20
-2355.838472902418
 30
0.0
 11
8395.30464104231
 21
-2366.118444337137
 31
0.0
  0
ARC
  5
B995
330
1E
100
AcDbEntity
  8
002
100
AcDbCircle
 10
8329.989332697511
 20
-2404.695973405029
 30
0.0
 40
2.114285999999999
100
AcDbArc
 50
128.1896849999879
 51
211.8103150000168
  0
ARC
  5
B996
330
1E
100
AcDbEntity
  8
002
100
AcDbCircle
 10
8329.11325773769
 20
-2404.541497752489
 30
0.0
 40
2.114285999999999
100
AcDbArc
 50
128.1896849999879
 51
211.8103150000168
  0
LINE
  5
B997
330
1E
100
AcDbEntity
  8
002
100
AcDbLine
 10
8332.397950731703
 20
-2400.111239014424
 30
0.0
 11
8328.682139027085
 21
-2403.034211681562
 31
0.0
  0
LINE
  5
B998
330
1E
100
AcDbEntity
  8
002
100
AcDbLine
 10
8330.786539000154
 20
-2324.68553552961
 30
0.0
 11
8307.41217931922
 21
-2459.683252618579
 31
0.0
  0
LINE
  5
B999
330
1E
100
AcDbEntity
  8
002
100
AcDbLine
 10
8324.913322215193
 20
-2437.435733001924
 30
0.0
 11
8321.197511329726
 21
-2440.358705095486
 31
0.0
  0
LINE
  5
B99A
330
1E
100
AcDbEntity
  8
002
100
AcDbLine
 10
8320.707988771282
 20
-2443.134925481483
 30
0.0
 11
8323.199993506214
 21
-2447.152502960183
 31
0.0
  0
LINE
  5
B99B
330
1E
100
AcDbEntity
  8
002
100
AcDbLine
 10
8321.584063731101
 20
-2443.289401134021
 30
0.0
 11
8324.076068466032
 21
-2447.306978612723
 31
0.0
  0
LINE
  5
B99C
330
1E
100
AcDbEntity
  8
002
100
AcDbLine
 10
8325.789397175013
 20
-2437.590208654464
 30
0.0
 11
8322.073586289546
 21
-2440.513180748026
 31
0.0
  0
ARC
  5
B99D
330
1E
100
AcDbEntity
  8
002
100
AcDbCircle
 10
8320.076501788895
 20
-2460.914427045933
 30
0.0
 40
2.114285999999999
100
AcDbArc
 50
308.1896849999879
 51
31.81031500001687
  0
LINE
  5
B99E
330
1E
100
AcDbEntity
  8
002
100
AcDbLine
 10
8322.710471766921
 20
-2449.928722772603
 30
0.0
 11
8318.994660062305
 21
-2452.851695439742
 31
0.0
  0
LINE
  5
B99F
330
1E
100
AcDbEntity
  8
002
100
AcDbLine
 10
8323.586545907588
 20
-2450.08319899872
 30
0.0
 11
8319.870735022123
 21
-2453.00617109228
 31
0.0
  0
ARC
  5
B9A0
330
1E
100
AcDbEntity
  8
002
100
AcDbCircle
 10
8323.380778567241
 20
-2442.174942225914
 30
0.0
 40
2.114285999999999
100
AcDbArc
 50
128.1896849999879
 51
211.8103150000168
  0
ARC
  5
B9A1
330
1E
100
AcDbEntity
  8
002
100
AcDbCircle
 10
8322.504703607421
 20
-2442.020466573376
 30
0.0
 40
2.114285999999999
100
AcDbArc
 50
128.1896849999879
 51
211.8103150000168
  0
ARC
  5
B9A2
330
1E
100
AcDbEntity
  8
002
100
AcDbCircle
 10
8317.873651340624
 20
-2473.407416816611
 30
0.0
 40
2.114285999999999
100
AcDbArc
 50
308.1896849999879
 51
31.81031500001687
  0
LINE
  5
B9A3
330
1E
100
AcDbEntity
  8
002
100
AcDbLine
 10
8319.180843618321
 20
-2475.069178294501
 30
0.0
 11
8315.465032732852
 21
-2477.992150388065
 31
0.0
  0
ARC
  5
B9A4
330
1E
100
AcDbEntity
  8
002
100
AcDbCircle
 10
8321.17792811897
 20
-2454.667931996593
 30
0.0
 40
2.114285999999999
100
AcDbArc
 50
128.1896849999879
 51
211.8103150000168
  0
ARC
  5
B9A5
330
1E
100
AcDbEntity
  8
002
100
AcDbCircle
 10
8318.975076851549
 20
-2467.16092234085
 30
0.0
 40
2.114285999999999
100
AcDbArc
 50
128.1896849999879
 51
211.8103150000168
  0
LINE
  5
B9A6
330
1E
100
AcDbEntity
  8
002
100
AcDbLine
 10
8318.505136930282
 20
-2455.627915006585
 30
0.0
 11
8320.997143057942
 21
-2459.645492730862
 31
0.0
  0
ARC
  5
B9A7
330
1E
100
AcDbEntity
  8
002
100
AcDbCircle
 10
8320.301853159151
 20
-2454.513456344055
 30
0.0
 40
2.114285999999999
100
AcDbArc
 50
128.1896849999879
 51
211.8103150000168
  0
LINE
  5
B9A8
330
1E
100
AcDbEntity
  8
002
100
AcDbLine
 10
8321.383694885742
 20
-2462.576187950246
 30
0.0
 11
8317.667883181123
 21
-2465.499160617384
 31
0.0
  0
LINE
  5
B9A9
330
1E
100
AcDbEntity
  8
002
100
AcDbLine
 10
8317.178361441831
 20
-2468.275380429804
 30
0.0
 11
8319.670366176763
 21
-2472.292957908504
 31
0.0
  0
ARC
  5
B9AA
330
1E
100
AcDbEntity
  8
002
100
AcDbCircle
 10
8319.200426829075
 20
-2460.759951393395
 30
0.0
 40
2.114285999999999
100
AcDbArc
 50
322.1818609999839
 51
31.81031500001687
  0
LINE
  5
B9AB
330
1E
100
AcDbEntity
  8
002
100
AcDbLine
 10
8319.381211890101
 20
-2455.782390659125
 30
0.0
 11
8321.873218017762
 21
-2459.799968383402
 31
0.0
  0
LINE
  5
B9AC
330
1E
100
AcDbEntity
  8
002
100
AcDbLine
 10
8307.41217931922
 20
-2459.683252618579
 30
0.0
 11
8320.870629937182
 21
-2462.056340581058
 31
0.0
  0
ARC
  5
B9AD
330
1E
100
AcDbEntity
  8
002
100
AcDbCircle
 10
8314.569374562278
 20
-2492.146901636631
 30
0.0
 40
2.114285999999999
100
AcDbArc
 50
128.1896849999879
 51
211.8103150000168
  0
LINE
  5
B9AE
330
1E
100
AcDbEntity
  8
002
100
AcDbLine
 10
8312.772659152562
 20
-2493.261359725587
 30
0.0
 11
8315.264664461071
 21
-2497.278938023441
 31
0.0
  0
ARC
  5
B9AF
330
1E
100
AcDbEntity
  8
002
100
AcDbCircle
 10
8313.467949051355
 20
-2498.393396112396
 30
0.0
 40
2.114285999999999
100
AcDbArc
 50
308.1896849999879
 51
31.81031500001687
  0
LINE
  5
B9B0
330
1E
100
AcDbEntity
  8
002
100
AcDbLine
 10
8316.977993170048
 20
-2487.562168065182
 30
0.0
 11
8313.262180891854
 21
-2490.485139913167
 31
0.0
  0
LINE
  5
B9B1
330
1E
100
AcDbEntity
  8
002
100
AcDbLine
 10
8314.975510174409
 20
-2480.768370774059
 30
0.0
 11
8317.467514909342
 21
-2484.785948252762
 31
0.0
  0
ARC
  5
B9B2
330
1E
100
AcDbEntity
  8
002
100
AcDbCircle
 10
8315.670799499626
 20
-2485.900406341718
 30
0.0
 40
2.114285999999999
100
AcDbArc
 50
308.1896849999879
 51
31.81031500001687
  0
ARC
  5
B9B3
330
1E
100
AcDbEntity
  8
002
100
AcDbCircle
 10
8312.366522721282
 20
-2504.639891161736
 30
0.0
 40
2.114285999999999
100
AcDbArc
 50
128.1896849999879
 51
211.8103150000168
  0
LINE
  5
B9B4
330
1E
100
AcDbEntity
  8
002
100
AcDbLine
 10
8314.775141329048
 20
-2500.055157590286
 30
0.0
 11
8311.059330443582
 21
-2502.978129683846
 31
0.0
  0
ARC
  5
B9B5
330
1E
100
AcDbEntity
  8
002
100
AcDbCircle
 10
8311.265097783934
 20
-2510.886386456652
 30
0.0
 40
2.114285999999999
100
AcDbArc
 50
308.1896849999879
 51
31.81031500001687
  0
ARC
  5
B9B6
330
1E
100
AcDbEntity
  8
002
100
AcDbCircle
 10
8310.163672273009
 20
-2517.132880932415
 30
0.0
 40
2.114285999999999
100
AcDbArc
 50
128.1896849999879
 51
211.8103150000168
  0
LINE
  5
B9B7
330
1E
100
AcDbEntity
  8
002
100
AcDbLine
 10
8312.572290061629
 20
-2512.548147934541
 30
0.0
 11
8308.85647917616
 21
-2515.471120028101
 31
0.0
  0
LINE
  5
B9B8
330
1E
100
AcDbEntity
  8
002
100
AcDbLine
 10
8310.569807885139
 20
-2505.754350069842
 30
0.0
 11
8313.061812620071
 21
-2509.771927548545
 31
0.0
  0
ARC
  5
B9B9
330
1E
100
AcDbEntity
  8
002
100
AcDbCircle
 10
8316.772225010549
 20
-2479.653911865953
 30
0.0
 40
2.114285999999999
100
AcDbArc
 50
128.1896849999879
 51
211.8103150000168
  0
LINE
  5
B9BA
330
1E
100
AcDbEntity
  8
002
100
AcDbLine
 10
8329.319024504462
 20
-2412.449753706141
 30
0.0
 11
8325.603213618995
 21
-2415.372725799703
 31
0.0
  0
LINE
  5
B9BB
330
1E
100
AcDbEntity
  8
002
100
AcDbLine
 10
8330.195099464281
 20
-2412.60422935868
 30
0.0
 11
8326.479288578815
 21
-2415.527201452243
 31
0.0
  0
ARC
  5
B9BC
330
1E
100
AcDbEntity
  8
002
100
AcDbCircle
 10
8327.786480856509
 20
-2417.188962930131
 30
0.0
 40
2.114285999999999
100
AcDbArc
 50
128.1896849999879
 51
211.8103150000168
  0
ARC
  5
B9BD
330
1E
100
AcDbEntity
  8
002
100
AcDbCircle
 10
8326.910405896692
 20
-2417.034487277593
 30
0.0
 40
2.114285999999999
100
AcDbArc
 50
128.1896849999879
 51
211.8103150000168
  0
LINE
  5
B9BE
330
1E
100
AcDbEntity
  8
002
100
AcDbLine
 10
8327.316542327976
 20
-2405.655955841444
 30
0.0
 11
8329.808547062906
 21
-2409.673533320145
 31
0.0
  0
ARC
  5
B9BF
330
1E
100
AcDbEntity
  8
002
100
AcDbCircle
 10
8328.011832226767
 20
-2410.787992228252
 30
0.0
 40
2.114285999999999
100
AcDbArc
 50
308.1896849999879
 51
31.81031500001687
  0
LINE
  5
B9C0
330
1E
100
AcDbEntity
  8
002
100
AcDbLine
 10
8328.192617287795
 20
-2405.810431493984
 30
0.0
 11
8330.684622022726
 21
-2409.828008972683
 31
0.0
  0
ARC
  5
B9C1
330
1E
100
AcDbEntity
  8
002
100
AcDbCircle
 10
8328.887907186585
 20
-2410.942467880792
 30
0.0
 40
2.114285999999999
100
AcDbArc
 50
308.1896849999879
 51
31.81031500001687
  0
LINE
  5
B9C2
330
1E
100
AcDbEntity
  8
002
100
AcDbLine
 10
8322.910840038705
 20
-2430.641935137228
 30
0.0
 11
8325.402845347213
 21
-2434.659513435081
 31
0.0
  0
ARC
  5
B9C3
330
1E
100
AcDbEntity
  8
002
100
AcDbCircle
 10
8325.583630408239
 20
-2429.68195270081
 30
0.0
 40
2.114285999999999
100
AcDbArc
 50
128.1896849999879
 51
211.8103150000168
  0
LINE
  5
B9C4
330
1E
100
AcDbEntity
  8
002
100
AcDbLine
 10
8327.116174056191
 20
-2424.94274347682
 30
0.0
 11
8323.40036235157
 21
-2427.865716143958
 31
0.0
  0
ARC
  5
B9C5
330
1E
100
AcDbEntity
  8
002
100
AcDbCircle
 10
8324.707555448423
 20
-2429.527477048272
 30
0.0
 40
2.114285999999999
100
AcDbArc
 50
128.1896849999879
 51
211.8103150000168
  0
ARC
  5
B9C6
330
1E
100
AcDbEntity
  8
002
100
AcDbCircle
 10
8321.403278670073
 20
-2448.26696186829
 30
0.0
 40
2.114285999999999
100
AcDbArc
 50
308.1896849999879
 51
31.81031500001687
  0
ARC
  5
B9C7
330
1E
100
AcDbEntity
  8
002
100
AcDbCircle
 10
8322.279353629893
 20
-2448.42143752083
 30
0.0
 40
2.114285999999999
100
AcDbArc
 50
308.1896849999879
 51
31.81031500001687
  0
ARC
  5
B9C8
330
1E
100
AcDbEntity
  8
002
100
AcDbCircle
 10
8323.606129937498
 20
-2435.773971524035
 30
0.0
 40
2.114285999999999
100
AcDbArc
 50
308.1896849999879
 51
31.81031500001687
  0
ARC
  5
B9C9
330
1E
100
AcDbEntity
  8
002
100
AcDbCircle
 10
8324.482204078163
 20
-2435.928447750151
 30
0.0
 40
2.114285999999999
100
AcDbArc
 50
308.1896849999879
 51
31.81031500001687
  0
LINE
  5
B9CA
330
1E
100
AcDbEntity
  8
002
100
AcDbLine
 10
8323.786914998525
 20
-2430.796410789766
 30
0.0
 11
8326.27892030703
 21
-2434.813989087619
 31
0.0
  0
ARC
  5
B9CB
330
1E
100
AcDbEntity
  8
002
100
AcDbCircle
 10
8325.808980385767
 20
-2423.280981753356
 30
0.0
 40
2.114285999999999
100
AcDbArc
 50
308.1896849999879
 51
31.81031500001687
  0
LINE
  5
B9CC
330
1E
100
AcDbEntity
  8
002
100
AcDbLine
 10
8327.992249016011
 20
-2425.09721912936
 30
0.0
 11
8324.276436737816
 21
-2428.020190977346
 31
0.0
  0
ARC
  5
B9CD
330
1E
100
AcDbEntity
  8
002
100
AcDbCircle
 10
8326.685055345587
 20
-2423.435457405896
 30
0.0
 40
2.114285999999999
100
AcDbArc
 50
308.1896849999879
 51
31.81031500001687
  0
LINE
  5
B9CE
330
1E
100
AcDbEntity
  8
002
100
AcDbLine
 10
8325.11369106055
 20
-2418.1489461857
 30
0.0
 11
8327.605695795481
 21
-2422.1665236644
 31
0.0
  0
LINE
  5
B9CF
330
1E
100
AcDbEntity
  8
002
100
AcDbLine
 10
8325.989766020372
 20
-2418.303421838238
 30
0.0
 11
8328.481770755303
 21
-2422.32099931694
 31
0.0
  0
LINE
  5
B9D0
330
1E
100
AcDbEntity
  8
002
100
AcDbLine
 10
8323.876138499143
 20
-2305.433068033713
 30
0.0
 11
8321.539610497726
 21
-2306.508492810624
 31
0.0
  0
LINE
  5
B9D1
330
1E
100
AcDbEntity
  8
002
100
AcDbLine
 10
8324.746487417446
 20
-2295.626537381742
 30
0.0
 11
8320.086418487051
 21
-2322.055105656925
 31
0.0
  0
LINE
  5
B9D2
330
1E
100
AcDbEntity
  8
002
100
AcDbLine
 10
8323.115643086419
 20
-2297.570103158979
 30
0.0
 11
8318.709936294363
 21
-2322.556103919267
 31
0.0
  0
LINE
  5
B9D3
330
1E
100
AcDbEntity
  8
002
100
AcDbLine
 10
8323.115684543672
 20
-2297.570132727478
 30
0.0
 11
8318.709982254402
 21
-2322.556112023261
 31
0.0
  0
LINE
  5
B9D4
330
1E
100
AcDbEntity
  8
002
100
AcDbLine
 10
8324.746528629125
 20
-2295.62656834297
 30
0.0
 11
8319.959281985193
 21
-2322.776397272791
 31
0.0
  0
LINE
  5
B9D5
330
1E
100
AcDbEntity
  8
002
100
AcDbLine
 10
8287.477508482858
 20
-2317.048984223069
 30
0.0
 11
8339.115199584565
 21
-2326.154102385789
 31
0.0
  0
LINE
  5
B9D6
330
1E
100
AcDbEntity
  8
002
100
AcDbLine
 10
8283.803662925095
 20
-2337.884393670822
 30
0.0
 11
8326.279828702835
 21
-2345.374087734484
 31
0.0
  0
LINE
  5
B9D7
330
1E
100
AcDbEntity
  8
003
 62
     3
100
AcDbLine
 10
8283.803662925095
 20
-2337.884393670822
 30
0.0
 11
8326.279828702835
 21
-2345.374087734482
 31
0.0
  0
ARC
  5
B9D8
330
1E
100
AcDbEntity
  8
002
100
AcDbCircle
 10
8322.149129009963
 20
-2290.875776582401
 30
0.0
 40
4.228575
100
AcDbArc
 50
118.6598079999946
 51
169.9999999999961
  0
LINE
  5
B9D9
330
1E
100
AcDbEntity
  8
002
100
AcDbLine
 10
8321.364516064294
 20
-2286.485641041898
 30
0.0
 11
8320.121070229808
 21
-2287.165274614713
 31
0.0
  0
LINE
  5
B9DA
330
1E
100
AcDbEntity
  8
002
100
AcDbLine
 10
8320.086418487051
 20
-2322.055105656925
 30
0.0
 11
8318.709936294363
 21
-2322.556103919267
 31
0.0
  0
LINE
  5
B9DB
330
1E
100
AcDbEntity
  8
002
100
AcDbLine
 10
8320.086463054362
 20
-2322.055113515345
 30
0.0
 11
8318.709982254402
 21
-2322.556112023261
 31
0.0
  0
LINE
  5
B9DC
330
1E
100
AcDbEntity
  8
002
100
AcDbLine
 10
8319.951521702099
 20
-2322.775028925505
 30
0.0
 11
8318.829404433207
 21
-2321.833460164103
 31
0.0
  0
LINE
  5
B9DD
330
1E
100
AcDbEntity
  8
002
100
AcDbLine
 10
8312.75715065102
 20
-2319.788944342321
 30
0.0
 11
8314.129170150557
 21
-2321.748391255798
 31
0.0
  0
LINE
  5
B9DE
330
1E
100
AcDbEntity
  8
003
100
AcDbLine
 10
8304.765999516567
 20
-2341.58061919059
 30
0.0
 11
8300.945739607895
 21
-2363.246389756859
 31
0.0
  0
LINE
  5
B9DF
330
1E
100
AcDbEntity
  8
003
100
AcDbLine
 10
8304.765999516567
 20
-2341.58061919059
 30
0.0
 11
8300.945739607895
 21
-2363.246389756859
 31
0.0
  0
LINE
  5
B9E0
330
1E
100
AcDbEntity
  8
003
100
AcDbLine
 10
8304.765999516567
 20
-2341.58061919059
 30
0.0
 11
8300.945739607895
 21
-2363.246389756859
 31
0.0
  0
LINE
  5
B9E1
330
1E
100
AcDbEntity
  8
003
 62
     3
100
AcDbLine
 10
8304.765999516567
 20
-2341.58061919059
 30
0.0
 11
8300.945739607895
 21
-2363.246389756859
 31
0.0
  0
LINE
  5
B9E2
330
1E
100
AcDbEntity
  8
003
100
AcDbLine
 10
8304.765999516567
 20
-2341.58061919059
 30
0.0
 11
8300.945739607895
 21
-2363.246389756859
 31
0.0
  0
LINE
  5
B9E3
330
1E
100
AcDbEntity
  8
002
100
AcDbLine
 10
8312.75715065102
 20
-2319.788944342321
 30
0.0
 11
8317.984795645509
 21
-2290.141492253584
 31
0.0
  0
LINE
  5
B9E4
330
1E
100
AcDbEntity
  8
002
100
AcDbLine
 10
8287.477508482858
 20
-2317.048984223069
 30
0.0
 11
8283.803662925095
 21
-2337.884393670822
 31
0.0
  0
LINE
  5
B9E5
330
1E
100
AcDbEntity
  8
002
100
AcDbLine
 10
8359.597439554327
 20
-2295.049140385166
 30
0.0
 11
8359.242105183682
 21
-2294.07286792934
 31
0.0
  0
ARC
  5
B9E6
330
1E
100
AcDbEntity
  8
002
100
AcDbCircle
 10
8360.275033141434
 20
-2294.802516188356
 30
0.0
 40
0.7210800000000001
100
AcDbArc
 50
200.0000000000471
 51
343.0000000000192
  0
LINE
  5
B9E7
330
1E
100
AcDbEntity
  8
002
100
AcDbLine
 10
8358.836469508922
 20
-2301.974163067292
 30
0.0
 11
8358.07191864073
 21
-2306.310142434189
 31
0.0
  0
LINE
  5
B9E8
330
1E
100
AcDbEntity
  8
002
100
AcDbLine
 10
8347.99689790506
 20
-2293.003651183553
 30
0.0
 11
8348.664707017183
 21
-2292.20778724689
 31
0.0
  0
ARC
  5
B9E9
330
1E
100
AcDbEntity
  8
002
100
AcDbCircle
 10
8347.444517835354
 20
-2292.5401501635
 30
0.0
 40
0.7210800000000001
100
AcDbArc
 50
176.9999999999938
 51
319.9999999999706
  0
LINE
  5
B9EA
330
1E
100
AcDbEntity
  8
002
100
AcDbLine
 10
8346.343479164668
 20
-2299.77131179987
 30
0.0
 11
8345.578929115625
 21
-2304.10729059319
 31
0.0
  0
LINE
  5
B9EB
330
1E
100
AcDbEntity
  8
002
100
AcDbLine
 10
8327.25380584022
 20
-2286.277112181469
 30
0.0
 11
8325.579354368883
 21
-2295.77339429662
 31
0.0
  0
LINE
  5
B9EC
330
1E
100
AcDbEntity
  8
002
100
AcDbLine
 10
8324.746487417446
 20
-2295.626537381742
 30
0.0
 11
8325.579354368883
 21
-2295.77339429662
 31
0.0
  0
LINE
  5
B9ED
330
1E
100
AcDbEntity
  8
002
100
AcDbLine
 10
8324.746487417446
 20
-2295.626537381742
 30
0.0
 11
8323.115643086419
 21
-2297.570103158979
 31
0.0
  0
LINE
  5
B9EE
330
1E
100
AcDbEntity
  8
002
100
AcDbLine
 10
8323.115643086419
 20
-2297.570103158979
 30
0.0
 11
8324.36494281721
 21
-2297.790388408509
 31
0.0
  0
LINE
  5
B9EF
330
1E
100
AcDbEntity
  8
002
100
AcDbLine
 10
8330.416347132661
 20
-2304.868761853645
 30
0.0
 11
8331.102356595641
 21
-2305.848484900807
 31
0.0
  0
LINE
  5
B9F0
330
1E
100
AcDbEntity
  8
002
100
AcDbLine
 10
8325.149574884909
 20
-2303.081327453317
 30
0.0
 11
8327.395807194035
 21
-2303.47739809634
 31
0.0
  0
LINE
  5
B9F1
330
1E
100
AcDbEntity
  8
002
100
AcDbLine
 10
8328.187325747435
 20
-2305.334486312671
 30
0.0
 11
8327.395807194035
 21
-2303.47739809634
 31
0.0
  0
LINE
  5
B9F2
330
1E
100
AcDbEntity
  8
002
100
AcDbLine
 10
8324.169852656899
 20
-2303.767336342722
 30
0.0
 11
8323.876138499143
 21
-2305.433068033713
 31
0.0
  0
LINE
  5
B9F3
330
1E
100
AcDbEntity
  8
002
100
AcDbLine
 10
8324.169852656899
 20
-2303.767336342722
 30
0.0
 11
8325.149574884909
 21
-2303.081327453317
 31
0.0
  0
ARC
  5
B9F4
330
1E
100
AcDbEntity
  8
002
100
AcDbCircle
 10
8428.261662708324
 20
-2327.818469065552
 30
0.0
 40
73.83085699999999
100
AcDbArc
 50
169.9999999999961
 51
175.0000000000276
  0
LINE
  5
B9F5
330
1E
100
AcDbEntity
  8
002
100
AcDbLine
 10
8344.820507803829
 20
-2310.843647575688
 30
0.0
 11
8341.905476955624
 21
-2310.329648987552
 31
0.0
  0
LINE
  5
B9F6
330
1E
100
AcDbEntity
  8
002
100
AcDbLine
 10
8342.218865566362
 20
-2308.552333856996
 30
0.0
 11
8339.115199584565
 21
-2326.154102385789
 31
0.0
  0
LINE
  5
B9F7
330
1E
100
AcDbEntity
  8
002
100
AcDbLine
 10
8341.09674829747
 20
-2307.610765095594
 30
0.0
 11
8337.865899853776
 21
-2325.933817136259
 31
0.0
  0
LINE
  5
B9F8
330
1E
100
AcDbEntity
  8
002
100
AcDbLine
 10
8337.865899853776
 20
-2325.933817136259
 30
0.0
 11
8339.242380653738
 21
-2325.432818628342
 31
0.0
  0
LINE
  5
B9F9
330
1E
100
AcDbEntity
  8
002
100
AcDbLine
 10
8341.09674829747
 20
-2307.610765095594
 30
0.0
 11
8342.218865566362
 21
-2308.552333856996
 31
0.0
  0
LINE
  5
B9FA
330
1E
100
AcDbEntity
  8
002
100
AcDbLine
 10
8341.905476955624
 20
-2310.329648987552
 30
0.0
 11
8340.528996401241
 21
-2310.83064610274
 31
0.0
  0
ARC
  5
B9FB
330
1E
100
AcDbEntity
  8
002
100
AcDbCircle
 10
8428.261662708324
 20
-2327.818469065552
 30
0.0
 40
84.571429
100
AcDbArc
 50
169.9999999999961
 51
175.0000000000276
  0
LINE
  5
B9FC
330
1E
100
AcDbEntity
  8
002
100
AcDbLine
 10
8336.127946906513
 20
-2355.683997249878
 30
0.0
 11
8336.890243732257
 21
-2355.818410029551
 31
0.0
  0
LINE
  5
B9FD
330
1E
100
AcDbEntity
  8
002
100
AcDbLine
 10
8336.127946906513
 20
-2355.683997249878
 30
0.0
 11
8338.619951641446
 21
-2359.70157472858
 31
0.0
  0
ARC
  5
B9FE
330
1E
100
AcDbEntity
  8
002
100
AcDbCircle
 10
8336.82323623173
 20
-2360.816032817534
 30
0.0
 40
2.114285999999999
100
AcDbArc
 50
308.1896849999879
 51
31.81031500001687
  0
LINE
  5
B9FF
330
1E
100
AcDbEntity
  8
002
100
AcDbLine
 10
8337.004021866333
 20
-2355.838472902418
 30
0.0
 11
8339.496026601265
 21
-2359.856050381118
 31
0.0
  0
ARC
  5
BA00
330
1E
100
AcDbEntity
  8
002
100
AcDbCircle
 10
8337.699311191549
 20
-2360.970508470074
 30
0.0
 40
2.114285999999999
100
AcDbArc
 50
308.1896849999879
 51
31.81031500001687
  0
LINE
  5
BA01
330
1E
100
AcDbEntity
  8
002
100
AcDbLine
 10
8354.71175424559
 20
-2321.383686113173
 30
0.0
 11
8351.474126202672
 21
-2358.389941992566
 31
0.0
  0
LINE
  5
BA02
330
1E
100
AcDbEntity
  8
002
100
AcDbLine
 10
8344.820507803829
 20
-2310.843647575688
 30
0.0
 11
8336.890243732257
 21
-2355.818410029551
 31
0.0
  0
LINE
  5
BA03
330
1E
100
AcDbEntity
  8
002
100
AcDbLine
 10
8346.651711099225
 20
-2357.539620815667
 30
0.0
 11
8343.709316600909
 21
-2323.907891466533
 31
0.0
  0
LINE
  5
BA04
330
1E
100
AcDbEntity
  8
002
100
AcDbLine
 10
8344.012054117047
 20
-2320.447583791763
 30
0.0
 11
8340.856324163796
 21
-2356.517737735305
 31
0.0
  0
LINE
  5
BA05
330
1E
100
AcDbEntity
  8
002
100
AcDbLine
 10
8329.953672867869
 20
-2324.538678041155
 30
0.0
 11
8326.282254989841
 21
-2345.360327577095
 31
0.0
  0
LINE
  5
BA06
330
1E
100
AcDbEntity
  8
002
100
AcDbLine
 10
8345.578929115625
 20
-2304.10729059319
 30
0.0
 11
8344.333330085405
 21
-2308.181462508091
 31
0.0
  0
LINE
  5
BA07
330
1E
100
AcDbEntity
  8
002
100
AcDbLine
 10
8328.187325747435
 20
-2305.334486312671
 30
0.0
 11
8344.844645277959
 21
-2308.271621172183
 31
0.0
  0
LINE
  5
BA08
330
1E
100
AcDbEntity
  8
002
100
AcDbLine
 10
8358.07191864073
 20
-2306.310142434189
 30
0.0
 11
8357.848950814767
 21
-2310.564631103701
 31
0.0
  0
LINE
  5
BA09
330
1E
100
AcDbEntity
  8
002
100
AcDbLine
 10
8333.925095884666
 20
-2368.176986201406
 30
0.0
 11
8336.417101193175
 21
-2372.194564499259
 31
0.0
  0
ARC
  5
BA0A
330
1E
100
AcDbEntity
  8
002
100
AcDbCircle
 10
8336.597886254201
 20
-2367.21700376499
 30
0.0
 40
2.114285999999999
100
AcDbArc
 50
128.1896849999879
 51
211.8103150000168
  0
ARC
  5
BA0B
330
1E
100
AcDbEntity
  8
002
100
AcDbCircle
 10
8335.721811294382
 20
-2367.06252811245
 30
0.0
 40
2.114285999999999
100
AcDbArc
 50
128.1896849999879
 51
211.8103150000168
  0
LINE
  5
BA0C
330
1E
100
AcDbEntity
  8
002
100
AcDbLine
 10
8332.598319577062
 20
-2380.824452198199
 30
0.0
 11
8335.090324311996
 21
-2384.842029676901
 31
0.0
  0
ARC
  5
BA0D
330
1E
100
AcDbEntity
  8
002
100
AcDbCircle
 10
8332.417534516038
 20
-2385.80201293247
 30
0.0
 40
2.114285999999999
100
AcDbArc
 50
308.1896849999879
 51
31.81031500001687
  0
ARC
  5
BA0E
330
1E
100
AcDbEntity
  8
002
100
AcDbCircle
 10
8333.293609475855
 20
-2385.956488585008
 30
0.0
 40
2.114285999999999
100
AcDbArc
 50
308.1896849999879
 51
31.81031500001687
  0
LINE
  5
BA0F
330
1E
100
AcDbEntity
  8
002
100
AcDbLine
 10
8334.801170844487
 20
-2368.331461853944
 30
0.0
 11
8337.293176152995
 21
-2372.349040151799
 31
0.0
  0
ARC
  5
BA10
330
1E
100
AcDbEntity
  8
002
100
AcDbCircle
 10
8334.620385783459
 20
-2373.309022588213
 30
0.0
 40
2.114285999999999
100
AcDbArc
 50
308.1896849999879
 51
31.81031500001687
  0
LINE
  5
BA11
330
1E
100
AcDbEntity
  8
002
100
AcDbLine
 10
8336.803653020973
 20
-2375.125259718641
 30
0.0
 11
8333.087842135507
 21
-2378.048231812205
 31
0.0
  0
ARC
  5
BA12
330
1E
100
AcDbEntity
  8
002
100
AcDbCircle
 10
8335.496459924128
 20
-2373.463498814329
 30
0.0
 40
2.114285999999999
100
AcDbArc
 50
308.1896849999879
 51
31.81031500001687
  0
ARC
  5
BA13
330
1E
100
AcDbEntity
  8
002
100
AcDbCircle
 10
8332.192183964933
 20
-2392.202983060771
 30
0.0
 40
2.114285999999999
100
AcDbArc
 50
128.1896849999879
 51
211.8103150000168
  0
ARC
  5
BA14
330
1E
100
AcDbEntity
  8
002
100
AcDbCircle
 10
8331.316109005113
 20
-2392.048507408233
 30
0.0
 40
2.114285999999999
100
AcDbArc
 50
128.1896849999879
 51
211.8103150000168
  0
ARC
  5
BA15
330
1E
100
AcDbEntity
  8
002
100
AcDbCircle
 10
8333.518959453384
 20
-2379.555517637554
 30
0.0
 40
2.114285999999999
100
AcDbArc
 50
128.1896849999879
 51
211.8103150000168
  0
LINE
  5
BA16
330
1E
100
AcDbEntity
  8
002
100
AcDbLine
 10
8331.52187634546
 20
-2399.956764181037
 30
0.0
 11
8327.806064067265
 21
-2402.879736029024
 31
0.0
  0
LINE
  5
BA17
330
1E
100
AcDbEntity
  8
002
100
AcDbLine
 10
8329.519392776246
 20
-2393.162966070764
 30
0.0
 11
8332.011398903906
 21
-2397.180543795042
 31
0.0
  0
LINE
  5
BA18
330
1E
100
AcDbEntity
  8
002
100
AcDbLine
 10
8331.722244617244
 20
-2380.669976545661
 30
0.0
 11
8334.214249352175
 21
-2384.687554024363
 31
0.0
  0
LINE
  5
BA19
330
1E
100
AcDbEntity
  8
002
100
AcDbLine
 10
8335.927578061154
 20
-2374.970784066103
 30
0.0
 11
8332.211767175689
 21
-2377.893756159664
 31
0.0
  0
ARC
  5
BA1A
330
1E
100
AcDbEntity
  8
002
100
AcDbCircle
 10
8334.395034413203
 20
-2379.709993290092
 30
0.0
 40
2.114285999999999
100
AcDbArc
 50
128.1896849999879
 51
211.8103150000168
  0
LINE
  5
BA1B
330
1E
100
AcDbEntity
  8
002
100
AcDbLine
 10
8333.724726793731
 20
-2387.463774410358
 30
0.0
 11
8330.008915908265
 21
-2390.38674650392
 31
0.0
  0
LINE
  5
BA1C
330
1E
100
AcDbEntity
  8
002
100
AcDbLine
 10
8334.60080175355
 20
-2387.618250062898
 30
0.0
 11
8330.884990868083
 21
-2390.54122215646
 31
0.0
  0
ARC
  5
BA1D
330
1E
100
AcDbEntity
  8
002
100
AcDbCircle
 10
8330.214682675036
 20
-2398.295002457572
 30
0.0
 40
2.114285999999999
100
AcDbArc
 50
308.1896849999879
 51
31.81031500001687
  0
LINE
  5
BA1E
330
1E
100
AcDbEntity
  8
002
100
AcDbLine
 10
8330.395467736064
 20
-2393.317441723304
 30
0.0
 11
8332.887473863724
 21
-2397.33501944758
 31
0.0
  0
ARC
  5
BA1F
330
1E
100
AcDbEntity
  8
002
100
AcDbCircle
 10
8331.090757634857
 20
-2398.449478110113
 30
0.0
 40
2.114285999999999
100
AcDbArc
 50
308.1896849999879
 51
31.81031500001687
  0
LINE
  5
BA20
330
1E
100
AcDbEntity
  8
002
100
AcDbLine
 10
8338.130429902154
 20
-2362.477794541
 30
0.0
 11
8334.414618197534
 21
-2365.400767208137
 31
0.0
  0
LINE
  5
BA21
330
1E
100
AcDbEntity
  8
002
100
AcDbLine
 10
8339.006504861973
 20
-2362.632270193538
 30
0.0
 11
8335.290692583779
 21
-2365.555242041524
 31
0.0
  0
ARC
  5
BA22
330
1E
100
AcDbEntity
  8
002
100
AcDbCircle
 10
8390.492802321757
 20
-2402.482955069068
 30
0.0
 40
2.114285999999999
100
AcDbArc
 50
128.1896849999879
 51
211.8103150000168
  0
ARC
  5
BA23
330
1E
100
AcDbEntity
  8
002
100
AcDbCircle
 10
8391.736749796997
 20
-2402.702296571536
 30
0.0
 40
2.114285999999999
100
AcDbArc
 50
128.1896849999879
 51
211.8103150000168
  0
LINE
  5
BA24
330
1E
100
AcDbEntity
  8
002
100
AcDbLine
 10
8414.906003030621
 20
-2339.518065922902
 30
0.0
 11
8390.698778364559
 21
-2474.36892716172
 31
0.0
  0
LINE
  5
BA25
330
1E
100
AcDbEntity
  8
002
100
AcDbLine
 10
8391.942517137346
 20
-2410.610553344342
 30
0.0
 11
8388.226706251879
 21
-2413.533525437902
 31
0.0
  0
LINE
  5
BA26
330
1E
100
AcDbEntity
  8
002
100
AcDbLine
 10
8387.737183693436
 20
-2416.3097458239
 30
0.0
 11
8390.229188428369
 21
-2420.327323302601
 31
0.0
  0
ARC
  5
BA27
330
1E
100
AcDbEntity
  8
002
100
AcDbCircle
 10
8390.635324859651
 20
-2408.948791866452
 30
0.0
 40
2.114285999999999
100
AcDbArc
 50
308.1896849999879
 51
31.81031500001687
  0
ARC
  5
BA28
330
1E
100
AcDbEntity
  8
002
100
AcDbCircle
 10
8389.391377384411
 20
-2408.729450363984
 30
0.0
 40
2.114285999999999
100
AcDbArc
 50
308.1896849999879
 51
31.81031500001687
  0
LINE
  5
BA29
330
1E
100
AcDbEntity
  8
002
100
AcDbLine
 10
8389.940034960858
 20
-2403.816755479644
 30
0.0
 11
8392.432039695789
 21
-2407.834332958346
 31
0.0
  0
ARC
  5
BA2A
330
1E
100
AcDbEntity
  8
002
100
AcDbCircle
 10
8388.289951054336
 20
-2414.975945413323
 30
0.0
 40
2.114285999999999
100
AcDbArc
 50
128.1896849999879
 51
211.8103150000168
  0
LINE
  5
BA2B
330
1E
100
AcDbEntity
  8
002
100
AcDbLine
 10
8390.698569662106
 20
-2410.391211841874
 30
0.0
 11
8386.982758776639
 21
-2413.314183935434
 31
0.0
  0
ARC
  5
BA2C
330
1E
100
AcDbEntity
  8
002
100
AcDbCircle
 10
8389.533899348727
 20
-2415.195286342215
 30
0.0
 40
2.114285999999999
100
AcDbArc
 50
128.1896849999879
 51
211.8103150000168
  0
LINE
  5
BA2D
330
1E
100
AcDbEntity
  8
002
100
AcDbLine
 10
8386.49323564462
 20
-2416.090403502279
 30
0.0
 11
8388.985240953129
 21
-2420.107981800132
 31
0.0
  0
LINE
  5
BA2E
330
1E
100
AcDbEntity
  8
002
100
AcDbLine
 10
8388.69608748562
 20
-2403.597413977175
 30
0.0
 11
8391.18809222055
 21
-2407.614991455877
 31
0.0
  0
LINE
  5
BA2F
330
1E
100
AcDbEntity
  8
002
100
AcDbLine
 10
8389.739666689074
 20
-2423.103543115021
 30
0.0
 11
8386.023854410879
 21
-2426.026514963007
 31
0.0
  0
LINE
  5
BA30
330
1E
100
AcDbEntity
  8
002
100
AcDbLine
 10
8388.495719213835
 20
-2422.884201612552
 30
0.0
 11
8384.779906935641
 21
-2425.807173460538
 31
0.0
  0
LINE
  5
BA31
330
1E
100
AcDbEntity
  8
002
100
AcDbLine
 10
8383.331481404166
 20
-2441.295725119682
 30
0.0
 11
8385.823486139099
 21
-2445.313302598384
 31
0.0
  0
ARC
  5
BA32
330
1E
100
AcDbEntity
  8
002
100
AcDbCircle
 10
8386.229622570381
 20
-2433.934771162236
 30
0.0
 40
2.114285999999999
100
AcDbArc
 50
308.1896849999879
 51
31.81031500001687
  0
LINE
  5
BA33
330
1E
100
AcDbEntity
  8
002
100
AcDbLine
 10
8387.536814848076
 20
-2435.596532640126
 30
0.0
 11
8383.82100396261
 21
-2438.519504733685
 31
0.0
  0
LINE
  5
BA34
330
1E
100
AcDbEntity
  8
002
100
AcDbLine
 10
8385.534332671587
 20
-2428.802734775427
 30
0.0
 11
8388.026337980099
 21
-2432.82031307328
 31
0.0
  0
ARC
  5
BA35
330
1E
100
AcDbEntity
  8
002
100
AcDbCircle
 10
8384.985675095142
 20
-2433.715429659767
 30
0.0
 40
2.114285999999999
100
AcDbArc
 50
308.1896849999879
 51
31.81031500001687
  0
ARC
  5
BA36
330
1E
100
AcDbEntity
  8
002
100
AcDbCircle
 10
8384.026771302959
 20
-2446.427761506491
 30
0.0
 40
2.114285999999999
100
AcDbArc
 50
308.1896849999879
 51
31.81031500001687
  0
ARC
  5
BA37
330
1E
100
AcDbEntity
  8
002
100
AcDbCircle
 10
8382.782823254144
 20
-2446.20841918487
 30
0.0
 40
2.114285999999999
100
AcDbArc
 50
308.1896849999879
 51
31.81031500001687
  0
ARC
  5
BA38
330
1E
100
AcDbEntity
  8
002
100
AcDbCircle
 10
8383.884248765065
 20
-2439.961924709106
 30
0.0
 40
2.114285999999999
100
AcDbArc
 50
128.1896849999879
 51
211.8103150000168
  0
ARC
  5
BA39
330
1E
100
AcDbEntity
  8
002
100
AcDbCircle
 10
8386.087100606067
 20
-2427.468935184002
 30
0.0
 40
2.114285999999999
100
AcDbArc
 50
128.1896849999879
 51
211.8103150000168
  0
ARC
  5
BA3A
330
1E
100
AcDbEntity
  8
002
100
AcDbCircle
 10
8387.331048081305
 20
-2427.68827668647
 30
0.0
 40
2.114285999999999
100
AcDbArc
 50
128.1896849999879
 51
211.8103150000168
  0
ARC
  5
BA3B
330
1E
100
AcDbEntity
  8
002
100
AcDbCircle
 10
8385.128196240307
 20
-2440.181266211575
 30
0.0
 40
2.114285999999999
100
AcDbArc
 50
128.1896849999879
 51
211.8103150000168
  0
LINE
  5
BA3C
330
1E
100
AcDbEntity
  8
002
100
AcDbLine
 10
8384.290385196349
 20
-2428.583393272958
 30
0.0
 11
8386.782389931282
 21
-2432.600970751658
 31
0.0
  0
LINE
  5
BA3D
330
1E
100
AcDbEntity
  8
002
100
AcDbLine
 10
8386.292867372839
 20
-2435.377191137655
 30
0.0
 11
8382.57705648737
 21
-2438.300163231217
 31
0.0
  0
LINE
  5
BA3E
330
1E
100
AcDbEntity
  8
002
100
AcDbLine
 10
8382.087533928928
 20
-2441.076383617213
 30
0.0
 11
8384.579538663858
 21
-2445.093961095915
 31
0.0
  0
LINE
  5
BA3F
330
1E
100
AcDbEntity
  8
002
100
AcDbLine
 10
8381.128629563166
 20
-2453.788714644786
 30
0.0
 11
8383.620635690826
 21
-2457.806292369063
 31
0.0
  0
LINE
  5
BA40
330
1E
100
AcDbEntity
  8
002
100
AcDbLine
 10
8379.884682087928
 20
-2453.569373142318
 30
0.0
 11
8382.37668821559
 21
-2457.586950866594
 31
0.0
  0
LINE
  5
BA41
330
1E
100
AcDbEntity
  8
002
100
AcDbLine
 10
8381.291272121798
 20
-2472.710129989937
 30
0.0
 11
8390.698778364559
 21
-2474.36892716172
 31
0.0
  0
LINE
  5
BA42
330
1E
100
AcDbEntity
  8
002
100
AcDbLine
 10
8378.925779114895
 20
-2466.281704415465
 30
0.0
 11
8381.41778384983
 21
-2470.299281894165
 31
0.0
  0
ARC
  5
BA43
330
1E
100
AcDbEntity
  8
002
100
AcDbCircle
 10
8381.823919461961
 20
-2458.920751031595
 30
0.0
 40
2.114285999999999
100
AcDbArc
 50
308.1896849999879
 51
31.81031500001687
  0
LINE
  5
BA44
330
1E
100
AcDbEntity
  8
002
100
AcDbLine
 10
8383.131112558807
 20
-2460.582511935907
 30
0.0
 11
8379.41530167334
 21
-2463.505484029469
 31
0.0
  0
ARC
  5
BA45
330
1E
100
AcDbEntity
  8
002
100
AcDbCircle
 10
8380.579971986721
 20
-2458.701409529125
 30
0.0
 40
2.114285999999999
100
AcDbArc
 50
308.1896849999879
 51
31.81031500001687
  0
ARC
  5
BA46
330
1E
100
AcDbEntity
  8
002
100
AcDbCircle
 10
8379.621069013689
 20
-2471.413740802274
 30
0.0
 40
2.114285999999999
100
AcDbArc
 50
322.1818609999839
 51
31.81031500001687
  0
ARC
  5
BA47
330
1E
100
AcDbEntity
  8
002
100
AcDbCircle
 10
8378.377121538449
 20
-2471.194399299804
 30
0.0
 40
2.114285999999999
100
AcDbArc
 50
308.1896849999879
 51
31.81031500001687
  0
ARC
  5
BA48
330
1E
100
AcDbEntity
  8
002
100
AcDbCircle
 10
8377.275695208375
 20
-2477.440894349145
 30
0.0
 40
2.114285999999999
100
AcDbArc
 50
128.1896849999879
 51
211.8103150000168
  0
ARC
  5
BA49
330
1E
100
AcDbEntity
  8
002
100
AcDbCircle
 10
8379.478546475796
 20
-2464.94790400489
 30
0.0
 40
2.114285999999999
100
AcDbArc
 50
128.1896849999879
 51
211.8103150000168
  0
LINE
  5
BA4A
330
1E
100
AcDbEntity
  8
002
100
AcDbLine
 10
8379.684313816147
 20
-2472.856160777693
 30
0.0
 11
8375.968502930678
 21
-2475.779132871255
 31
0.0
  0
LINE
  5
BA4B
330
1E
100
AcDbEntity
  8
002
100
AcDbLine
 10
8377.681831639657
 20
-2466.062362912996
 30
0.0
 11
8380.17383637459
 21
-2470.079940391697
 31
0.0
  0
ARC
  5
BA4C
330
1E
100
AcDbEntity
  8
002
100
AcDbCircle
 10
8380.722493951036
 20
-2465.167245507358
 30
0.0
 40
2.114285999999999
100
AcDbArc
 50
128.1896849999879
 51
211.8103150000168
  0
LINE
  5
BA4D
330
1E
100
AcDbEntity
  8
002
100
AcDbLine
 10
8381.887165083568
 20
-2460.363170433438
 30
0.0
 11
8378.171353378949
 21
-2463.286143100576
 31
0.0
  0
ARC
  5
BA4E
330
1E
100
AcDbEntity
  8
002
100
AcDbCircle
 10
8381.681398316796
 20
-2452.454914479785
 30
0.0
 40
2.114285999999999
100
AcDbArc
 50
128.1896849999879
 51
211.8103150000168
  0
ARC
  5
BA4F
330
1E
100
AcDbEntity
  8
002
100
AcDbCircle
 10
8382.925345792035
 20
-2452.674255982254
 30
0.0
 40
2.114285999999999
100
AcDbArc
 50
128.1896849999879
 51
211.8103150000168
  0
LINE
  5
BA50
330
1E
100
AcDbEntity
  8
002
100
AcDbLine
 10
8385.333964399807
 20
-2448.089522410804
 30
0.0
 11
8381.618152695187
 21
-2451.012495077941
 31
0.0
  0
LINE
  5
BA51
330
1E
100
AcDbEntity
  8
002
100
AcDbLine
 10
8384.090016105416
 20
-2447.870181481912
 30
0.0
 11
8380.374205219949
 21
-2450.793153575474
 31
0.0
  0
ARC
  5
BA52
330
1E
100
AcDbEntity
  8
002
100
AcDbCircle
 10
8388.432473018653
 20
-2421.441781391557
 30
0.0
 40
2.114285999999999
100
AcDbArc
 50
308.1896849999879
 51
31.81031500001687
  0
ARC
  5
BA53
330
1E
100
AcDbEntity
  8
002
100
AcDbCircle
 10
8387.188525543413
 20
-2421.222439889088
 30
0.0
 40
2.114285999999999
100
AcDbArc
 50
308.1896849999879
 51
31.81031500001687
  0
ARC
  5
BA54
330
1E
100
AcDbEntity
  8
002
100
AcDbCircle
 10
8376.17426969745
 20
-2483.687388824908
 30
0.0
 40
2.114285999999999
100
AcDbArc
 50
308.1896849999879
 51
31.81031500001687
  0
ARC
  5
BA55
330
1E
100
AcDbEntity
  8
002
100
AcDbCircle
 10
8373.971419249182
 20
-2496.180378595587
 30
0.0
 40
2.114285999999999
100
AcDbArc
 50
308.1896849999879
 51
31.81031500001687
  0
LINE
  5
BA56
330
1E
100
AcDbEntity
  8
002
100
AcDbLine
 10
8373.276129350387
 20
-2491.04834220878
 30
0.0
 11
8375.768134085319
 21
-2495.06591968748
 31
0.0
  0
LINE
  5
BA57
330
1E
100
AcDbEntity
  8
002
100
AcDbLine
 10
8377.481463367875
 20
-2485.349150548374
 30
0.0
 11
8373.76565108968
 21
-2488.272122396359
 31
0.0
  0
ARC
  5
BA58
330
1E
100
AcDbEntity
  8
002
100
AcDbCircle
 10
8371.76856740818
 20
-2508.673368120691
 30
0.0
 40
2.114285999999999
100
AcDbArc
 50
308.1896849999879
 51
31.81031500001687
  0
LINE
  5
BA59
330
1E
100
AcDbEntity
  8
002
100
AcDbLine
 10
8375.478979798657
 20
-2478.555352438101
 30
0.0
 11
8377.970985107166
 21
-2482.572930735954
 31
0.0
  0
ARC
  5
BA5A
330
1E
100
AcDbEntity
  8
002
100
AcDbCircle
 10
8372.869992919104
 20
-2502.426873644928
 30
0.0
 40
2.114285999999999
100
AcDbArc
 50
128.1896849999879
 51
211.8103150000168
  0
ARC
  5
BA5B
330
1E
100
AcDbEntity
  8
002
100
AcDbCircle
 10
8370.667142470834
 20
-2514.919863415607
 30
0.0
 40
2.114285999999999
100
AcDbArc
 50
128.1896849999879
 51
211.8103150000168
  0
LINE
  5
BA5C
330
1E
100
AcDbEntity
  8
002
100
AcDbLine
 10
8368.870426241965
 20
-2516.034322078137
 30
0.0
 11
8371.362432369627
 21
-2520.051899802416
 31
0.0
  0
ARC
  5
BA5D
330
1E
100
AcDbEntity
  8
002
100
AcDbCircle
 10
8375.072844760103
 20
-2489.933884119824
 30
0.0
 40
2.114285999999999
100
AcDbArc
 50
128.1896849999879
 51
211.8103150000168
  0
LINE
  5
BA5E
330
1E
100
AcDbEntity
  8
002
100
AcDbLine
 10
8375.278611526876
 20
-2497.842140073477
 30
0.0
 11
8371.562800641408
 21
-2500.765112167039
 31
0.0
  0
LINE
  5
BA5F
330
1E
100
AcDbEntity
  8
002
100
AcDbLine
 10
8371.073278082965
 20
-2503.541332553035
 30
0.0
 11
8373.565282817898
 21
-2507.558910031736
 31
0.0
  0
LINE
  5
BA60
330
1E
100
AcDbEntity
  8
002
100
AcDbLine
 10
8373.075761078606
 20
-2510.335129844158
 30
0.0
 11
8369.35994880041
 21
-2513.258101692141
 31
0.0
  0
ARC
  5
BA61
330
1E
100
AcDbEntity
  8
002
100
AcDbCircle
 10
8322.237822768441
 20
-2309.123605485836
 30
0.0
 40
84.571429
100
AcDbArc
 50
345.0000000000055
 51
349.999999999996
  0
LINE
  5
BA62
330
1E
100
AcDbEntity
  8
002
100
AcDbLine
 10
8404.398928173455
 20
-2329.170533366464
 30
0.0
 11
8400.841851400324
 21
-2288.512965808844
 31
0.0
  0
LINE
  5
BA63
330
1E
100
AcDbEntity
  8
002
100
AcDbLine
 10
8406.452591180942
 20
-2321.711046752347
 30
0.0
 11
8398.522327109372
 21
-2366.68580920621
 31
0.0
  0
LINE
  5
BA64
330
1E
100
AcDbEntity
  8
002
100
AcDbLine
 10
8397.968857070202
 20
-2301.815056581244
 30
0.0
 11
8398.636667001476
 21
-2301.019192071004
 31
0.0
  0
ARC
  5
BA65
330
1E
100
AcDbEntity
  8
002
100
AcDbCircle
 10
8397.416477819646
 20
-2301.351554987615
 30
0.0
 40
0.7210800000000001
100
AcDbArc
 50
176.9999999999938
 51
319.9999999999706
  0
LINE
  5
BA66
330
1E
100
AcDbEntity
  8
002
100
AcDbLine
 10
8372.98287777442
 20
-2297.409354291974
 30
0.0
 11
8373.650687132117
 21
-2296.613488962582
 31
0.0
  0
LINE
  5
BA67
330
1E
100
AcDbEntity
  8
002
100
AcDbLine
 10
8384.583418850111
 20
-2299.454842674435
 30
0.0
 11
8384.228084479465
 21
-2298.478570218609
 31
0.0
  0
ARC
  5
BA68
330
1E
100
AcDbEntity
  8
002
100
AcDbCircle
 10
8385.26101325637
 20
-2299.20821790405
 30
0.0
 40
0.7210800000000001
100
AcDbArc
 50
200.0000000000471
 51
343.0000000000192
  0
LINE
  5
BA69
330
1E
100
AcDbEntity
  8
002
100
AcDbLine
 10
8396.315437756234
 20
-2308.58271637841
 30
0.0
 11
8395.550888280768
 21
-2312.918695990882
 31
0.0
  0
ARC
  5
BA6A
330
1E
100
AcDbEntity
  8
002
100
AcDbCircle
 10
8322.237822768441
 20
-2309.123605485836
 30
0.0
 40
73.83085699999999
100
AcDbArc
 50
345.0000000000055
 51
349.999999999996
  0
LINE
  5
BA6B
330
1E
100
AcDbEntity
  8
002
100
AcDbLine
 10
8395.550888280768
 20
-2312.918695990882
 30
0.0
 11
8394.305288676971
 21
-2316.99286708663
 31
0.0
  0
LINE
  5
BA6C
330
1E
100
AcDbEntity
  8
002
100
AcDbLine
 10
8383.057898755664
 20
-2310.715844149881
 30
0.0
 11
8382.834930110552
 21
-2314.97033339297
 31
0.0
  0
LINE
  5
BA6D
330
1E
100
AcDbEntity
  8
002
100
AcDbLine
 10
8382.323614917998
 20
-2314.880174728876
 30
0.0
 11
8394.816604688676
 21
-2317.083025177147
 31
0.0
  0
LINE
  5
BA6E
330
1E
100
AcDbEntity
  8
002
100
AcDbLine
 10
8387.43363185579
 20
-2364.730573052149
 30
0.0
 11
8386.532667429916
 21
-2354.432505563772
 31
0.0
  0
LINE
  5
BA6F
330
1E
100
AcDbEntity
  8
002
100
AcDbLine
 10
8393.552954397998
 20
-2328.23243766314
 30
0.0
 11
8383.93844463896
 21
-2364.114277243194
 31
0.0
  0
LINE
  5
BA70
330
1E
100
AcDbEntity
  8
002
100
AcDbLine
 10
8396.83701042605
 20
-2357.474554573735
 30
0.0
 11
8394.091644040834
 21
-2326.094870287406
 31
0.0
  0
LINE
  5
BA71
330
1E
100
AcDbEntity
  8
002
100
AcDbLine
 10
8383.822448804705
 20
-2306.379865356562
 30
0.0
 11
8383.057898755664
 21
-2310.715844149881
 31
0.0
  0
LINE
  5
BA72
330
1E
100
AcDbEntity
  8
002
100
AcDbLine
 10
8370.564908411408
 20
-2308.512992882458
 30
0.0
 11
8369.319309381188
 21
-2312.587164797361
 31
0.0
  0
LINE
  5
BA73
330
1E
100
AcDbEntity
  8
002
100
AcDbLine
 10
8367.042671067929
 20
-2361.135097220696
 30
0.0
 11
8365.461175521788
 21
-2343.058517269788
 31
0.0
  0
LINE
  5
BA74
330
1E
100
AcDbEntity
  8
002
100
AcDbLine
 10
8371.329458460449
 20
-2304.17701408914
 30
0.0
 11
8370.564908411408
 21
-2308.512992882458
 31
0.0
  0
LINE
  5
BA75
330
1E
100
AcDbEntity
  8
002
100
AcDbLine
 10
8375.787248418641
 20
-2346.348934384796
 30
0.0
 11
8372.17042588306
 21
-2305.008467672634
 31
0.0
  0
ARC
  5
BA76
330
1E
100
AcDbEntity
  8
002
100
AcDbCircle
 10
8372.430497950288
 20
-2296.945851879194
 30
0.0
 40
0.7210800000000001
100
AcDbArc
 50
176.9999999999938
 51
319.9999999999706
  0
LINE
  5
BA77
330
1E
100
AcDbEntity
  8
002
100
AcDbLine
 10
8394.345737250127
 20
-2378.830776183862
 30
0.0
 11
8396.837741985057
 21
-2382.848353662562
 31
0.0
  0
LINE
  5
BA78
330
1E
100
AcDbEntity
  8
002
100
AcDbLine
 10
8396.548588517552
 20
-2366.337785839605
 30
0.0
 11
8398.522327109372
 21
-2366.68580920621
 31
0.0
  0
LINE
  5
BA79
330
1E
100
AcDbEntity
  8
002
100
AcDbLine
 10
8398.551070694038
 20
-2373.131583704303
 30
0.0
 11
8394.835259808571
 21
-2376.054555797864
 31
0.0
  0
ARC
  5
BA7A
330
1E
100
AcDbEntity
  8
002
100
AcDbCircle
 10
8397.243878416343
 20
-2371.469822226414
 30
0.0
 40
2.114285999999999
100
AcDbArc
 50
308.1896849999879
 51
31.81031500001687
  0
ARC
  5
BA7B
330
1E
100
AcDbEntity
  8
002
100
AcDbCircle
 10
8395.999930941103
 20
-2371.250480723945
 30
0.0
 40
2.114285999999999
100
AcDbArc
 50
308.1896849999879
 51
31.81031500001687
  0
LINE
  5
BA7C
330
1E
100
AcDbEntity
  8
002
100
AcDbLine
 10
8396.548588517552
 20
-2366.337785839605
 30
0.0
 11
8399.040593826059
 21
-2370.355364137458
 31
0.0
  0
ARC
  5
BA7D
330
1E
100
AcDbEntity
  8
002
100
AcDbCircle
 10
8395.04102714892
 20
-2383.962812570669
 30
0.0
 40
2.114285999999999
100
AcDbArc
 50
308.1896849999879
 51
31.81031500001687
  0
ARC
  5
BA7E
330
1E
100
AcDbEntity
  8
002
100
AcDbCircle
 10
8393.797079100105
 20
-2383.74347024905
 30
0.0
 40
2.114285999999999
100
AcDbArc
 50
308.1896849999879
 51
31.81031500001687
  0
ARC
  5
BA7F
330
1E
100
AcDbEntity
  8
002
100
AcDbCircle
 10
8396.142452086268
 20
-2377.716317275753
 30
0.0
 40
2.114285999999999
100
AcDbArc
 50
128.1896849999879
 51
211.8103150000168
  0
LINE
  5
BA80
330
1E
100
AcDbEntity
  8
002
100
AcDbLine
 10
8397.3071232188
 20
-2372.912242201835
 30
0.0
 11
8393.591312333333
 21
-2375.835214295395
 31
0.0
  0
LINE
  5
BA81
330
1E
100
AcDbEntity
  8
002
100
AcDbLine
 10
8395.30464104231
 20
-2366.118444337137
 30
0.0
 11
8397.796645777244
 21
-2370.136021815837
 31
0.0
  0
ARC
  5
BA82
330
1E
100
AcDbEntity
  8
002
100
AcDbCircle
 10
8392.695654162759
 20
-2389.989965543964
 30
0.0
 40
2.114285999999999
100
AcDbArc
 50
128.1896849999879
 51
211.8103150000168
  0
ARC
  5
BA83
330
1E
100
AcDbEntity
  8
002
100
AcDbCircle
 10
8393.939601637997
 20
-2390.209307046434
 30
0.0
 40
2.114285999999999
100
AcDbArc
 50
128.1896849999879
 51
211.8103150000168
  0
LINE
  5
BA84
330
1E
100
AcDbEntity
  8
002
100
AcDbLine
 10
8396.348220245767
 20
-2385.624573474982
 30
0.0
 11
8392.63240854115
 21
-2388.547546142121
 31
0.0
  0
ARC
  5
BA85
330
1E
100
AcDbEntity
  8
002
100
AcDbCircle
 10
8394.898504611028
 20
-2377.496975773285
 30
0.0
 40
2.114285999999999
100
AcDbArc
 50
128.1896849999879
 51
211.8103150000168
  0
LINE
  5
BA86
330
1E
100
AcDbEntity
  8
002
100
AcDbLine
 10
8393.101789774888
 20
-2378.611434681392
 30
0.0
 11
8395.593794509821
 21
-2382.629012160094
 31
0.0
  0
LINE
  5
BA87
330
1E
100
AcDbEntity
  8
002
100
AcDbLine
 10
8395.104271951378
 20
-2385.40523254609
 30
0.0
 11
8391.388461065909
 21
-2388.328204639652
 31
0.0
  0
ARC
  5
BA88
330
1E
100
AcDbEntity
  8
002
100
AcDbCircle
 10
8392.83817530792
 20
-2396.455802095773
 30
0.0
 40
2.114285999999999
100
AcDbArc
 50
308.1896849999879
 51
31.81031500001687
  0
LINE
  5
BA89
330
1E
100
AcDbEntity
  8
002
100
AcDbLine
 10
8392.901420929529
 20
-2397.898221497616
 30
0.0
 11
8389.185609224911
 21
-2400.821194164755
 31
0.0
  0
LINE
  5
BA8A
330
1E
100
AcDbEntity
  8
002
100
AcDbLine
 10
8394.145368404769
 20
-2398.117563000087
 30
0.0
 11
8390.429557519302
 21
-2401.040535093647
 31
0.0
  0
ARC
  5
BA8B
330
1E
100
AcDbEntity
  8
002
100
AcDbCircle
 10
8391.594227832682
 20
-2396.236460593305
 30
0.0
 40
2.114285999999999
100
AcDbArc
 50
308.1896849999879
 51
31.81031500001687
  0
LINE
  5
BA8C
330
1E
100
AcDbEntity
  8
002
100
AcDbLine
 10
8392.142885409128
 20
-2391.323765708964
 30
0.0
 11
8394.634891536789
 21
-2395.341343433241
 31
0.0
  0
LINE
  5
BA8D
330
1E
100
AcDbEntity
  8
002
100
AcDbLine
 10
8390.898937933888
 20
-2391.104424206496
 30
0.0
 11
8393.390944061549
 21
-2395.122001930773
 31
0.0
  0
LINE
  5
BA8E
330
1E
100
AcDbEntity
  8
002
100
AcDbLine
 10
8403.927549503547
 20
-2331.012302190916
 30
0.0
 11
8394.556246432259
 21
-2365.986482893182
 31
0.0
  0
ARC
  5
BA8F
330
1E
100
AcDbEntity
  8
002
100
AcDbCircle
 10
8439.999760702642
 20
-2304.051335048303
 30
0.0
 40
4.228575
100
AcDbArc
 50
171.4741980000064
 51
221.3401920000316
  0
LINE
  5
BA90
330
1E
100
AcDbEntity
  8
002
100
AcDbLine
 10
8409.569398965043
 20
-2303.860544390129
 30
0.0
 11
8409.214065167978
 21
-2302.884272753455
 31
0.0
  0
ARC
  5
BA91
330
1E
100
AcDbEntity
  8
002
100
AcDbCircle
 10
8410.246993125729
 20
-2303.613921012471
 30
0.0
 40
0.7210800000000001
100
AcDbArc
 50
200.0000000000471
 51
343.0000000000192
  0
ARC
  5
BA92
330
1E
100
AcDbEntity
  8
002
100
AcDbCircle
 10
8434.586132635613
 20
-2310.701453951618
 30
0.0
 40
4.228575
100
AcDbArc
 50
349.999999999996
 51
41.34019200003169
  0
LINE
  5
BA93
330
1E
100
AcDbEntity
  8
002
100
AcDbLine
 10
8428.278100419024
 20
-2322.124429337465
 30
0.0
 11
8427.984387653994
 21
-2323.790161274033
 31
0.0
  0
LINE
  5
BA94
330
1E
100
AcDbEntity
  8
002
100
AcDbLine
 10
8428.278100419024
 20
-2322.124429337465
 30
0.0
 11
8427.592090956043
 21
-2321.144706290302
 31
0.0
  0
LINE
  5
BA95
330
1E
100
AcDbEntity
  8
002
100
AcDbLine
 10
8427.984387653994
 20
-2323.790161274033
 30
0.0
 11
8429.812188838846
 21
-2325.599869643034
 31
0.0
  0
LINE
  5
BA96
330
1E
100
AcDbEntity
  8
002
100
AcDbLine
 10
8430.520557397915
 20
-2314.277360496658
 30
0.0
 11
8429.687691265632
 21
-2314.130503008203
 31
0.0
  0
LINE
  5
BA97
330
1E
100
AcDbEntity
  8
002
100
AcDbLine
 10
8430.520557397915
 20
-2314.277360496658
 30
0.0
 11
8431.388311954892
 21
-2316.661495953805
 31
0.0
  0
LINE
  5
BA98
330
1E
100
AcDbEntity
  8
002
100
AcDbLine
 10
8431.388311954892
 20
-2316.661495953805
 30
0.0
 11
8430.139012224101
 21
-2316.441210704275
 31
0.0
  0
LINE
  5
BA99
330
1E
100
AcDbEntity
  8
002
100
AcDbLine
 10
8422.031605943258
 20
-2321.023003826543
 30
0.0
 11
8421.051882896097
 21
-2321.709013289523
 31
0.0
  0
LINE
  5
BA9A
330
1E
100
AcDbEntity
  8
002
100
AcDbLine
 10
8423.966913744301
 20
-2322.223011877659
 30
0.0
 11
8425.345859466069
 21
-2320.748635073703
 31
0.0
  0
LINE
  5
BA9B
330
1E
100
AcDbEntity
  8
002
100
AcDbLine
 10
8425.345859466069
 20
-2320.748635073703
 30
0.0
 11
8427.592090956043
 21
-2321.144706290302
 31
0.0
  0
LINE
  5
BA9C
330
1E
100
AcDbEntity
  8
002
100
AcDbLine
 10
8425.860487893942
 20
-2340.705927952689
 30
0.0
 11
8426.982606555565
 21
-2341.647496959667
 31
0.0
  0
LINE
  5
BA9D
330
1E
100
AcDbEntity
  8
002
100
AcDbLine
 10
8425.860443326632
 20
-2340.705920094271
 30
0.0
 11
8426.982560595524
 21
-2341.647488855673
 31
0.0
  0
LINE
  5
BA9E
330
1E
100
AcDbEntity
  8
002
100
AcDbLine
 10
8425.733260864735
 20
-2341.427203606142
 30
0.0
 11
8427.10974223827
 21
-2340.926205917378
 31
0.0
  0
LINE
  5
BA9F
330
1E
100
AcDbEntity
  8
002
100
AcDbLine
 10
8433.522819612846
 20
-2341.083190123596
 30
0.0
 11
8431.56337269937
 21
-2342.455209623136
 31
0.0
  0
LINE
  5
BAA0
330
1E
100
AcDbEntity
  8
002
100
AcDbLine
 10
8430.520557397915
 20
-2314.277360496658
 30
0.0
 11
8425.860487893942
 21
-2340.705927952689
 31
0.0
  0
LINE
  5
BAA1
330
1E
100
AcDbEntity
  8
002
100
AcDbLine
 10
8431.388311954892
 20
-2316.661495953805
 30
0.0
 11
8426.982606555565
 21
-2341.647496959667
 31
0.0
  0
LINE
  5
BAA2
330
1E
100
AcDbEntity
  8
002
100
AcDbLine
 10
8431.388262884793
 20
-2316.66150955989
 30
0.0
 11
8426.982560595524
 21
-2341.647488855673
 31
0.0
  0
LINE
  5
BAA3
330
1E
100
AcDbEntity
  8
002
100
AcDbLine
 10
8430.520508901393
 20
-2314.277374921896
 30
0.0
 11
8425.733260864735
 21
-2341.427203606142
 31
0.0
  0
LINE
  5
BAA4
330
1E
100
AcDbEntity
  8
002
100
AcDbLine
 10
8433.522819612846
 20
-2341.083190123596
 30
0.0
 11
8438.750466000065
 21
-2311.435738280437
 31
0.0
  0
LINE
  5
BAA5
330
1E
100
AcDbEntity
  8
002
100
AcDbLine
 10
8408.043878051447
 20
-2315.121546439151
 30
0.0
 11
8407.820909406336
 21
-2319.37603568224
 31
0.0
  0
LINE
  5
BAA6
330
1E
100
AcDbEntity
  8
002
100
AcDbLine
 10
8408.808428100488
 20
-2310.785567645833
 30
0.0
 11
8408.043878051447
 21
-2315.121546439151
 31
0.0
  0
LINE
  5
BAA7
330
1E
100
AcDbEntity
  8
002
100
AcDbLine
 10
8409.367622029147
 20
-2322.225045340483
 30
0.0
 11
8410.489739543615
 21
-2323.166612709155
 31
0.0
  0
LINE
  5
BAA8
330
1E
100
AcDbEntity
  8
002
100
AcDbLine
 10
8406.452591180942
 20
-2321.711046752347
 30
0.0
 11
8409.367622029147
 21
-2322.225045340483
 31
0.0
  0
LINE
  5
BAA9
330
1E
100
AcDbEntity
  8
002
100
AcDbLine
 10
8411.057491439846
 20
-2319.946731702008
 30
0.0
 11
8409.681010639886
 21
-2320.447730209927
 31
0.0
  0
LINE
  5
BAAA
330
1E
100
AcDbEntity
  8
002
100
AcDbLine
 10
8407.826642996152
 20
-2338.269783742675
 30
0.0
 11
8406.704524908107
 21
-2337.328215554849
 31
0.0
  0
LINE
  5
BAAB
330
1E
100
AcDbEntity
  8
002
100
AcDbLine
 10
8411.057491439846
 20
-2319.946731702008
 30
0.0
 11
8407.826642996152
 21
-2338.269783742675
 31
0.0
  0
LINE
  5
BAAC
330
1E
100
AcDbEntity
  8
002
100
AcDbLine
 10
8409.681010639886
 20
-2320.447730209927
 30
0.0
 11
8406.577343265359
 21
-2338.049498493144
 31
0.0
  0
LINE
  5
BAAD
330
1E
100
AcDbEntity
  8
002
100
AcDbLine
 10
8415.738869982059
 20
-2339.664922837779
 30
0.0
 11
8412.065024424295
 21
-2360.500332285533
 31
0.0
  0
LINE
  5
BAAE
330
1E
100
AcDbEntity
  8
002
100
AcDbLine
 10
8407.309594213781
 20
-2319.285877018146
 30
0.0
 11
8423.966913744301
 21
-2322.223011877659
 31
0.0
  0
LINE
  5
BAAF
330
1E
100
AcDbEntity
  8
002
100
AcDbLine
 10
8431.362141344237
 20
-2304.634220647476
 30
0.0
 11
8429.687691265632
 21
-2314.130503008203
 31
0.0
  0
LINE
  5
BAB0
330
1E
100
AcDbEntity
  8
002
100
AcDbLine
 10
8436.824942417613
 20
-2306.844429412091
 30
0.0
 11
8437.76095092064
 21
-2307.90835958783
 31
0.0
  0
LINE
  5
BAB1
330
1E
100
AcDbEntity
  8
003
100
AcDbLine
 10
8433.578853610566
 20
-2364.293800829425
 30
0.0
 11
8429.758593701892
 21
-2385.959571395693
 31
0.0
  0
LINE
  5
BAB2
330
1E
100
AcDbEntity
  8
002
100
AcDbLine
 10
8458.21503436707
 20
-2347.154616655865
 30
0.0
 11
8454.541190202037
 21
-2367.990026349194
 31
0.0
  0
ARC
  5
BAB3
330
1E
100
AcDbEntity
  8
002
100
AcDbCircle
 10
8442.998323856942
 20
-2198.482042056699
 30
0.0
 40
4.228575
100
AcDbArc
 50
351.4741980000064
 51
79.9999999999961
  0
LINE
  5
BAB4
330
1E
100
AcDbEntity
  8
002
100
AcDbLine
 10
8350.035581283435
 20
-2173.502587334067
 30
0.0
 11
8448.525434223638
 21
-2190.869005733433
 31
0.0
  0
LINE
  5
BAB5
330
1E
100
AcDbEntity
  8
002
100
AcDbLine
 10
8443.73260818576
 20
-2194.317708692246
 30
0.0
 11
8353.359838663681
 21
-2178.382551104157
 31
0.0
  0
ARC
  5
BAB6
330
1E
100
AcDbEntity
  8
002
100
AcDbCircle
 10
8349.301296954619
 20
-2177.666920698519
 30
0.0
 40
4.228575
100
AcDbArc
 50
79.9999999999961
 51
168.5258020000171
  0
ARC
  5
BAB7
330
1E
100
AcDbEntity
  8
002
100
AcDbCircle
 10
8352.625554334863
 20
-2182.546884468609
 30
0.0
 40
4.228575
100
AcDbArc
 50
79.9999999999961
 51
168.5258020000171
  0
LINE
  5
BAB8
330
1E
100
AcDbEntity
  8
002
100
AcDbLine
 10
8353.903699827418
 20
-2260.060850655869
 30
0.0
 11
8354.277738643997
 21
-2260.374707100861
 31
0.0
  0
LINE
  5
BAB9
330
1E
100
AcDbEntity
  8
002
100
AcDbLine
 10
8348.318872985274
 20
-2262.078556757291
 30
0.0
 11
8347.924570126705
 21
-2261.582851259916
 31
0.0
  0
LINE
  5
BABA
330
1E
100
AcDbEntity
  8
002
100
AcDbLine
 10
8339.17947758209
 20
-2260.040855495508
 30
0.0
 11
8338.19975453493
 21
-2260.726864958489
 31
0.0
  0
LINE
  5
BABB
330
1E
100
AcDbEntity
  8
002
100
AcDbLine
 10
8347.924570126705
 20
-2261.582851259916
 30
0.0
 11
8339.17947758209
 21
-2260.040855495508
 31
0.0
  0
ARC
  5
BABC
330
1E
100
AcDbEntity
  8
002
100
AcDbCircle
 10
8348.872048076136
 20
-2259.60301487049
 30
0.0
 40
0.422857
100
AcDbArc
 50
79.9999999999961
 51
176.9999999999938
  0
LINE
  5
BABD
330
1E
100
AcDbEntity
  8
002
100
AcDbLine
 10
8348.945476410788
 20
-2259.186582091137
 30
0.0
 11
8353.903699827418
 21
-2260.060850655869
 31
0.0
  0
LINE
  5
BABE
330
1E
100
AcDbEntity
  8
002
100
AcDbLine
 10
8323.480521762908
 20
-2283.616315347972
 30
0.0
 11
8345.157232475852
 21
-2176.825744424755
 31
0.0
  0
LINE
  5
BABF
330
1E
100
AcDbEntity
  8
002
100
AcDbLine
 10
8403.875658418984
 20
-2268.87225523441
 30
0.0
 11
8404.249698054716
 21
-2269.186111105824
 31
0.0
  0
LINE
  5
BAC0
330
1E
100
AcDbEntity
  8
002
100
AcDbLine
 10
8395.726981926111
 20
-2181.559214053732
 30
0.0
 11
8395.101744059143
 21
-2185.742775251556
 31
0.0
  0
LINE
  5
BAC1
330
1E
100
AcDbEntity
  8
002
100
AcDbLine
 10
8396.143414705464
 20
-2181.632642388382
 30
0.0
 11
8395.518176838496
 21
-2185.816203586209
 31
0.0
  0
LINE
  5
BAC2
330
1E
100
AcDbEntity
  8
002
100
AcDbLine
 10
8402.834033580964
 20
-2182.81237901377
 30
0.0
 11
8401.990702790296
 21
-2186.957484544847
 31
0.0
  0
LINE
  5
BAC3
330
1E
100
AcDbEntity
  8
002
100
AcDbLine
 10
8402.41760080161
 20
-2182.738950679119
 30
0.0
 11
8401.574270010943
 21
-2186.884056210194
 31
0.0
  0
LINE
  5
BAC4
330
1E
100
AcDbEntity
  8
002
100
AcDbLine
 10
8373.952824346472
 20
-2210.644237859971
 30
0.0
 11
8373.014824192685
 21
-2199.922849473376
 31
0.0
  0
LINE
  5
BAC5
330
1E
100
AcDbEntity
  8
002
100
AcDbLine
 10
8400.74398499587
 20
-2204.812247957366
 30
0.0
 11
8390.166586829371
 21
-2202.947167274917
 31
0.0
  0
LINE
  5
BAC6
330
1E
100
AcDbEntity
  8
002
100
AcDbLine
 10
8395.914999502462
 20
-2232.198785593334
 30
0.0
 11
8393.405784161393
 21
-2203.518325878407
 31
0.0
  0
LINE
  5
BAC7
330
1E
100
AcDbEntity
  8
002
100
AcDbLine
 10
8397.896529537423
 20
-2270.394255264878
 30
0.0
 11
8395.397932042149
 21
-2269.953685830547
 31
0.0
  0
LINE
  5
BAC8
330
1E
100
AcDbEntity
  8
002
100
AcDbLine
 10
8394.857867290339
 20
-2270.284637108312
 30
0.0
 11
8395.397932042149
 21
-2269.953685830547
 31
0.0
  0
ARC
  5
BAC9
330
1E
100
AcDbEntity
  8
002
100
AcDbCircle
 10
8395.184737930383
 20
-2267.769191640978
 30
0.0
 40
0.422857
100
AcDbArc
 50
343.0000000000192
 51
79.9999999999961
  0
LINE
  5
BACA
330
1E
100
AcDbEntity
  8
002
100
AcDbLine
 10
8398.290832150415
 20
-2270.889962154982
 30
0.0
 11
8397.896529537423
 21
-2270.394255264878
 31
0.0
  0
LINE
  5
BACB
330
1E
100
AcDbEntity
  8
002
100
AcDbLine
 10
8398.917435002353
 20
-2267.997986669677
 30
0.0
 11
8403.875658418984
 21
-2268.87225523441
 31
0.0
  0
ARC
  5
BACC
330
1E
100
AcDbEntity
  8
002
100
AcDbCircle
 10
8398.844006667703
 20
-2268.41441944903
 30
0.0
 40
0.422857
100
AcDbArc
 50
79.9999999999961
 51
176.9999999999938
  0
LINE
  5
BACD
330
1E
100
AcDbEntity
  8
002
100
AcDbLine
 10
8373.931455706573
 20
-2263.592284380407
 30
0.0
 11
8378.889679123201
 21
-2264.466552945139
 31
0.0
  0
ARC
  5
BACE
330
1E
100
AcDbEntity
  8
002
100
AcDbCircle
 10
8373.85802737192
 20
-2264.00871715976
 30
0.0
 40
0.422857
100
AcDbArc
 50
79.9999999999961
 51
176.9999999999938
  0
LINE
  5
BACF
330
1E
100
AcDbEntity
  8
002
100
AcDbLine
 10
8378.889679123201
 20
-2264.466552945139
 30
0.0
 11
8379.263717939778
 21
-2264.78040939013
 31
0.0
  0
LINE
  5
BAD0
330
1E
100
AcDbEntity
  8
002
100
AcDbLine
 10
8390.299942848407
 20
-2266.478490296891
 30
0.0
 11
8389.84111610628
 21
-2266.645490072582
 31
0.0
  0
LINE
  5
BAD1
330
1E
100
AcDbEntity
  8
002
100
AcDbLine
 10
8395.258166265035
 20
-2267.352758861623
 30
0.0
 11
8390.299942848407
 21
-2266.478490296891
 31
0.0
  0
LINE
  5
BAD2
330
1E
100
AcDbEntity
  8
002
100
AcDbLine
 10
8389.205749141188
 20
-2270.248835190488
 30
0.0
 11
8385.588926605608
 21
-2228.908368478327
 31
0.0
  0
LINE
  5
BAD3
330
1E
100
AcDbEntity
  8
002
100
AcDbLine
 10
8367.243573985199
 20
-2248.694287457123
 30
0.0
 11
8363.626750876042
 21
-2207.353819925811
 31
0.0
  0
LINE
  5
BAD4
330
1E
100
AcDbEntity
  8
002
100
AcDbLine
 10
8372.91054942249
 20
-2265.988553549186
 30
0.0
 11
8370.411951353638
 21
-2265.547983295701
 31
0.0
  0
LINE
  5
BAD5
330
1E
100
AcDbEntity
  8
002
100
AcDbLine
 10
8369.871887175404
 20
-2265.878935392618
 30
0.0
 11
8370.411951353638
 21
-2265.547983295701
 31
0.0
  0
ARC
  5
BAD6
330
1E
100
AcDbEntity
  8
002
100
AcDbCircle
 10
8370.1987586346
 20
-2263.363489351708
 30
0.0
 40
0.422857
100
AcDbArc
 50
343.0000000000192
 51
79.9999999999961
  0
LINE
  5
BAD7
330
1E
100
AcDbEntity
  8
002
100
AcDbLine
 10
8365.313963552624
 20
-2262.072788007623
 30
0.0
 11
8364.85513623692
 21
-2262.239786964159
 31
0.0
  0
LINE
  5
BAD8
330
1E
100
AcDbEntity
  8
002
100
AcDbLine
 10
8370.272186969252
 20
-2262.947056572355
 30
0.0
 11
8365.313963552624
 21
-2262.072788007623
 31
0.0
  0
LINE
  5
BAD9
330
1E
100
AcDbEntity
  8
002
100
AcDbLine
 10
8373.304852281055
 20
-2266.484259046561
 30
0.0
 11
8372.91054942249
 21
-2265.988553549186
 31
0.0
  0
LINE
  5
BADA
330
1E
100
AcDbEntity
  8
002
100
AcDbLine
 10
8375.75800570009
 20
-2200.406545668096
 30
0.0
 11
8365.180607533588
 21
-2198.541464985646
 31
0.0
  0
LINE
  5
BADB
330
1E
100
AcDbEntity
  8
002
100
AcDbLine
 10
8424.586425019727
 20
-2215.703283729544
 30
0.0
 11
8423.992224933604
 21
-2208.911539912373
 31
0.0
  0
LINE
  5
BADC
330
1E
100
AcDbEntity
  8
002
100
AcDbLine
 10
8425.729964291653
 20
-2209.217950246637
 30
0.0
 11
8415.152566125154
 21
-2207.352869564185
 31
0.0
  0
LINE
  5
BADD
330
1E
100
AcDbEntity
  8
002
  6
CENTER
100
AcDbLine
 10
8434.442410802898
 20
-2265.674325226842
 30
0.0
 11
8443.453383570838
 21
-2267.263202848258
 31
0.0
  0
LINE
  5
BADE
330
1E
100
AcDbEntity
  8
002
100
AcDbLine
 10
8441.841253761893
 20
-2263.245104679306
 30
0.0
 11
8437.659125348572
 21
-2262.620080678092
 31
0.0
  0
LINE
  5
BADF
330
1E
100
AcDbEntity
  8
002
100
AcDbLine
 10
8441.778542472901
 20
-2263.663427162964
 30
0.0
 11
8437.596413814004
 21
-2263.038404554478
 31
0.0
  0
LINE
  5
BAE0
330
1E
100
AcDbEntity
  8
002
100
AcDbLine
 10
8440.812654719977
 20
-2270.106483115803
 30
0.0
 11
8436.663380654833
 21
-2269.262303853733
 31
0.0
  0
LINE
  5
BAE1
330
1E
100
AcDbEntity
  8
002
100
AcDbLine
 10
8440.749858145727
 20
-2270.525370717523
 30
0.0
 11
8436.600584080579
 21
-2269.681191455452
 31
0.0
  0
LINE
  5
BAE2
330
1E
100
AcDbEntity
  8
002
100
AcDbLine
 10
8429.129003882547
 20
-2275.901383884224
 30
0.0
 11
8420.383911337934
 21
-2274.359388119815
 31
0.0
  0
LINE
  5
BAE3
330
1E
100
AcDbEntity
  8
002
100
AcDbLine
 10
8419.843846586122
 20
-2274.690339397583
 30
0.0
 11
8420.383911337934
 21
-2274.359388119815
 31
0.0
  0
LINE
  5
BAE4
330
1E
100
AcDbEntity
  8
002
100
AcDbLine
 10
8429.129003882547
 20
-2275.901383884224
 30
0.0
 11
8429.815013345528
 21
-2276.881106931387
 31
0.0
  0
LINE
  5
BAE5
330
1E
100
AcDbEntity
  8
002
100
AcDbLine
 10
8420.244145560817
 20
-2271.758461150893
 30
0.0
 11
8415.285922144191
 21
-2270.884192586161
 31
0.0
  0
LINE
  5
BAE6
330
1E
100
AcDbEntity
  8
002
100
AcDbLine
 10
8415.285922144191
 20
-2270.884192586161
 30
0.0
 11
8414.827095402063
 21
-2271.051192361852
 31
0.0
  0
ARC
  5
BAE7
330
1E
100
AcDbEntity
  8
002
100
AcDbCircle
 10
8420.170717226167
 20
-2272.174893930246
 30
0.0
 40
0.422857
100
AcDbArc
 50
343.0000000000192
 51
79.9999999999961
  0
LINE
  5
BAE8
330
1E
100
AcDbEntity
  8
002
100
AcDbLine
 10
8417.877175232028
 20
-2253.753334145851
 30
0.0
 11
8414.260352122871
 21
-2212.412866614537
 31
0.0
  0
LINE
  5
BAE9
330
1E
100
AcDbEntity
  8
003
  6
Continuous
100
AcDbLine
 10
8450.767915870036
 20
-2255.627768971415
 30
0.0
 11
8575.187923974141
 21
-2277.566373340136
 31
0.0
  0
ARC
  5
BAEA
330
1E
100
AcDbEntity
  8
002
100
AcDbCircle
 10
8447.791149894822
 20
-2195.033339097884
 30
0.0
 40
4.228575
100
AcDbArc
 50
351.4741980000064
 51
79.9999999999961
  0
LINE
  5
BAEB
330
1E
100
AcDbEntity
  8
003
  6
Continuous
100
AcDbLine
 10
8565.539121649127
 20
-2275.865029158712
 30
0.0
 11
8600.099925888375
 21
-2201.747034275194
 31
0.0
  0
LINE
  5
BAEC
330
1E
100
AcDbEntity
  8
001
100
AcDbLine
 10
9273.064433587263
 20
-2120.920495135602
 30
0.0
 11
9138.314433587265
 21
-2120.920495135602
 31
0.0
  0
LINE
  5
BAED
330
1E
100
AcDbEntity
  8
003
100
AcDbLine
 10
9261.792391031336
 20
-2351.747034275195
 30
0.0
 11
9319.61171992661
 21
-2351.747034275195
 31
0.0
  0
LINE
  5
BAEE
330
1E
100
AcDbEntity
  8
001
100
AcDbLine
 10
9318.110376105796
 20
-2286.716515898444
 30
0.0
 11
9240.978836031336
 21
-2180.330615275195
 31
0.0
  0
LINE
  5
BAEF
330
1E
100
AcDbEntity
  8
003
100
AcDbLine
 10
9253.751830031335
 20
-2373.747034275194
 30
0.0
 11
9319.61171992661
 21
-2373.747034275194
 31
0.0
  0
LINE
  5
BAF0
330
1E
100
AcDbEntity
  8
001
100
AcDbLine
 10
9264.823723031335
 20
-2519.569867275195
 30
0.0
 11
9158.948723031334
 21
-2519.569867275195
 31
0.0
  0
LINE
  5
BAF1
330
1E
100
AcDbEntity
  8
003
100
AcDbLine
 10
9307.767829401512
 20
-2226.747034275195
 30
0.0
 11
9166.674662031335
 21
-2226.747034275195
 31
0.0
  0
LINE
  5
BAF2
330
1E
100
AcDbEntity
  8
003
100
AcDbLine
 10
9308.042695665491
 20
-2201.747034275194
 30
0.0
 11
9064.624662031336
 21
-2201.747034275194
 31
0.0
  0
LWPOLYLINE
  5
BAF3
330
1E
100
AcDbEntity
  8
003
  6
Continuous
100
AcDbPolyline
 90
       12
 70
     1
 43
0.0
 10
9218.278687851201
 20
-2091.747034275195
 10
9518.24378637505
 20
-2091.747034275195
 10
9618.24378637505
 20
-2201.747034275194
 10
9668.261237113126
 20
-2201.747034275194
 10
9668.261237113126
 20
-2199.447034275193
 10
9619.261237113127
 20
-2199.447034275193
 10
9519.261237113125
 20
-2089.447034275193
 10
9217.261237113126
 20
-2089.447034275193
 10
9117.261237113124
 20
-2199.447034275193
 10
9068.261237113125
 20
-2199.447034275193
 10
9068.261237113125
 20
-2201.747034275194
 10
9118.278687851201
 20
-2201.747034275194
  0
TEXT
  5
BAF4
330
1E
100
AcDbEntity
  8
001
100
AcDbText
 10
9182.452667816409
 20
-2890.096436117093
 30
0.0
 40
17.0
  1
メッキ付　円形プレート
 41
0.6862750000000001
100
AcDbText
  0
LINE
  5
BAF5
330
1E
100
AcDbEntity
  8
004
  6
CENTER
 62
     6
100
AcDbLine
 10
9473.63972781641
 20
-3033.373002117094
 30
0.0
 11
9233.272982816409
 21
-3033.373002117094
 31
0.0
  0
LINE
  5
BAF6
330
1E
100
AcDbEntity
  8
001
100
AcDbLine
 10
9182.452667816409
 20
-2890.096436117093
 30
0.0
 11
9337.452667816409
 21
-2890.096436117093
 31
0.0
  0
CIRCLE
  5
BAF7
330
1E
100
AcDbEntity
  8
002
100
AcDbCircle
 10
9355.124201816408
 20
-3033.373002117094
 30
0.0
 40
102.4999999999999
  0
LWPOLYLINE
  5
BAF8
330
1E
100
AcDbEntity
  8
003
100
AcDbPolyline
 90
       64
 70
     0
 43
0.0
 10
8992.967882337367
 20
-2551.860594275194
 10
9299.503233384815
 20
-2551.860594275194
 10
9297.620320031336
 20
-2554.055786816126
 10
9296.570510031335
 20
-2556.418378816126
 10
9297.016483031336
 20
-2558.581525816125
 10
9298.423777031336
 20
-2560.778054816126
 10
9300.210322031338
 20
-2562.999580816125
 10
9301.794045031336
 20
-2565.237718816126
 10
9302.592878031338
 20
-2567.484081816126
 10
9302.251322031336
 20
-2569.625630816126
 10
9301.125528031336
 20
-2571.776833816126
 10
9299.670366031335
 20
-2573.947487816125
 10
9298.340708031338
 20
-2576.147391816126
 10
9297.591428031337
 20
-2578.386344816126
 10
9297.923299031337
 20
-2581.292262816127
 10
9299.247977031336
 20
-2584.234263816126
 10
9300.887114031334
 20
-2587.169580816126
 10
9302.162364031335
 20
-2590.055444816125
 10
9302.395379031336
 20
-2592.849088816127
 10
9301.498069031335
 20
-2595.017238816126
 10
9299.951332031337
 20
-2597.129061816125
 10
9298.227403031335
 20
-2599.216226816126
 10
9296.798520031336
 20
-2601.310406816126
 10
9296.136917031336
 20
-2603.443274816125
 10
9296.710872031338
 20
-2605.979680816126
 10
9298.262589031336
 20
-2608.574008816125
 10
9300.119550031338
 20
-2611.190507816125
 10
9301.609240031336
 20
-2613.793423816125
 10
9302.059141031335
 20
-2616.347006816126
 10
9301.265699031338
 20
-2618.474559816126
 10
9299.733239031334
 20
-2620.561982816125
 10
9297.977968031338
 20
-2622.631518816126
 10
9296.516098031336
 20
-2624.705410816126
 10
9295.863837031335
 20
-2626.805902816126
 10
9296.481217031336
 20
-2629.172918816126
 10
9298.069334031337
 20
-2631.569595816126
 10
9299.982426031336
 20
-2633.966041816126
 10
9301.574736031337
 20
-2636.332365816126
 10
9302.200503031336
 20
-2638.638676816126
 10
9301.588445031335
 20
-2640.601874816125
 10
9300.179281031336
 20
-2642.530388816125
 10
9298.421660031335
 20
-2644.458999816126
 10
9296.764232031335
 20
-2646.422487816125
 10
9295.655645031336
 20
-2648.455635816126
 10
9295.797827031336
 20
-2652.269970816125
 10
9297.822712031335
 20
-2656.271550816125
 10
9300.498824031336
 20
-2660.321557816125
 10
9302.594684031339
 20
-2664.281173816125
 10
9302.878812031336
 20
-2668.011580816126
 10
9301.710904031336
 20
-2670.192723816126
 10
9299.839428031338
 20
-2672.280223816125
 10
9297.764893031338
 20
-2674.326049816125
 10
9295.987810031336
 20
-2676.382170816126
 10
9295.008686031335
 20
-2678.500557816125
 10
9295.408030031337
 20
-2681.358302816126
 10
9297.125339031337
 20
-2684.355085816125
 10
9299.353180031337
 20
-2687.442960816126
 10
9301.284123031335
 20
-2690.573980816125
 10
9302.110735031336
 20
-2693.700200816125
 10
9301.520475031336
 20
-2696.297997816126
 10
9300.069572031336
 20
-2698.865309816127
 10
9298.251232031336
 20
-2701.409007816126
 10
9296.558663031339
 20
-2703.935958816126
 10
9295.485070031338
 20
-2706.453034816126
  0
LINE
  5
BAF9
330
1E
100
AcDbEntity
  8
004
  6
CENTER
 62
     6
100
AcDbLine
 10
8932.264391634317
 20
-3033.373002117094
 30
0.0
 11
8997.938599634315
 21
-3033.373002117094
 31
0.0
  0
DIMENSION
  5
BAFA
330
1E
100
AcDbEntity
  8
001
100
AcDbDimension
  2
*D1
 10
8976.297256634316
 20
-2940.290957274146
 30
0.0
 11
9015.672256634315
 21
-2927.165957274146
 31
0.0
 70
    32
 71
     5
 42
22.0
  3
ISO-25
100
AcDbAlignedDimension
 13
8954.297256634317
 23
-2975.873002117094
 33
0.0
 14
8976.297256634316
 24
-2969.873002117094
 34
0.0
100
AcDbRotatedDimension
  0
DIMENSION
  5
BAFB
330
1E
100
AcDbEntity
  8
001
100
AcDbDimension
  2
*D2
 10
8906.346936722306
 20
-3098.373002117094
 30
0.0
 11
8893.221936722303
 21
-3033.373002117093
 31
0.0
 70
    32
  1
M130
 71
     5
 42
130.0
  3
ISO-25
100
AcDbAlignedDimension
 13
8957.029306634316
 23
-2968.373002117094
 33
0.0
 14
8957.029306634316
 24
-3098.373002117094
 34
0.0
 50
90.0
100
AcDbRotatedDimension
  0
LINE
  5
BAFC
330
1E
100
AcDbEntity
  8
004
  6
CENTER
 62
     6
100
AcDbLine
 10
8823.942606634316
 20
-3033.373002117094
 30
0.0
 11
8702.629851634316
 21
-3033.373002117094
 31
0.0
  0
TEXT
  5
BAFD
330
1E
100
AcDbEntity
  8
001
100
AcDbText
 10
8654.419705634316
 20
-2921.121982117092
 30
0.0
 40
17.0
  1
両ネジジョイントプレート
 41
0.6862750000000001
100
AcDbText
  0
LINE
  5
BAFE
330
1E
100
AcDbEntity
  8
001
100
AcDbLine
 10
8654.419705634316
 20
-2921.121982117092
 30
0.0
 11
8823.419705634316
 21
-2921.121982117092
 31
0.0
  0
LINE
  5
BAFF
330
1E
100
AcDbEntity
  8
004
  6
CENTER
 62
     6
100
AcDbLine
 10
8838.507749634317
 20
-3033.373002117094
 30
0.0
 11
8688.031633634317
 21
-3033.373002117094
 31
0.0
  0
CIRCLE
  5
BB00
330
1E
100
AcDbEntity
  8
002
100
AcDbCircle
 10
8763.682173634315
 20
-3033.373002117094
 30
0.0
 40
58.80300899999999
  0
CIRCLE
  5
BB01
330
1E
100
AcDbEntity
  8
002
100
AcDbCircle
 10
8763.682173634315
 20
-3033.373002117094
 30
0.0
 40
61.5
  0
CIRCLE
  5
BB02
330
1E
100
AcDbEntity
  8
002
100
AcDbCircle
 10
8763.682173634315
 20
-3033.373002117094
 30
0.0
 40
57.5
  0
CIRCLE
  5
BB03
330
1E
100
AcDbEntity
  8
002
100
AcDbCircle
 10
8763.682173634315
 20
-3033.373002117094
 30
0.0
 40
62.5
  0
CIRCLE
  5
BB04
330
1E
100
AcDbEntity
  8
002
100
AcDbCircle
 10
8763.682173634315
 20
-3033.373002117094
 30
0.0
 40
63.5
  0
CIRCLE
  5
BB05
330
1E
100
AcDbEntity
  8
002
100
AcDbCircle
 10
8763.682173634315
 20
-3033.373002117094
 30
0.0
 40
65.0
  0
CIRCLE
  5
BB06
330
1E
100
AcDbEntity
  8
002
100
AcDbCircle
 10
8763.682173634315
 20
-3033.373002117094
 30
0.0
 40
40.49999999999999
  0
CIRCLE
  5
BB07
330
1E
100
AcDbEntity
  8
002
100
AcDbCircle
 10
8763.682173634315
 20
-3033.373002117094
 30
0.0
 40
42.0
  0
LINE
  5
BB08
330
1E
100
AcDbEntity
  8
004
  6
CENTER
 62
     6
100
AcDbLine
 10
8763.682173634315
 20
-2975.537734117093
 30
0.0
 11
8763.682173634315
 21
-3093.389195117093
 31
0.0
  0
LINE
  5
BB09
330
1E
100
AcDbEntity
  8
004
  6
CENTER
 62
     6
100
AcDbLine
 10
8763.682173634315
 20
-2959.081263117093
 30
0.0
 11
8763.682173634315
 21
-3105.753207117093
 31
0.0
  0
LINE
  5
BB0A
330
1E
100
AcDbEntity
  8
002
100
AcDbLine
 10
8975.431230634317
 20
-2992.873002117094
 30
0.0
 11
8975.431230634317
 21
-3011.269648117093
 31
0.0
  0
LINE
  5
BB0B
330
1E
100
AcDbEntity
  8
002
100
AcDbLine
 10
8955.163281634316
 20
-2992.873002117094
 30
0.0
 11
8955.163281634316
 21
-3011.269648117093
 31
0.0
  0
LINE
  5
BB0C
330
1E
100
AcDbEntity
  8
002
100
AcDbLine
 10
8954.297256634317
 20
-3033.373002117094
 30
0.0
 11
8954.297256634317
 21
-2975.873002117094
 31
0.0
  0
INSERT
  5
BB0D
330
1E
100
AcDbEntity
  8
001
100
AcDbBlockReference
  2
_Open
 10
9020.441133519282
 20
-2992.556827771179
 30
0.0
 41
11.25
 42
11.25
 43
11.25
 50
90.0
  0
LINE
  5
BB0E
330
1E
100
AcDbEntity
  8
002
100
AcDbLine
 10
8952.297256634315
 20
-3094.873002117094
 30
0.0
 11
8952.297256634315
 21
-2971.873002117094
 31
0.0
  0
LINE
  5
BB0F
330
1E
100
AcDbEntity
  8
002
100
AcDbLine
 10
8976.297256634316
 20
-3096.873002117094
 30
0.0
 11
8976.297256634316
 21
-2969.873002117094
 31
0.0
  0
LINE
  5
BB10
330
1E
100
AcDbEntity
  8
002
100
AcDbLine
 10
8976.297256634316
 20
-3096.882319117094
 30
0.0
 11
8975.431230634317
 21
-3098.382319117094
 31
0.0
  0
LINE
  5
BB11
330
1E
100
AcDbEntity
  8
002
100
AcDbLine
 10
8955.297256634315
 20
-3095.873002117094
 30
0.0
 11
8957.029306634316
 21
-3098.373002117094
 31
0.0
  0
LINE
  5
BB12
330
1E
100
AcDbEntity
  8
002
100
AcDbLine
 10
8953.297256634316
 20
-3095.873002117094
 30
0.0
 11
8955.297256634315
 21
-3095.873002117094
 31
0.0
  0
LINE
  5
BB13
330
1E
100
AcDbEntity
  8
002
100
AcDbLine
 10
8953.297256634316
 20
-3095.873002117094
 30
0.0
 11
8952.297256634315
 21
-3094.873002117094
 31
0.0
  0
LINE
  5
BB14
330
1E
100
AcDbEntity
  8
002
100
AcDbLine
 10
8955.990076634316
 20
-3096.873002117094
 30
0.0
 11
8976.297256634316
 21
-3096.873002117094
 31
0.0
  0
LINE
  5
BB15
330
1E
100
AcDbEntity
  8
002
100
AcDbLine
 10
8957.029306634316
 20
-3098.373002117094
 30
0.0
 11
8975.436609634316
 21
-3098.373002117094
 31
0.0
  0
LINE
  5
BB16
330
1E
100
AcDbEntity
  8
002
100
AcDbLine
 10
8975.436609634316
 20
-3098.373002117094
 30
0.0
 11
8975.436609634316
 21
-3064.345594117094
 31
0.0
  0
LINE
  5
BB17
330
1E
100
AcDbEntity
  8
002
100
AcDbLine
 10
8957.029306634316
 20
-3098.373002117094
 30
0.0
 11
8957.029306634316
 21
-3064.345594117094
 31
0.0
  0
LINE
  5
BB18
330
1E
100
AcDbEntity
  8
002
100
AcDbLine
 10
8955.297256634315
 20
-3095.873002117094
 30
0.0
 11
8955.297256634315
 21
-3033.373002117094
 31
0.0
  0
LINE
  5
BB19
330
1E
100
AcDbEntity
  8
002
100
AcDbLine
 10
8953.297256634316
 20
-3095.873002117094
 30
0.0
 11
8953.297256634316
 21
-3033.373002117094
 31
0.0
  0
MTEXT
  5
BB1A
330
1E
100
AcDbEntity
  8
001
100
AcDbMText
 10
9007.316133519282
 20
-3026.967602102164
 30
0.0
 40
11.25
 41
0.0
 71
     5
 72
     1
  1
M84
 11
0.0000000000000001
 21
1.0
 31
0.0
 73
     1
 44
1.0
  0
LINE
  5
BB1B
330
1E
100
AcDbEntity
  8
001
100
AcDbLine
 10
9020.441133519282
 20
-3003.806827771179
 30
0.0
 11
9020.441133519282
 21
-3048.541657475411
 31
0.0
  0
LINE
  5
BB1C
330
1E
100
AcDbEntity
  8
001
100
AcDbLine
 10
8986.538281634315
 20
-2992.556827771179
 30
0.0
 11
9020.441133519282
 21
-2992.556827771179
 31
0.0
  0
LINE
  5
BB1D
330
1E
100
AcDbEntity
  8
002
100
AcDbLine
 10
8963.690473634317
 20
-2991.373002117094
 30
0.0
 11
8976.297256634316
 21
-2978.766219117093
 31
0.0
  0
LINE
  5
BB1E
330
1E
100
AcDbEntity
  8
002
100
AcDbLine
 10
8973.589967634316
 20
-2991.373002117094
 30
0.0
 11
8976.297256634316
 21
-2988.665714117093
 31
0.0
  0
LINE
  5
BB1F
330
1E
100
AcDbEntity
  8
002
100
AcDbLine
 10
8976.297256634316
 20
-2991.373002117094
 30
0.0
 11
8975.431230634317
 21
-2992.873002117094
 31
0.0
  0
LINE
  5
BB20
330
1E
100
AcDbEntity
  8
002
100
AcDbLine
 10
8976.297256634316
 20
-2969.873002117094
 30
0.0
 11
8975.431230634317
 21
-2968.373002117094
 31
0.0
  0
LINE
  5
BB21
330
1E
100
AcDbEntity
  8
002
100
AcDbLine
 10
8954.297256634317
 20
-2991.373002117094
 30
0.0
 11
8955.163281634316
 21
-2992.873002117094
 31
0.0
  0
LINE
  5
BB22
330
1E
100
AcDbEntity
  8
002
100
AcDbLine
 10
8952.297256634315
 20
-2973.067734117094
 30
0.0
 11
8954.491988634316
 21
-2970.873002117094
 31
0.0
  0
LINE
  5
BB23
330
1E
100
AcDbEntity
  8
002
100
AcDbLine
 10
8955.297256634315
 20
-2970.873002117094
 30
0.0
 11
8957.029306634316
 21
-2968.373002117094
 31
0.0
  0
LINE
  5
BB24
330
1E
100
AcDbEntity
  8
002
100
AcDbLine
 10
8953.297256634316
 20
-2970.873002117094
 30
0.0
 11
8955.297256634315
 21
-2970.873002117094
 31
0.0
  0
LINE
  5
BB25
330
1E
100
AcDbEntity
  8
002
100
AcDbLine
 10
8953.297256634316
 20
-2970.873002117094
 30
0.0
 11
8952.297256634315
 21
-2971.873002117094
 31
0.0
  0
LINE
  5
BB26
330
1E
100
AcDbEntity
  8
002
100
AcDbLine
 10
8954.297256634317
 20
-2975.873002117094
 30
0.0
 11
8952.297256634315
 21
-2974.569993117093
 31
0.0
  0
LINE
  5
BB27
330
1E
100
AcDbEntity
  8
002
100
AcDbLine
 10
8954.297256634317
 20
-2990.866724117093
 30
0.0
 11
8975.290978634316
 21
-2969.873002117094
 31
0.0
  0
LINE
  5
BB28
330
1E
100
AcDbEntity
  8
002
100
AcDbLine
 10
8955.163281634316
 20
-2992.873002117094
 30
0.0
 11
8975.431230634317
 21
-2992.873002117094
 31
0.0
  0
LINE
  5
BB29
330
1E
100
AcDbEntity
  8
002
100
AcDbLine
 10
8954.297256634317
 20
-2991.373002117094
 30
0.0
 11
8976.297256634316
 21
-2991.373002117094
 31
0.0
  0
LINE
  5
BB2A
330
1E
100
AcDbEntity
  8
002
100
AcDbLine
 10
8954.297256634317
 20
-2980.967229117093
 30
0.0
 11
8965.391483634318
 21
-2969.873002117094
 31
0.0
  0
LINE
  5
BB2B
330
1E
100
AcDbEntity
  8
002
100
AcDbLine
 10
8957.029306634316
 20
-2968.373002117094
 30
0.0
 11
8975.431230634317
 21
-2968.373002117094
 31
0.0
  0
LINE
  5
BB2C
330
1E
100
AcDbEntity
  8
002
100
AcDbLine
 10
8955.990076634316
 20
-2969.873002117094
 30
0.0
 11
8976.297256634316
 21
-2969.873002117094
 31
0.0
  0
LINE
  5
BB2D
330
1E
100
AcDbEntity
  8
003
100
AcDbLine
 10
8736.406623999487
 20
-2409.804942003618
 30
0.0
 11
8736.406623999487
 21
-2182.784408339081
 31
0.0
  0
LINE
  5
BB2E
330
1E
100
AcDbEntity
  8
003
100
AcDbLine
 10
8736.406623999487
 20
-2456.406979003617
 30
0.0
 11
8736.406623999487
 21
-2595.443754374704
 31
0.0
  0
LINE
  5
BB2F
330
1E
100
AcDbEntity
  8
003
100
AcDbLine
 10
8718.006225999486
 20
-2456.406979003617
 30
0.0
 11
8736.406623999487
 21
-2456.406979003617
 31
0.0
  0
LINE
  5
BB30
330
1E
100
AcDbEntity
  8
003
100
AcDbLine
 10
8756.130506999486
 20
-2409.804942003618
 30
0.0
 11
8718.006225999486
 21
-2456.406979003617
 31
0.0
  0
LINE
  5
BB31
330
1E
100
AcDbEntity
  8
003
100
AcDbLine
 10
8736.406623999487
 20
-2409.804942003618
 30
0.0
 11
8756.130506999486
 21
-2409.804942003618
 31
0.0
  0
LINE
  5
BB32
330
1E
100
AcDbEntity
  8
003
 48
0.25
100
AcDbLine
 10
8736.406623999487
 20
-2217.040582926496
 30
0.0
 11
8662.879947791308
 21
-2201.747034275194
 31
0.0
  0
LINE
  5
BB33
330
1E
100
AcDbEntity
  8
003
100
AcDbLine
 10
9259.197987031337
 20
-2350.253376275195
 30
0.0
 11
9187.488692031337
 21
-2226.747034275195
 31
0.0
  0
LINE
  5
BB34
330
1E
100
AcDbEntity
  8
003
 62
     3
100
AcDbLine
 10
8991.240713876562
 20
-2411.345851848878
 30
0.0
 11
8991.240713876562
 21
-2182.754720903971
 31
0.0
  0
LINE
  5
BB35
330
1E
100
AcDbEntity
  8
003
100
AcDbLine
 10
9251.157426031335
 20
-2372.253376275195
 30
0.0
 11
9166.674662031335
 21
-2226.747034275195
 31
0.0
  0
LINE
  5
BB36
330
1E
100
AcDbEntity
  8
003
 62
     3
100
AcDbLine
 10
8991.240713876562
 20
-2457.947888848879
 30
0.0
 11
8991.240713876562
 21
-2595.443754374702
 31
0.0
  0
LINE
  5
BB37
330
1E
100
AcDbEntity
  8
003
 62
     3
100
AcDbLine
 10
8972.840315876561
 20
-2457.947888848879
 30
0.0
 11
8991.240713876562
 21
-2457.947888848879
 31
0.0
  0
LINE
  5
BB38
330
1E
100
AcDbEntity
  8
003
 62
     3
100
AcDbLine
 10
9010.964596876561
 20
-2411.345851848878
 30
0.0
 11
8972.840315876561
 21
-2457.947888848879
 31
0.0
  0
LINE
  5
BB39
330
1E
100
AcDbEntity
  8
003
 62
     3
100
AcDbLine
 10
8991.240713876562
 20
-2411.345851848878
 30
0.0
 11
9010.964596876561
 21
-2411.345851848878
 31
0.0
  0
TEXT
  5
BB3A
330
1E
100
AcDbEntity
  8
001
100
AcDbText
 10
9169.448723031335
 20
-2516.069815275196
 30
0.0
 40
11.19999999999999
  1
ジョイントコネクタ
 41
0.716146
100
AcDbText
  0
ARC
  5
BB3B
330
1E
100
AcDbEntity
  8
003
 62
     3
100
AcDbCircle
 10
9261.792391031336
 20
-2348.747034275195
 30
0.0
 40
3.0
100
AcDbArc
 50
210.1399749999846
 51
270.0
  0
ARC
  5
BB3C
330
1E
100
AcDbEntity
  8
003
 62
     3
100
AcDbCircle
 10
9261.792390031336
 20
-2348.747034275195
 30
0.0
 40
3.0
100
AcDbArc
 50
210.1399749999846
 51
270.0
  0
ARC
  5
BB3D
330
1E
100
AcDbEntity
  8
003
 62
     3
100
AcDbCircle
 10
9261.792390031336
 20
-2348.747034275195
 30
0.0
 40
3.0
100
AcDbArc
 50
210.1399749999846
 51
270.0
  0
LINE
  5
BB3E
330
1E
100
AcDbEntity
  8
004
  6
CENTER
100
AcDbLine
 10
9234.881538031336
 20
-2354.792167275194
 30
0.0
 11
9259.494398031336
 21
-2340.501639275195
 31
0.0
  0
LINE
  5
BB3F
330
1E
100
AcDbEntity
  8
003
 62
     3
100
AcDbLine
 10
9237.212292031335
 20
-2348.235395275194
 30
0.0
 11
9252.778716031336
 21
-2339.197339275195
 31
0.0
  0
LINE
  5
BB40
330
1E
100
AcDbEntity
  8
003
 62
     3
100
AcDbLine
 10
9241.731320031338
 20
-2356.018607275195
 30
0.0
 11
9257.297744031337
 21
-2346.980551275195
 31
0.0
  0
ARC
  5
BB41
330
1E
100
AcDbEntity
  8
003
 62
     3
100
AcDbCircle
 10
9253.751830031335
 20
-2370.747034275195
 30
0.0
 40
3.0
100
AcDbArc
 50
210.1399749999846
 51
270.0
  0
LINE
  5
BB42
330
1E
100
AcDbEntity
  8
001
100
AcDbLine
 10
9016.120933763229
 20
-1995.616089743
 30
0.0
 11
9237.171861486247
 21
-1995.616089743
 31
0.0
  0
TEXT
  5
BB43
330
1E
100
AcDbEntity
  8
001
100
AcDbText
 10
9016.120933763229
 20
-1992.055132522146
 30
0.0
 40
18.0
  1
角度なしアンカー頭部構造図
 41
0.787037
100
AcDbText
  0
TEXT
  5
BB44
330
1E
100
AcDbEntity
  8
001
100
AcDbText
 10
9027.215376031335
 20
-2279.752132275194
 30
0.0
 40
12.8
  1
テーパーコーン
 41
0.716146
100
AcDbText
  0
LINE
  5
BB45
330
1E
100
AcDbEntity
  8
001
100
AcDbLine
 10
9115.215376031335
 20
-2283.752132275194
 30
0.0
 11
9016.215376031336
 21
-2283.752132275194
 31
0.0
  0
LINE
  5
BB46
330
1E
100
AcDbEntity
  8
003
 48
0.25
100
AcDbLine
 10
8992.967882337367
 20
-2217.010895491386
 30
0.0
 11
9066.351830492139
 21
-2201.747034275194
 31
0.0
  0
TEXT
  5
BB47
330
1E
100
AcDbEntity
  8
001
100
AcDbText
 10
9147.939433587264
 20
-2117.420458135602
 30
0.0
 40
11.19999999999999
  1
ヘッドキャップ　Sタイプ
 41
0.716146
100
AcDbText
  0
LINE
  5
BB48
330
1E
100
AcDbEntity
  8
001
100
AcDbLine
 10
9187.386204031337
 20
-2262.418933275195
 30
0.0
 11
9115.215376031335
 21
-2283.752132275194
 31
0.0
  0
LWPOLYLINE
  5
BB49
330
1E
100
AcDbEntity
  8
001
100
AcDbPolyline
 90
        3
 70
     0
 43
0.0
 10
9180.321992031336
 20
-2266.742346275195
 10
9187.386204031337
 20
-2262.418933275195
 10
9179.106710031335
 20
-2262.631013275195
  0
LINE
  5
BB4A
330
1E
100
AcDbEntity
  8
001
100
AcDbLine
 10
9240.978836031336
 20
-2180.330615275195
 30
0.0
 11
9154.353836031337
 21
-2180.330615275195
 31
0.0
  0
TEXT
  5
BB4B
330
1E
100
AcDbEntity
  8
001
100
AcDbText
 10
9163.978836031336
 20
-2176.830576275195
 30
0.0
 40
11.19999999999999
  1
アンカーヘッド
 41
0.716146
100
AcDbText
  0
LINE
  5
BB4C
330
1E
100
AcDbEntity
  8
003
  6
ByBlock
100
AcDbLine
 10
9179.624661984021
 20
-2226.747034592421
 30
0.0
 11
9177.437445368118
 21
-2201.747034275194
 31
0.0
  0
LINE
  5
BB4D
330
1E
100
AcDbEntity
  8
001
 62
     3
100
AcDbLine
 10
9853.135452134294
 20
-3282.858932019037
 30
0.0
 11
9853.135452134294
 21
-1940.538932019036
 31
0.0
  0
LINE
  5
BB4E
330
1E
100
AcDbEntity
  8
004
  6
CENTER
 62
     6
100
AcDbLine
 10
9579.731342816408
 20
-3033.373002117094
 30
0.0
 11
9641.44265781641
 21
-3033.373002117094
 31
0.0
  0
DIMENSION
  5
BB4F
330
1E
100
AcDbEntity
  8
001
100
AcDbDimension
  2
*D3
 10
9623.338486816408
 20
-2903.510696392246
 30
0.0
 11
9662.713486816409
 21
-2890.385696392246
 31
0.0
 70
    32
 71
     5
 42
25.0
  3
ISO-25
100
AcDbAlignedDimension
 13
9598.338486816407
 23
-2930.873002117094
 33
0.0
 14
9623.338486816408
 24
-2930.873002117094
 34
0.0
100
AcDbRotatedDimension
  0
TEXT
  5
BB50
330
1E
100
AcDbEntity
  8
001
100
AcDbText
 10
9509.702766134294
 20
-3183.554299019037
 30
0.0
 40
16.0
  1
ＶＳＬ工法　Ｅ５－７用
 41
0.729167
100
AcDbText
  0
TEXT
  5
BB51
330
1E
100
AcDbEntity
  8
001
100
AcDbText
 10
9538.214810134293
 20
-3215.877841019037
 30
0.0
 40
22.0
  1
ＰＵＣ受圧板　アンカー頭部図面
 41
0.681818
100
AcDbText
  0
TEXT
  5
BB52
330
1E
100
AcDbEntity
  8
001
100
AcDbText
 10
9588.184969134292
 20
-3268.928777019036
 30
0.0
 40
21.0
  1
ＶＳＬ協会
 41
0.9920629999999999
100
AcDbText
  0
DIMENSION
  5
BB53
330
1E
100
AcDbEntity
  8
001
100
AcDbDimension
  2
*D4
 10
9542.176742421714
 20
-3135.873002117094
 30
0.0
 11
9529.051742421714
 21
-3033.373002117092
 31
0.0
 70
    32
  1
φ205
 71
     5
 42
205.0
  3
ISO-25
100
AcDbAlignedDimension
 13
9598.338486816407
 23
-2930.873002117094
 33
0.0
 14
9598.338486816407
 24
-3135.873002117094
 34
0.0
 50
90.0
100
AcDbRotatedDimension
  0
LINE
  5
BB54
330
1E
100
AcDbEntity
  8
001
 62
     3
100
AcDbLine
 10
9853.135452134294
 20
-3230.358932019036
 30
0.0
 11
9468.135452134292
 21
-3230.358932019036
 31
0.0
  0
LINE
  5
BB55
330
1E
100
AcDbEntity
  8
001
 62
     3
100
AcDbLine
 10
9853.135452134294
 20
-3230.358932019036
 30
0.0
 11
9468.135452134292
 21
-3230.358932019036
 31
0.0
  0
LINE
  5
BB56
330
1E
100
AcDbEntity
  8
001
 62
     3
100
AcDbLine
 10
9853.135452134294
 20
-3160.358932019037
 30
0.0
 11
9468.135452134292
 21
-3160.358932019037
 31
0.0
  0
LINE
  5
BB57
330
1E
100
AcDbEntity
  8
001
 62
     3
100
AcDbLine
 10
9468.135452134292
 20
-3282.858932019037
 30
0.0
 11
9468.135452134292
 21
-3160.358932019037
 31
0.0
  0
LINE
  5
BB58
330
1E
100
AcDbEntity
  8
001
 62
     3
100
AcDbLine
 10
9503.135452134293
 20
-3282.858932019037
 30
0.0
 11
9503.135452134293
 21
-3160.358932019037
 31
0.0
  0
LINE
  5
BB59
330
1E
100
AcDbEntity
  8
004
  6
CENTER
 62
     6
100
AcDbLine
 10
9355.124201816408
 20
-2918.887876117092
 30
0.0
 11
9355.124201816408
 21
-3151.230144117093
 31
0.0
  0
CIRCLE
  5
BB5A
330
1E
100
AcDbEntity
  8
002
100
AcDbCircle
 10
9355.124201816408
 20
-3033.373002117094
 30
0.0
 40
51.5
  0
LINE
  5
BB5B
330
1E
100
AcDbEntity
  8
001
 62
     3
100
AcDbLine
 10
9800.635452134294
 20
-3282.858932019037
 30
0.0
 11
9800.635452134294
 21
-3230.358932019036
 31
0.0
  0
LINE
  5
BB5C
330
1E
100
AcDbEntity
  8
001
100
AcDbLine
 10
9662.562785006725
 20
-2993.123002117094
 30
0.0
 11
9662.562785006725
 21
-3063.055214752637
 31
0.0
  0
LINE
  5
BB5D
330
1E
100
AcDbEntity
  8
002
100
AcDbLine
 10
9598.338486816407
 20
-3135.873002117094
 30
0.0
 11
9598.338486816407
 21
-2930.873002117094
 31
0.0
  0
LINE
  5
BB5E
330
1E
100
AcDbEntity
  8
002
100
AcDbLine
 10
9623.338486816408
 20
-2930.873002117094
 30
0.0
 11
9623.338486816408
 21
-3135.873002117094
 31
0.0
  0
LINE
  5
BB5F
330
1E
100
AcDbEntity
  8
002
100
AcDbLine
 10
9598.338486816407
 20
-3135.873002117094
 30
0.0
 11
9623.338486816408
 21
-3135.873002117094
 31
0.0
  0
MTEXT
  5
BB60
330
1E
100
AcDbEntity
  8
001
100
AcDbMText
 10
9649.437785006725
 20
-3041.481159379391
 30
0.0
 40
11.25
 41
0.0
 71
     5
 72
     1
  1
φ103
 11
0.0000000000000001
 21
1.0
 31
0.0
 73
     1
 44
1.0
  0
LINE
  5
BB61
330
1E
100
AcDbEntity
  8
001
100
AcDbLine
 10
9628.65993312176
 20
-2981.873002117094
 30
0.0
 11
9662.562785006725
 21
-2981.873002117094
 31
0.0
  0
LINE
  5
BB62
330
1E
100
AcDbEntity
  8
002
100
AcDbLine
 10
9598.338486816407
 20
-2932.445805117093
 30
0.0
 11
9599.911289816409
 21
-2930.873002117094
 31
0.0
  0
LINE
  5
BB63
330
1E
100
AcDbEntity
  8
002
100
AcDbLine
 10
9598.338486816407
 20
-2930.873002117094
 30
0.0
 11
9623.338486816408
 21
-2930.873002117094
 31
0.0
  0
LINE
  5
BB64
330
1E
100
AcDbEntity
  8
002
100
AcDbLine
 10
9608.308259816411
 20
-2981.873002117094
 30
0.0
 11
9623.338486816408
 21
-2966.842774117092
 31
0.0
  0
LINE
  5
BB65
330
1E
100
AcDbEntity
  8
002
100
AcDbLine
 10
9618.20775481641
 20
-2981.873002117094
 30
0.0
 11
9623.338486816408
 21
-2976.742269117094
 31
0.0
  0
LINE
  5
BB66
330
1E
100
AcDbEntity
  8
002
100
AcDbLine
 10
9598.338486816407
 20
-2981.873002117094
 30
0.0
 11
9623.338486816408
 21
-2981.873002117094
 31
0.0
  0
LINE
  5
BB67
330
1E
100
AcDbEntity
  8
002
100
AcDbLine
 10
9598.338486816407
 20
-2972.043784117093
 30
0.0
 11
9623.338486816408
 21
-2947.043784117093
 31
0.0
  0
LINE
  5
BB68
330
1E
100
AcDbEntity
  8
002
100
AcDbLine
 10
9598.408764816408
 20
-2981.873002117094
 30
0.0
 11
9623.338486816408
 21
-2956.943279117092
 31
0.0
  0
LINE
  5
BB69
330
1E
100
AcDbEntity
  8
002
100
AcDbLine
 10
9598.338486816407
 20
-2952.244794117094
 30
0.0
 11
9619.710279816409
 21
-2930.873002117094
 31
0.0
  0
LINE
  5
BB6A
330
1E
100
AcDbEntity
  8
002
100
AcDbLine
 10
9598.338486816407
 20
-2962.144289117093
 30
0.0
 11
9623.338486816408
 21
-2937.144289117093
 31
0.0
  0
LINE
  5
BB6B
330
1E
100
AcDbEntity
  8
002
100
AcDbLine
 10
9598.338486816407
 20
-2942.345300117093
 30
0.0
 11
9609.81078481641
 21
-2930.873002117094
 31
0.0
  0
INSERT
  5
BB6C
330
1E
100
AcDbEntity
  8
001
100
AcDbBlockReference
  2
_Open
 10
9662.562785006725
 20
-2981.873002117094
 30
0.0
 41
11.25
 42
11.25
 43
11.25
 50
90.0
  0
LINE
  5
BB6D
330
1E
100
AcDbEntity
  8
001
100
AcDbLine
 10
9533.293196774396
 20
-2106.347047065104
 30
0.0
 11
9600.474479774396
 21
-2062.657527065104
 31
0.0
  0
TEXT
  5
BB6E
330
1E
100
AcDbEntity
  8
001
100
AcDbText
 10
9549.629088412052
 20
-2183.921661356571
 30
0.0
 40
11.19999999999999
  1
両ネジ　ジョイントプレート
 41
0.716146
100
AcDbText
  0
LINE
  5
BB6F
330
1E
100
AcDbEntity
  8
001
100
AcDbLine
 10
9540.004088412052
 20
-2187.421661356571
 30
0.0
 11
9684.379088412052
 21
-2187.421661356571
 31
0.0
  0
TEXT
  5
BB70
330
1E
100
AcDbEntity
  8
001
100
AcDbText
 10
9583.313745085662
 20
-2408.014702555767
 30
0.0
 40
11.19999999999999
  1
メッキ付　円形プレート
 41
0.716146
100
AcDbText
  0
LINE
  5
BB71
330
1E
100
AcDbEntity
  8
001
100
AcDbLine
 10
9573.688745085663
 20
-2411.514702555767
 30
0.0
 11
9698.813745085663
 21
-2411.514702555767
 31
0.0
  0
DIMENSION
  5
BB72
330
1E
100
AcDbEntity
  8
001
100
AcDbDimension
  2
*D5
 10
9637.203869662148
 20
-2351.747034275195
 30
0.0
 11
9624.078869662149
 21
-2289.247034275193
 31
0.0
 70
    32
 71
     5
 42
125.0
  3
ISO-25
100
AcDbAlignedDimension
 13
9541.760633031335
 23
-2226.747034275195
 33
0.0
 14
9463.942762221487
 24
-2351.747034275195
 34
0.0
 50
90.0
100
AcDbRotatedDimension
  0
LINE
  5
BB73
330
1E
100
AcDbEntity
  8
003
  6
Continuous
100
AcDbLine
 10
9614.607211293261
 20
-2201.747034275194
 30
0.0
 11
9422.071995590583
 21
-2201.747034275194
 31
0.0
  0
LWPOLYLINE
  5
BB74
330
1E
100
AcDbEntity
  8
003
100
AcDbPolyline
 90
       64
 70
     0
 43
0.0
 10
9736.281441725305
 20
-2551.860594275194
 10
9429.746090677857
 20
-2551.860594275194
 10
9431.629004031336
 20
-2554.055786816126
 10
9432.678814031337
 20
-2556.418378816126
 10
9432.232841031334
 20
-2558.581525816125
 10
9430.825547031338
 20
-2560.778054816126
 10
9429.039002031336
 20
-2562.999580816125
 10
9427.455279031335
 20
-2565.237718816126
 10
9426.656446031335
 20
-2567.484081816126
 10
9426.998002031336
 20
-2569.625630816126
 10
9428.123796031336
 20
-2571.776833816126
 10
9429.578958031335
 20
-2573.947487816125
 10
9430.908616031334
 20
-2576.147391816126
 10
9431.657896031335
 20
-2578.386344816126
 10
9431.326025031337
 20
-2581.292262816127
 10
9430.001347031335
 20
-2584.234263816126
 10
9428.362210031336
 20
-2587.169580816126
 10
9427.086960031337
 20
-2590.055444816125
 10
9426.853945031338
 20
-2592.849088816127
 10
9427.751255031337
 20
-2595.017238816126
 10
9429.297992031335
 20
-2597.129061816125
 10
9431.021921031337
 20
-2599.216226816126
 10
9432.450804031336
 20
-2601.310406816126
 10
9433.112407031336
 20
-2603.443274816125
 10
9432.538452031336
 20
-2605.979680816126
 10
9430.986735031337
 20
-2608.574008816125
 10
9429.129774031336
 20
-2611.190507816125
 10
9427.640084031336
 20
-2613.793423816125
 10
9427.190183031337
 20
-2616.347006816126
 10
9427.983625031336
 20
-2618.474559816126
 10
9429.516085031336
 20
-2620.561982816125
 10
9431.271356031336
 20
-2622.631518816126
 10
9432.733226031336
 20
-2624.705410816126
 10
9433.385487031337
 20
-2626.805902816126
 10
9432.768107031336
 20
-2629.172918816126
 10
9431.179990031335
 20
-2631.569595816126
 10
9429.266898031334
 20
-2633.966041816126
 10
9427.674588031335
 20
-2636.332365816126
 10
9427.048821031336
 20
-2638.638676816126
 10
9427.660879031337
 20
-2640.601874816125
 10
9429.070043031336
 20
-2642.530388816125
 10
9430.827664031337
 20
-2644.458999816126
 10
9432.485092031337
 20
-2646.422487816125
 10
9433.593679031336
 20
-2648.455635816126
 10
9433.451497031336
 20
-2652.269970816125
 10
9431.426612031337
 20
-2656.271550816125
 10
9428.750500031336
 20
-2660.321557816125
 10
9426.654640031335
 20
-2664.281173816125
 10
9426.370512031336
 20
-2668.011580816126
 10
9427.538420031336
 20
-2670.192723816126
 10
9429.409896031335
 20
-2672.280223816125
 10
9431.484431031334
 20
-2674.326049816125
 10
9433.261514031334
 20
-2676.382170816126
 10
9434.240638031337
 20
-2678.500557816125
 10
9433.841294031337
 20
-2681.358302816126
 10
9432.123985031337
 20
-2684.355085816125
 10
9429.896144031337
 20
-2687.442960816126
 10
9427.965201031337
 20
-2690.573980816125
 10
9427.138589031335
 20
-2693.700200816125
 10
9427.728849031337
 20
-2696.297997816126
 10
9429.179752031336
 20
-2698.865309816127
 10
9430.998092031336
 20
-2701.409007816126
 10
9432.690661031335
 20
-2703.935958816126
 10
9433.764254031336
 20
-2706.453034816126
  0
LINE
  5
BB75
330
1E
100
AcDbEntity
  8
002
100
AcDbLine
 10
9401.243650406119
 20
-2263.407452246041
 30
0.0
 11
9396.338947761094
 21
-2303.353050635867
 31
0.0
  0
LINE
  5
BB76
330
1E
100
AcDbEntity
  8
002
100
AcDbLine
 10
9395.789233757012
 20
-2296.2337659197
 30
0.0
 11
9395.789233049905
 21
-2262.933062084719
 31
0.0
  0
LINE
  5
BB77
330
1E
100
AcDbEntity
  8
002
100
AcDbLine
 10
9378.748530965589
 20
-2263.407452953148
 30
0.0
 11
9383.653232903508
 21
-2303.353050635867
 31
0.0
  0
LINE
  5
BB78
330
1E
100
AcDbEntity
  8
002
100
AcDbLine
 10
9384.202948321801
 20
-2296.2337659197
 30
0.0
 11
9384.202947614696
 21
-2262.933062084719
 31
0.0
  0
LINE
  5
BB79
330
1E
100
AcDbEntity
  8
002
100
AcDbLine
 10
9375.872222105154
 20
-2263.407452246041
 30
0.0
 11
9370.96751946013
 21
-2303.353050635867
 31
0.0
  0
LINE
  5
BB7A
330
1E
100
AcDbEntity
  8
002
100
AcDbLine
 10
9370.417805456048
 20
-2296.2337659197
 30
0.0
 11
9370.417804748941
 21
-2262.933062084717
 31
0.0
  0
LINE
  5
BB7B
330
1E
100
AcDbEntity
  8
002
100
AcDbLine
 10
9369.994947822725
 20
-2305.473164655257
 30
0.0
 11
9359.254376239947
 21
-2265.388807166226
 31
0.0
  0
LINE
  5
BB7C
330
1E
100
AcDbEntity
  8
002
100
AcDbLine
 10
9353.377101957518
 20
-2263.407452246041
 30
0.0
 11
9358.281804602542
 21
-2303.353050635867
 31
0.0
  0
LINE
  5
BB7D
330
1E
100
AcDbEntity
  8
002
100
AcDbLine
 10
9358.831518606626
 20
-2296.2337659197
 30
0.0
 11
9358.831519313731
 21
-2262.933062084717
 31
0.0
  0
LINE
  5
BB7E
330
1E
100
AcDbEntity
  8
002
100
AcDbLine
 10
9350.500793097085
 20
-2263.407452953148
 30
0.0
 11
9345.596091159166
 21
-2303.353050635867
 31
0.0
  0
LINE
  5
BB7F
330
1E
100
AcDbEntity
  8
002
100
AcDbLine
 10
9345.046375740871
 20
-2296.2337659197
 30
0.0
 11
9345.046376447978
 21
-2262.933062084717
 31
0.0
  0
LINE
  5
BB80
330
1E
100
AcDbEntity
  8
002
100
AcDbLine
 10
9395.188953839902
 20
-2322.224409043163
 30
0.0
 11
9384.625804540913
 21
-2282.802201193275
 31
0.0
  0
LINE
  5
BB81
330
1E
100
AcDbEntity
  8
002
100
AcDbLine
 10
9411.138947956876
 20
-2311.138776422236
 30
0.0
 11
9411.138947956876
 21
-2266.315919615777
 31
0.0
  0
LINE
  5
BB82
330
1E
100
AcDbEntity
  8
002
100
AcDbLine
 10
9369.994947822725
 20
-2360.190204612186
 30
0.0
 11
9369.994947822725
 21
-2200.39007964324
 31
0.0
  0
LINE
  5
BB83
330
1E
100
AcDbEntity
  8
002
100
AcDbLine
 10
9359.254376239947
 20
-2360.190204612186
 30
0.0
 11
9359.254376239947
 21
-2200.39007964324
 31
0.0
  0
LINE
  5
BB84
330
1E
100
AcDbEntity
  8
002
100
AcDbLine
 10
9395.366376830796
 20
-2316.749165270923
 30
0.0
 11
9395.366376123687
 21
-2200.39007964324
 31
0.0
  0
LINE
  5
BB85
330
1E
100
AcDbEntity
  8
002
100
AcDbLine
 10
9384.625805248019
 20
-2316.749165270923
 30
0.0
 11
9384.625804540913
 21
-2200.39007964324
 31
0.0
  0
LINE
  5
BB86
330
1E
100
AcDbEntity
  8
002
100
AcDbLine
 10
9421.659851161223
 20
-2291.413595769046
 30
0.0
 11
9418.856446424141
 21
-2182.481292262145
 31
0.0
  0
LINE
  5
BB87
330
1E
100
AcDbEntity
  8
002
100
AcDbLine
 10
9414.735294460205
 20
-2186.709867888281
 30
0.0
 11
9417.483249297719
 21
-2293.487532180092
 31
0.0
  0
LWPOLYLINE
  5
BB88
330
1E
100
AcDbEntity
  8
001
100
AcDbPolyline
 90
        3
 70
     0
 43
0.0
 10
9311.657249014544
 20
-2281.524972146527
 10
9318.110376656047
 20
-2286.716516694347
 10
9315.117575825651
 20
-2278.993943158793
  0
LINE
  5
BB89
330
1E
100
AcDbEntity
  8
002
100
AcDbLine
 10
9328.005673656553
 20
-2263.407452246041
 30
0.0
 11
9332.910376301578
 21
-2303.353050635867
 31
0.0
  0
LINE
  5
BB8A
330
1E
100
AcDbEntity
  8
002
100
AcDbLine
 10
9333.46009030566
 20
-2296.2337659197
 30
0.0
 11
9333.460091012765
 21
-2262.933062084717
 31
0.0
  0
LINE
  5
BB8B
330
1E
100
AcDbEntity
  8
002
100
AcDbLine
 10
9318.110376105797
 20
-2311.138776422236
 30
0.0
 11
9318.110376105796
 21
-2266.315919615777
 31
0.0
  0
LINE
  5
BB8C
330
1E
100
AcDbEntity
  8
002
100
AcDbLine
 10
9333.882947231877
 20
-2316.749165270923
 30
0.0
 11
9333.882947938986
 21
-2200.39007964324
 31
0.0
  0
LINE
  5
BB8D
330
1E
100
AcDbEntity
  8
002
100
AcDbLine
 10
9307.589472901451
 20
-2291.413595769045
 30
0.0
 11
9310.392877638529
 21
-2182.481292262145
 31
0.0
  0
LINE
  5
BB8E
330
1E
100
AcDbEntity
  8
002
100
AcDbLine
 10
9314.514029602467
 20
-2186.709867888281
 30
0.0
 11
9311.766074764953
 21
-2293.487532180092
 31
0.0
  0
LINE
  5
BB8F
330
1E
100
AcDbEntity
  8
002
100
AcDbLine
 10
9344.623518814653
 20
-2316.749165270923
 30
0.0
 11
9344.623519521759
 21
-2200.39007964324
 31
0.0
  0
LINE
  5
BB90
330
1E
100
AcDbEntity
  8
002
100
AcDbLine
 10
9344.623519521759
 20
-2288.059770628207
 30
0.0
 11
9333.882947231877
 21
-2247.97541243207
 31
0.0
  0
LINE
  5
BB91
330
1E
100
AcDbEntity
  8
003
100
AcDbLine
 10
9470.051338031336
 20
-2350.253376275195
 30
0.0
 11
9541.760633031335
 21
-2226.747034275195
 31
0.0
  0
LINE
  5
BB92
330
1E
100
AcDbEntity
  8
003
100
AcDbLine
 10
9478.091898031335
 20
-2372.253376275195
 30
0.0
 11
9562.574662031336
 21
-2226.747034275195
 31
0.0
  0
LINE
  5
BB93
330
1E
100
AcDbEntity
  8
001
100
AcDbLine
 10
9419.596090723866
 20
-2318.545816221414
 30
0.0
 11
9539.382109243231
 21
-2187.421661356571
 31
0.0
  0
LINE
  5
BB94
330
1E
100
AcDbEntity
  8
004
  6
CENTER
 62
     6
100
AcDbLine
 10
9364.624662031337
 20
-2661.545809632293
 30
0.0
 11
9364.624662031337
 21
-2052.222499742235
 31
0.0
  0
LINE
  5
BB95
330
1E
100
AcDbEntity
  8
003
100
AcDbLine
 10
9409.121911477612
 20
-2351.747034275195
 30
0.0
 11
9467.456933031336
 21
-2351.747034275195
 31
0.0
  0
LINE
  5
BB96
330
1E
100
AcDbEntity
  8
003
 62
     3
100
AcDbLine
 10
9408.178947352034
 20
-2351.747034275195
 30
0.0
 11
9451.310376453625
 21
-2351.747034275195
 31
0.0
  0
LINE
  5
BB97
330
1E
100
AcDbEntity
  8
002
100
AcDbLine
 10
9398.876090025506
 20
-2330.59020492773
 30
0.0
 11
9451.310375746517
 21
-2330.59020492773
 31
0.0
  0
LINE
  5
BB98
330
1E
100
AcDbEntity
  8
002
100
AcDbLine
 10
9408.178947352034
 20
-2351.747034275196
 30
0.0
 11
9451.310376453625
 21
-2351.747034275196
 31
0.0
  0
LINE
  5
BB99
330
1E
100
AcDbEntity
  8
003
100
AcDbLine
 10
9409.121911477612
 20
-2373.747034275194
 30
0.0
 11
9475.497493031337
 21
-2373.747034275194
 31
0.0
  0
LINE
  5
BB9A
330
1E
100
AcDbEntity
  8
001
100
AcDbLine
 10
9392.72831980716
 20
-2588.568094726526
 30
0.0
 11
9458.40739680716
 21
-2640.640069726527
 31
0.0
  0
LINE
  5
BB9B
330
1E
100
AcDbEntity
  8
002
100
AcDbLine
 10
9395.800557365006
 20
-2518.761633260979
 30
0.0
 11
9392.648766066583
 21
-2522.28544333648
 31
0.0
  0
LINE
  5
BB9C
330
1E
100
AcDbEntity
  8
002
100
AcDbLine
 10
9336.600557288983
 20
-2518.761633968088
 30
0.0
 11
9333.448766697667
 21
-2522.28544333648
 31
0.0
  0
LINE
  5
BB9D
330
1E
100
AcDbEntity
  8
003
100
AcDbLine
 10
9291.624662031336
 20
-2373.747034275194
 30
0.0
 11
9291.624662031336
 21
-2551.860594275194
 31
0.0
  0
LINE
  5
BB9E
330
1E
100
AcDbEntity
  8
003
100
AcDbLine
 10
9282.124662031336
 20
-2373.747034275194
 30
0.0
 11
9282.124662031336
 21
-2551.860594275194
 31
0.0
  0
LINE
  5
BB9F
330
1E
100
AcDbEntity
  8
002
100
AcDbLine
 10
9332.910376301578
 20
-2523.694966659574
 30
0.0
 11
9396.338947761094
 21
-2517.352109937887
 31
0.0
  0
LINE
  5
BBA0
330
1E
100
AcDbEntity
  8
002
100
AcDbLine
 10
9332.910376301578
 20
-2574.437824675717
 30
0.0
 11
9396.338947761094
 21
-2568.094966539815
 31
0.0
  0
LINE
  5
BBA1
330
1E
100
AcDbEntity
  8
002
100
AcDbLine
 10
9332.910376301578
 20
-2587.123538119091
 30
0.0
 11
9396.338947761094
 21
-2580.780681397404
 31
0.0
  0
LINE
  5
BBA2
330
1E
100
AcDbEntity
  8
002
100
AcDbLine
 10
9392.110376377601
 20
-2574.43782396861
 30
0.0
 11
9337.138947685071
 21
-2580.780680690297
 31
0.0
  0
LINE
  5
BBA3
330
1E
100
AcDbEntity
  8
002
100
AcDbLine
 10
9392.110376377601
 20
-2587.123538826197
 30
0.0
 11
9337.138947685073
 21
-2593.466395547886
 31
0.0
  0
LINE
  5
BBA4
330
1E
100
AcDbEntity
  8
002
100
AcDbLine
 10
9332.910376301578
 20
-2549.066394960538
 30
0.0
 11
9396.338947761094
 21
-2542.72353823885
 31
0.0
  0
LINE
  5
BBA5
330
1E
100
AcDbEntity
  8
002
100
AcDbLine
 10
9332.910376301578
 20
-2536.380681517163
 30
0.0
 11
9396.338947761094
 21
-2530.037823381262
 31
0.0
  0
LINE
  5
BBA6
330
1E
100
AcDbEntity
  8
002
100
AcDbLine
 10
9332.910376301578
 20
-2561.752109818128
 30
0.0
 11
9396.338947761094
 21
-2555.409253096438
 31
0.0
  0
LINE
  5
BBA7
330
1E
100
AcDbEntity
  8
002
100
AcDbLine
 10
9392.110376377601
 20
-2536.380680810056
 30
0.0
 11
9337.138947685071
 21
-2542.723538945958
 31
0.0
  0
LINE
  5
BBA8
330
1E
100
AcDbEntity
  8
002
100
AcDbLine
 10
9392.110376377601
 20
-2549.066395667645
 30
0.0
 11
9337.138947685071
 21
-2555.409252389332
 31
0.0
  0
LINE
  5
BBA9
330
1E
100
AcDbEntity
  8
002
100
AcDbLine
 10
9392.110376377601
 20
-2523.69496736668
 30
0.0
 11
9337.138947685071
 21
-2530.037824088369
 31
0.0
  0
LINE
  5
BBAA
330
1E
100
AcDbEntity
  8
002
100
AcDbLine
 10
9392.110376377601
 20
-2561.752109111021
 30
0.0
 11
9337.138947685071
 21
-2568.094967246921
 31
0.0
  0
LWPOLYLINE
  5
BBAB
330
1E
100
AcDbEntity
  8
002
100
AcDbPolyline
 90
       27
 70
     0
 43
0.0
 10
9400.351309234514
 20
-2610.311706858165
 10
9400.288667351878
 20
-2610.421208707192
 10
9400.225884754989
 20
-2610.530599540456
 10
9397.275800615645
 20
-2615.273709901201
 10
9394.016983049036
 20
-2619.73556641841
 10
9390.437788834899
 20
-2623.873906733985
 10
9386.526575460083
 20
-2627.646467782719
 10
9382.271696875902
 20
-2631.010987206515
 10
9379.934337025913
 20
-2632.579560765007
 10
9377.515780811348
 20
-2634.034006581909
 10
9375.029923587563
 20
-2635.380716195417
 10
9372.490664245448
 20
-2636.626081850831
 10
9369.911900968789
 20
-2637.776495086347
 10
9365.812069688518
 20
-2639.408499658644
 10
9361.655045490467
 20
-2640.866635865839
 10
9357.446659884253
 20
-2642.194993937053
 10
9353.192742258189
 20
-2643.437664808525
 10
9348.899121293465
 20
-2644.638735880951
 10
9344.48395927966
 20
-2645.876885511663
 10
9340.098442010548
 20
-2647.207987157189
 10
9335.807624017105
 20
-2648.722389972281
 10
9331.676559830311
 20
-2650.51044169748
 10
9327.770304688243
 20
-2652.66249078043
 10
9325.876374329164
 20
-2653.929667144508
 10
9324.049848924003
 20
-2655.302497282513
 10
9322.282218442644
 20
-2656.767640210801
 10
9320.564970026554
 20
-2658.311754945733
  0
LINE
  5
BBAC
330
1E
100
AcDbEntity
  8
002
100
AcDbLine
 10
9332.910375594471
 20
-2637.866395428125
 30
0.0
 11
9378.76865298122
 21
-2633.280567536081
 31
0.0
  0
LINE
  5
BBAD
330
1E
100
AcDbEntity
  8
002
100
AcDbLine
 10
9332.910376301578
 20
-2612.494966420055
 30
0.0
 11
9396.338947761094
 21
-2606.152109698369
 31
0.0
  0
LINE
  5
BBAE
330
1E
100
AcDbEntity
  8
002
100
AcDbLine
 10
9332.910376301578
 20
-2625.180681277645
 30
0.0
 11
9394.541379636812
 21
-2619.01758135636
 31
0.0
  0
LINE
  5
BBAF
330
1E
100
AcDbEntity
  8
002
100
AcDbLine
 10
9359.089212994502
 20
-2641.676529403248
 30
0.0
 11
9337.138947685071
 21
-2644.209252149814
 31
0.0
  0
LINE
  5
BBB0
330
1E
100
AcDbEntity
  8
002
100
AcDbLine
 10
9388.67162559937
 20
-2625.577459567732
 30
0.0
 11
9337.138947685071
 21
-2631.523538706439
 31
0.0
  0
LINE
  5
BBB1
330
1E
100
AcDbEntity
  8
002
100
AcDbLine
 10
9392.110376377601
 20
-2599.809252269573
 30
0.0
 11
9337.138948392178
 21
-2606.152109698369
 31
0.0
  0
LINE
  5
BBB2
330
1E
100
AcDbEntity
  8
002
100
AcDbLine
 10
9392.110376377601
 20
-2612.494967127162
 30
0.0
 11
9337.138947685071
 21
-2618.837823848849
 31
0.0
  0
LINE
  5
BBB3
330
1E
100
AcDbEntity
  8
002
100
AcDbLine
 10
9332.910376301578
 20
-2599.80925297668
 30
0.0
 11
9396.338947761094
 21
-2593.466394840779
 31
0.0
  0
LINE
  5
BBB4
330
1E
100
AcDbEntity
  8
002
100
AcDbLine
 10
9333.448766697665
 20
-2639.275919458327
 30
0.0
 11
9336.600557288983
 21
-2642.799728826719
 31
0.0
  0
LINE
  5
BBB5
330
1E
100
AcDbEntity
  8
002
100
AcDbLine
 10
9336.60055799609
 20
-2645.618776180013
 30
0.0
 11
9333.448766697665
 21
-2649.142586255515
 31
0.0
  0
ARC
  5
BBB6
330
1E
100
AcDbEntity
  8
002
100
AcDbCircle
 10
9335.024662346878
 20
-2644.209252856921
 30
0.0
 40
2.114285999999999
100
AcDbArc
 50
318.1896850000205
 51
41.81031499997946
  0
ARC
  5
BBB7
330
1E
100
AcDbEntity
  8
002
100
AcDbCircle
 10
9335.024662346878
 20
-2650.552109578608
 30
0.0
 40
2.114285999999999
100
AcDbArc
 50
138.1896850000205
 51
163.0805882557886
  0
ARC
  5
BBB8
330
1E
100
AcDbEntity
  8
002
100
AcDbCircle
 10
9335.024661639771
 20
-2530.037824088367
 30
0.0
 40
2.114285999999999
100
AcDbArc
 50
318.1896850000205
 51
41.81031499997946
  0
LINE
  5
BBB9
330
1E
100
AcDbEntity
  8
002
100
AcDbLine
 10
9333.448765990558
 20
-2525.104490689775
 30
0.0
 11
9336.60055799609
 21
-2528.628300058167
 31
0.0
  0
ARC
  5
BBBA
330
1E
100
AcDbEntity
  8
002
100
AcDbCircle
 10
9335.024662346878
 20
-2523.694966659574
 30
0.0
 40
2.114285999999999
100
AcDbArc
 50
138.1896850000205
 51
221.8103149999794
  0
LINE
  5
BBBB
330
1E
100
AcDbEntity
  8
002
100
AcDbLine
 10
9336.600557288983
 20
-2531.447347411462
 30
0.0
 11
9333.448765990558
 21
-2534.971157486963
 31
0.0
  0
ARC
  5
BBBC
330
1E
100
AcDbEntity
  8
002
100
AcDbCircle
 10
9335.024662346878
 20
-2542.72353823885
 30
0.0
 40
2.114285999999999
100
AcDbArc
 50
318.1896850000205
 51
41.81031499997946
  0
ARC
  5
BBBD
330
1E
100
AcDbEntity
  8
002
100
AcDbCircle
 10
9335.024661639771
 20
-2555.409252389332
 30
0.0
 40
2.114285999999999
100
AcDbArc
 50
318.1896850000205
 51
41.81031499997946
  0
ARC
  5
BBBE
330
1E
100
AcDbEntity
  8
002
100
AcDbCircle
 10
9335.024661639771
 20
-2549.066395667645
 30
0.0
 40
2.114285999999999
100
AcDbArc
 50
138.1896850000205
 51
221.8103149999794
  0
LINE
  5
BBBF
330
1E
100
AcDbEntity
  8
002
100
AcDbLine
 10
9333.448766697667
 20
-2550.475919697845
 30
0.0
 11
9336.600557288983
 21
-2553.999729066239
 31
0.0
  0
LINE
  5
BBC0
330
1E
100
AcDbEntity
  8
002
100
AcDbLine
 10
9336.600557288983
 20
-2544.133062269051
 30
0.0
 11
9333.448766697665
 21
-2547.656871637446
 31
0.0
  0
ARC
  5
BBC1
330
1E
100
AcDbEntity
  8
002
100
AcDbCircle
 10
9335.024662346878
 20
-2561.752109818126
 30
0.0
 40
2.114285999999999
100
AcDbArc
 50
138.1896850000205
 51
221.8103149999794
  0
LINE
  5
BBC2
330
1E
100
AcDbEntity
  8
002
100
AcDbLine
 10
9336.60055799609
 20
-2556.818776419533
 30
0.0
 11
9333.448765990558
 21
-2560.342585787926
 31
0.0
  0
LINE
  5
BBC3
330
1E
100
AcDbEntity
  8
002
100
AcDbLine
 10
9333.448766697665
 20
-2537.790204840257
 30
0.0
 11
9336.600557288983
 21
-2541.31401420865
 31
0.0
  0
ARC
  5
BBC4
330
1E
100
AcDbEntity
  8
002
100
AcDbCircle
 10
9335.024661639771
 20
-2574.437823968608
 30
0.0
 40
2.114285999999999
100
AcDbArc
 50
138.1896850000205
 51
221.8103149999794
  0
ARC
  5
BBC5
330
1E
100
AcDbEntity
  8
002
100
AcDbCircle
 10
9335.024662346878
 20
-2587.123538119091
 30
0.0
 40
2.114285999999999
100
AcDbArc
 50
138.1896850000205
 51
221.8103149999794
  0
LINE
  5
BBC6
330
1E
100
AcDbEntity
  8
002
100
AcDbLine
 10
9336.60055799609
 20
-2582.190204720497
 30
0.0
 11
9333.448766697665
 21
-2585.714014795998
 31
0.0
  0
LINE
  5
BBC7
330
1E
100
AcDbEntity
  8
002
100
AcDbLine
 10
9333.448766697665
 20
-2575.847347998809
 30
0.0
 11
9336.600557288985
 21
-2579.371157367202
 31
0.0
  0
ARC
  5
BBC8
330
1E
100
AcDbEntity
  8
002
100
AcDbCircle
 10
9335.024662346878
 20
-2580.780681397404
 30
0.0
 40
2.114285999999999
100
AcDbArc
 50
318.1896850000205
 51
41.81031499997946
  0
LINE
  5
BBC9
330
1E
100
AcDbEntity
  8
002
100
AcDbLine
 10
9333.448765990558
 20
-2588.533062149292
 30
0.0
 11
9336.60055799609
 21
-2592.056871517685
 31
0.0
  0
LINE
  5
BBCA
330
1E
100
AcDbEntity
  8
002
100
AcDbLine
 10
9336.600557288985
 20
-2569.504490570014
 30
0.0
 11
9333.448766697667
 21
-2573.028299938409
 31
0.0
  0
ARC
  5
BBCB
330
1E
100
AcDbEntity
  8
002
100
AcDbCircle
 10
9335.024662346878
 20
-2568.094966539815
 30
0.0
 40
2.114285999999999
100
AcDbArc
 50
318.1896850000205
 51
41.81031499997946
  0
LINE
  5
BBCC
330
1E
100
AcDbEntity
  8
002
100
AcDbLine
 10
9333.448766697665
 20
-2563.16163314122
 30
0.0
 11
9336.60055799609
 21
-2566.685443216722
 31
0.0
  0
ARC
  5
BBCD
330
1E
100
AcDbEntity
  8
002
100
AcDbCircle
 10
9335.024661639771
 20
-2536.380680810056
 30
0.0
 40
2.114285999999999
100
AcDbArc
 50
138.1896850000205
 51
221.8103149999794
  0
ARC
  5
BBCE
330
1E
100
AcDbEntity
  8
002
100
AcDbCircle
 10
9335.024662346878
 20
-2606.152109698367
 30
0.0
 40
2.114285999999999
100
AcDbArc
 50
318.1896850000205
 51
41.81031499997946
  0
ARC
  5
BBCF
330
1E
100
AcDbEntity
  8
002
100
AcDbCircle
 10
9335.024661639771
 20
-2618.837823848849
 30
0.0
 40
2.114285999999999
100
AcDbArc
 50
318.1896850000205
 51
41.81031499997946
  0
LINE
  5
BBD0
330
1E
100
AcDbEntity
  8
002
100
AcDbLine
 10
9336.600557288985
 20
-2607.561633728568
 30
0.0
 11
9333.448766697665
 21
-2611.085443096961
 31
0.0
  0
LINE
  5
BBD1
330
1E
100
AcDbEntity
  8
002
100
AcDbLine
 10
9333.448765990558
 20
-2613.904490450255
 30
0.0
 11
9336.600557288983
 21
-2617.428300525757
 31
0.0
  0
ARC
  5
BBD2
330
1E
100
AcDbEntity
  8
002
100
AcDbCircle
 10
9335.024661639771
 20
-2612.494967127162
 30
0.0
 40
2.114285999999999
100
AcDbArc
 50
138.1896850000205
 51
221.8103149999794
  0
LINE
  5
BBD3
330
1E
100
AcDbEntity
  8
002
100
AcDbLine
 10
9333.448766697665
 20
-2601.218776299773
 30
0.0
 11
9336.600557288983
 21
-2604.742585668168
 31
0.0
  0
ARC
  5
BBD4
330
1E
100
AcDbEntity
  8
002
100
AcDbCircle
 10
9335.024661639771
 20
-2599.809252269573
 30
0.0
 40
2.114285999999999
100
AcDbArc
 50
138.1896850000205
 51
221.8103149999794
  0
LINE
  5
BBD5
330
1E
100
AcDbEntity
  8
002
100
AcDbLine
 10
9336.600557288983
 20
-2594.875918870979
 30
0.0
 11
9333.448765990558
 21
-2598.39972894648
 31
0.0
  0
LINE
  5
BBD6
330
1E
100
AcDbEntity
  8
002
100
AcDbLine
 10
9336.600557288983
 20
-2632.933062029531
 30
0.0
 11
9333.448766697667
 21
-2636.456871397926
 31
0.0
  0
ARC
  5
BBD7
330
1E
100
AcDbEntity
  8
002
100
AcDbCircle
 10
9335.024661639771
 20
-2637.866395428125
 30
0.0
 40
2.114285999999999
100
AcDbArc
 50
138.1896850000205
 51
221.8103149999794
  0
ARC
  5
BBD8
330
1E
100
AcDbEntity
  8
002
100
AcDbCircle
 10
9335.024662346878
 20
-2631.523537999331
 30
0.0
 40
2.114285999999999
100
AcDbArc
 50
318.1896850000205
 51
41.81031499997946
  0
ARC
  5
BBD9
330
1E
100
AcDbEntity
  8
002
100
AcDbCircle
 10
9335.024662346878
 20
-2625.180681277645
 30
0.0
 40
2.114285999999999
100
AcDbArc
 50
138.1896850000205
 51
221.8103149999794
  0
LINE
  5
BBDA
330
1E
100
AcDbEntity
  8
002
100
AcDbLine
 10
9333.448766697667
 20
-2626.590204600737
 30
0.0
 11
9336.60055799609
 21
-2630.114014676239
 31
0.0
  0
LINE
  5
BBDB
330
1E
100
AcDbEntity
  8
002
100
AcDbLine
 10
9336.60055799609
 20
-2620.24734787905
 30
0.0
 11
9333.448765990558
 21
-2623.771157247444
 31
0.0
  0
ARC
  5
BBDC
330
1E
100
AcDbEntity
  8
002
100
AcDbCircle
 10
9335.024661639771
 20
-2593.466395547884
 30
0.0
 40
2.114285999999999
100
AcDbArc
 50
318.1896850000205
 51
41.81031499997946
  0
LINE
  5
BBDD
330
1E
100
AcDbEntity
  8
002
100
AcDbLine
 10
9395.800557365006
 20
-2531.447348118568
 30
0.0
 11
9392.648766773689
 21
-2534.971157486963
 31
0.0
  0
LINE
  5
BBDE
330
1E
100
AcDbEntity
  8
002
100
AcDbLine
 10
9392.648766773689
 20
-2525.104490689775
 30
0.0
 11
9395.800557365006
 21
-2528.628300058167
 31
0.0
  0
ARC
  5
BBDF
330
1E
100
AcDbEntity
  8
002
100
AcDbCircle
 10
9394.224661715794
 20
-2523.694966659574
 30
0.0
 40
2.114285999999999
100
AcDbArc
 50
138.1896850000205
 51
221.8103149999794
  0
ARC
  5
BBE0
330
1E
100
AcDbEntity
  8
002
100
AcDbCircle
 10
9394.224662422901
 20
-2530.037824088367
 30
0.0
 40
2.114285999999999
100
AcDbArc
 50
318.1896850000205
 51
41.81031499997946
  0
LINE
  5
BBE1
330
1E
100
AcDbEntity
  8
002
100
AcDbLine
 10
9395.800557365006
 20
-2544.133061561944
 30
0.0
 11
9392.648766066583
 21
-2547.656871637446
 31
0.0
  0
LINE
  5
BBE2
330
1E
100
AcDbEntity
  8
002
100
AcDbLine
 10
9392.648766066583
 20
-2537.790204840256
 30
0.0
 11
9395.800557365006
 21
-2541.314014915757
 31
0.0
  0
LINE
  5
BBE3
330
1E
100
AcDbEntity
  8
002
100
AcDbLine
 10
9392.648766773689
 20
-2550.475918990739
 30
0.0
 11
9395.800557365006
 21
-2553.999728359133
 31
0.0
  0
LINE
  5
BBE4
330
1E
100
AcDbEntity
  8
002
100
AcDbLine
 10
9395.800557365006
 20
-2556.818776419533
 30
0.0
 11
9392.648766773689
 21
-2560.342585787926
 31
0.0
  0
ARC
  5
BBE5
330
1E
100
AcDbEntity
  8
002
100
AcDbCircle
 10
9394.224662422901
 20
-2549.066395667645
 30
0.0
 40
2.114285999999999
100
AcDbArc
 50
138.1896850000205
 51
221.8103149999794
  0
ARC
  5
BBE6
330
1E
100
AcDbEntity
  8
002
100
AcDbCircle
 10
9394.224661715794
 20
-2561.752109818128
 30
0.0
 40
2.114285999999999
100
AcDbArc
 50
138.1896850000205
 51
221.8103149999794
  0
ARC
  5
BBE7
330
1E
100
AcDbEntity
  8
002
100
AcDbCircle
 10
9394.224661715794
 20
-2542.72353823885
 30
0.0
 40
2.114285999999999
100
AcDbArc
 50
318.1896850000205
 51
41.81031499997946
  0
ARC
  5
BBE8
330
1E
100
AcDbEntity
  8
002
100
AcDbCircle
 10
9394.224662422901
 20
-2555.409252389332
 30
0.0
 40
2.114285999999999
100
AcDbArc
 50
318.1896850000205
 51
41.81031499997946
  0
ARC
  5
BBE9
330
1E
100
AcDbEntity
  8
002
100
AcDbCircle
 10
9394.224662422901
 20
-2574.437823968608
 30
0.0
 40
2.114285999999999
100
AcDbArc
 50
138.1896850000205
 51
221.8103149999794
  0
LINE
  5
BBEA
330
1E
100
AcDbEntity
  8
002
100
AcDbLine
 10
9392.648766066583
 20
-2575.847347998809
 30
0.0
 11
9395.800558072114
 21
-2579.371157367204
 31
0.0
  0
LINE
  5
BBEB
330
1E
100
AcDbEntity
  8
002
100
AcDbLine
 10
9395.800557365006
 20
-2582.190204720497
 30
0.0
 11
9392.648766773689
 21
-2585.714014088891
 31
0.0
  0
LINE
  5
BBEC
330
1E
100
AcDbEntity
  8
002
100
AcDbLine
 10
9392.648766773689
 20
-2588.533062149292
 30
0.0
 11
9395.800557365006
 21
-2592.056871517685
 31
0.0
  0
ARC
  5
BBED
330
1E
100
AcDbEntity
  8
002
100
AcDbCircle
 10
9394.224661715794
 20
-2587.123538119091
 30
0.0
 40
2.114285999999999
100
AcDbArc
 50
138.1896850000205
 51
221.8103149999794
  0
ARC
  5
BBEE
330
1E
100
AcDbEntity
  8
002
100
AcDbCircle
 10
9394.224661715794
 20
-2580.780681397404
 30
0.0
 40
2.114285999999999
100
AcDbArc
 50
318.1896850000205
 51
41.81031499997946
  0
LINE
  5
BBEF
330
1E
100
AcDbEntity
  8
002
100
AcDbLine
 10
9395.800558072114
 20
-2569.504490570016
 30
0.0
 11
9392.648766066583
 21
-2573.028299938409
 31
0.0
  0
ARC
  5
BBF0
330
1E
100
AcDbEntity
  8
002
100
AcDbCircle
 10
9394.224661715794
 20
-2568.094966539815
 30
0.0
 40
2.114285999999999
100
AcDbArc
 50
318.1896850000205
 51
41.81031499997946
  0
LINE
  5
BBF1
330
1E
100
AcDbEntity
  8
002
100
AcDbLine
 10
9392.648766773689
 20
-2563.161633848327
 30
0.0
 11
9395.800557365006
 21
-2566.685443216722
 31
0.0
  0
ARC
  5
BBF2
330
1E
100
AcDbEntity
  8
002
100
AcDbCircle
 10
9394.224661715794
 20
-2536.380681517163
 30
0.0
 40
2.114285999999999
100
AcDbArc
 50
138.1896850000205
 51
221.8103149999794
  0
LINE
  5
BBF3
330
1E
100
AcDbEntity
  8
002
100
AcDbLine
 10
9395.800557365006
 20
-2594.875919578086
 30
0.0
 11
9392.648766773689
 21
-2598.39972894648
 31
0.0
  0
LINE
  5
BBF4
330
1E
100
AcDbEntity
  8
002
100
AcDbLine
 10
9392.648766066583
 20
-2601.218776299773
 30
0.0
 11
9395.800557365006
 21
-2604.742586375274
 31
0.0
  0
LINE
  5
BBF5
330
1E
100
AcDbEntity
  8
002
100
AcDbLine
 10
9395.800557365006
 20
-2607.561633021461
 30
0.0
 11
9392.648766066583
 21
-2611.085443096961
 31
0.0
  0
LINE
  5
BBF6
330
1E
100
AcDbEntity
  8
002
100
AcDbLine
 10
9392.648766773689
 20
-2613.904490450255
 30
0.0
 11
9395.800557365006
 21
-2617.42829981865
 31
0.0
  0
ARC
  5
BBF7
330
1E
100
AcDbEntity
  8
002
100
AcDbCircle
 10
9394.224662422901
 20
-2612.494967127162
 30
0.0
 40
2.114285999999999
100
AcDbArc
 50
138.1896850000205
 51
221.8103149999794
  0
ARC
  5
BBF8
330
1E
100
AcDbEntity
  8
002
100
AcDbCircle
 10
9394.224661715794
 20
-2599.80925297668
 30
0.0
 40
2.114285999999999
100
AcDbArc
 50
138.1896850000205
 51
221.8103149999794
  0
ARC
  5
BBF9
330
1E
100
AcDbEntity
  8
002
100
AcDbCircle
 10
9394.224661715794
 20
-2606.152109698367
 30
0.0
 40
2.114285999999999
100
AcDbArc
 50
318.1896850000205
 51
41.81031499997946
  0
LWPOLYLINE
  5
BBFA
330
1E
100
AcDbEntity
  8
001
100
AcDbPolyline
 90
        3
 70
     0
 43
0.0
 10
9400.434444880067
 20
-2591.602996291692
 10
9392.72831980716
 20
-2588.568094726526
 10
9397.884569781535
 20
-2595.049459168078
  0
ARC
  5
BBFB
330
1E
100
AcDbEntity
  8
002
100
AcDbCircle
 10
9394.224662422901
 20
-2593.466395547886
 30
0.0
 40
2.114285999999999
100
AcDbArc
 50
318.1896850000205
 51
41.81031499997946
  0
ARC
  5
BBFC
330
1E
100
AcDbEntity
  8
002
100
AcDbCircle
 10
9345.767456366266
 20
-2296.040553234379
 30
0.0
 40
0.7210800000000001
100
AcDbArc
 50
210.0000000000103
 51
353.0000000000202
  0
LINE
  5
BBFD
330
1E
100
AcDbEntity
  8
002
100
AcDbLine
 10
9345.59609045206
 20
-2311.98449027467
 30
0.0
 11
9358.281804602542
 21
-2311.984490981776
 31
0.0
  0
LINE
  5
BBFE
330
1E
100
AcDbEntity
  8
002
100
AcDbLine
 10
9344.904467895169
 20
-2323.183948702591
 30
0.0
 11
9348.142095592868
 21
-2360.190204612186
 31
0.0
  0
LINE
  5
BBFF
330
1E
100
AcDbEntity
  8
002
100
AcDbLine
 10
9333.448766697667
 20
-2360.190205319295
 30
0.0
 11
9392.648766773689
 21
-2360.190204612186
 31
0.0
  0
LINE
  5
BC00
330
1E
100
AcDbEntity
  8
002
100
AcDbLine
 10
9392.110376377601
 20
-2447.580681049576
 30
0.0
 11
9337.138947685071
 21
-2453.923537771263
 31
0.0
  0
LINE
  5
BC01
330
1E
100
AcDbEntity
  8
002
100
AcDbLine
 10
9332.910376301578
 20
-2511.0092532162
 30
0.0
 11
9396.338947761094
 21
-2504.666395080297
 31
0.0
  0
LINE
  5
BC02
330
1E
100
AcDbEntity
  8
002
100
AcDbLine
 10
9332.910376301578
 20
-2472.952110057645
 30
0.0
 11
9396.338947761094
 21
-2466.609251921745
 31
0.0
  0
LINE
  5
BC03
330
1E
100
AcDbEntity
  8
002
100
AcDbLine
 10
9332.910376301578
 20
-2485.637823501021
 30
0.0
 11
9396.338947761094
 21
-2479.294966779335
 31
0.0
  0
LINE
  5
BC04
330
1E
100
AcDbEntity
  8
002
100
AcDbLine
 10
9332.910376301578
 20
-2498.32353835861
 30
0.0
 11
9396.338947761094
 21
-2491.980681636924
 31
0.0
  0
LINE
  5
BC05
330
1E
100
AcDbEntity
  8
002
100
AcDbLine
 10
9332.910376301578
 20
-2460.266395200056
 30
0.0
 11
9396.338947761094
 21
-2453.923538478369
 31
0.0
  0
LINE
  5
BC06
330
1E
100
AcDbEntity
  8
002
100
AcDbLine
 10
9392.110376377601
 20
-2511.009252509093
 30
0.0
 11
9337.138947685071
 21
-2517.35210923078
 31
0.0
  0
LINE
  5
BC07
330
1E
100
AcDbEntity
  8
002
100
AcDbLine
 10
9392.110375670494
 20
-2498.32353835861
 30
0.0
 11
9337.138947685071
 21
-2504.666395787404
 31
0.0
  0
LINE
  5
BC08
330
1E
100
AcDbEntity
  8
002
100
AcDbLine
 10
9392.110376377601
 20
-2460.266395907163
 30
0.0
 11
9337.138947685071
 21
-2466.609252628852
 31
0.0
  0
LINE
  5
BC09
330
1E
100
AcDbEntity
  8
002
100
AcDbLine
 10
9392.110376377601
 20
-2472.952109350539
 30
0.0
 11
9337.138947685071
 21
-2479.294967486441
 31
0.0
  0
LINE
  5
BC0A
330
1E
100
AcDbEntity
  8
002
100
AcDbLine
 10
9392.110376377601
 20
-2485.637824208128
 30
0.0
 11
9337.138947685073
 21
-2491.980680929815
 31
0.0
  0
LINE
  5
BC0B
330
1E
100
AcDbEntity
  8
002
100
AcDbLine
 10
9332.910376301578
 20
-2396.837823740539
 30
0.0
 11
9396.338947761094
 21
-2390.494967018852
 31
0.0
  0
LINE
  5
BC0C
330
1E
100
AcDbEntity
  8
002
100
AcDbLine
 10
9332.910376301578
 20
-2409.523538598128
 30
0.0
 11
9396.338947053989
 21
-2403.180681169335
 31
0.0
  0
LINE
  5
BC0D
330
1E
100
AcDbEntity
  8
002
100
AcDbLine
 10
9332.910376301578
 20
-2422.209252041504
 30
0.0
 11
9396.338947761094
 21
-2415.866395319817
 31
0.0
  0
LINE
  5
BC0E
330
1E
100
AcDbEntity
  8
002
100
AcDbLine
 10
9332.910376301578
 20
-2434.894966899094
 30
0.0
 11
9396.338947761094
 21
-2428.552110177404
 31
0.0
  0
LINE
  5
BC0F
330
1E
100
AcDbEntity
  8
002
100
AcDbLine
 10
9332.910376301578
 20
-2447.580681756682
 30
0.0
 11
9396.338947761094
 21
-2441.237823620781
 31
0.0
  0
LINE
  5
BC10
330
1E
100
AcDbEntity
  8
002
100
AcDbLine
 10
9332.910376301578
 20
-2371.466395439576
 30
0.0
 11
9396.338947761094
 21
-2365.123538717887
 31
0.0
  0
LINE
  5
BC11
330
1E
100
AcDbEntity
  8
002
100
AcDbLine
 10
9332.910376301578
 20
-2384.152110297165
 30
0.0
 11
9396.338947761094
 21
-2377.809252161263
 31
0.0
  0
LINE
  5
BC12
330
1E
100
AcDbEntity
  8
002
100
AcDbLine
 10
9392.110376377601
 20
-2384.152109590057
 30
0.0
 11
9337.138947685071
 21
-2390.494966311746
 31
0.0
  0
LINE
  5
BC13
330
1E
100
AcDbEntity
  8
002
100
AcDbLine
 10
9392.110376377601
 20
-2396.837824447646
 30
0.0
 11
9337.138947685071
 21
-2403.180681169335
 31
0.0
  0
LINE
  5
BC14
330
1E
100
AcDbEntity
  8
002
100
AcDbLine
 10
9392.110376377601
 20
-2409.523537891022
 30
0.0
 11
9337.138947685071
 21
-2415.866396026924
 31
0.0
  0
LINE
  5
BC15
330
1E
100
AcDbEntity
  8
002
100
AcDbLine
 10
9392.110376377601
 20
-2422.209252748611
 30
0.0
 11
9337.138947685071
 21
-2428.552109470298
 31
0.0
  0
LINE
  5
BC16
330
1E
100
AcDbEntity
  8
002
100
AcDbLine
 10
9392.110375670494
 20
-2434.894966899094
 30
0.0
 11
9337.138947685071
 21
-2441.237824327887
 31
0.0
  0
LINE
  5
BC17
330
1E
100
AcDbEntity
  8
002
100
AcDbLine
 10
9392.110375670494
 20
-2371.466395439576
 30
0.0
 11
9337.138947685071
 21
-2377.80925286837
 31
0.0
  0
LINE
  5
BC18
330
1E
100
AcDbEntity
  8
002
100
AcDbLine
 10
9379.894503570518
 20
-2360.190204612186
 30
0.0
 11
9337.138947685071
 21
-2365.12353801078
 31
0.0
  0
ARC
  5
BC19
330
1E
100
AcDbEntity
  8
002
100
AcDbCircle
 10
9335.024661639771
 20
-2403.180681169333
 30
0.0
 40
2.114285999999999
100
AcDbArc
 50
318.1896850000205
 51
41.81031499997946
  0
ARC
  5
BC1A
330
1E
100
AcDbEntity
  8
002
100
AcDbCircle
 10
9334.135071811564
 20
-2403.180681169335
 30
0.0
 40
2.114285999999999
100
AcDbArc
 50
318.1896850000205
 51
41.81031499997946
  0
LINE
  5
BC1B
330
1E
100
AcDbEntity
  8
002
100
AcDbLine
 10
9321.916090563073
 20
-2330.590205634837
 30
0.0
 11
9322.338947489289
 21
-2467.595919025727
 31
0.0
  0
LINE
  5
BC1C
330
1E
100
AcDbEntity
  8
001
100
AcDbLine
 10
9321.035671031335
 20
-2462.092210275196
 30
0.0
 11
9264.823723031335
 21
-2519.569867275195
 31
0.0
  0
LINE
  5
BC1D
330
1E
100
AcDbEntity
  8
002
100
AcDbLine
 10
9336.600557288983
 20
-2417.275919350017
 30
0.0
 11
9333.448766697667
 21
-2420.799728718411
 31
0.0
  0
LINE
  5
BC1E
330
1E
100
AcDbEntity
  8
002
100
AcDbLine
 10
9335.710967460775
 20
-2417.275919350017
 30
0.0
 11
9332.559176869459
 21
-2420.79972871841
 31
0.0
  0
ARC
  5
BC1F
330
1E
100
AcDbEntity
  8
002
100
AcDbCircle
 10
9335.024662346878
 20
-2415.866395319815
 30
0.0
 40
2.114285999999999
100
AcDbArc
 50
318.1896850000205
 51
41.81031499997946
  0
ARC
  5
BC20
330
1E
100
AcDbEntity
  8
002
100
AcDbCircle
 10
9334.135072518671
 20
-2409.523538598128
 30
0.0
 40
2.114285999999999
100
AcDbArc
 50
138.1896850000205
 51
221.8103149999794
  0
ARC
  5
BC21
330
1E
100
AcDbEntity
  8
002
100
AcDbCircle
 10
9335.024662346878
 20
-2409.523538598128
 30
0.0
 40
2.114285999999999
100
AcDbArc
 50
138.1896850000205
 51
221.8103149999794
  0
LINE
  5
BC22
330
1E
100
AcDbEntity
  8
002
100
AcDbLine
 10
9332.559176869459
 20
-2410.933061921221
 30
0.0
 11
9335.710967460776
 21
-2414.456871289616
 31
0.0
  0
LINE
  5
BC23
330
1E
100
AcDbEntity
  8
002
100
AcDbLine
 10
9336.600557288983
 20
-2404.590204492428
 30
0.0
 11
9333.448765990558
 21
-2408.114014567929
 31
0.0
  0
LINE
  5
BC24
330
1E
100
AcDbEntity
  8
002
100
AcDbLine
 10
9335.710968167884
 20
-2404.590205199534
 30
0.0
 11
9332.559176162353
 21
-2408.114014567929
 31
0.0
  0
LINE
  5
BC25
330
1E
100
AcDbEntity
  8
002
100
AcDbLine
 10
9333.448766697667
 20
-2410.933061921223
 30
0.0
 11
9336.600557288983
 21
-2414.456871289616
 31
0.0
  0
ARC
  5
BC26
330
1E
100
AcDbEntity
  8
002
100
AcDbCircle
 10
9334.135072518671
 20
-2415.866395319815
 30
0.0
 40
2.114285999999999
100
AcDbArc
 50
318.1896850000205
 51
41.81031499997946
  0
ARC
  5
BC27
330
1E
100
AcDbEntity
  8
002
100
AcDbCircle
 10
9335.024661639771
 20
-2428.552109470298
 30
0.0
 40
2.114285999999999
100
AcDbArc
 50
318.1896850000205
 51
41.81031499997946
  0
LINE
  5
BC28
330
1E
100
AcDbEntity
  8
002
100
AcDbLine
 10
9336.60055799609
 20
-2429.961633500499
 30
0.0
 11
9333.448765990558
 21
-2433.485442868892
 31
0.0
  0
LINE
  5
BC29
330
1E
100
AcDbEntity
  8
002
100
AcDbLine
 10
9333.448766697667
 20
-2423.61877677881
 30
0.0
 11
9336.600557288983
 21
-2427.142586147205
 31
0.0
  0
ARC
  5
BC2A
330
1E
100
AcDbEntity
  8
002
100
AcDbCircle
 10
9334.135071811564
 20
-2428.552109470298
 30
0.0
 40
2.114285999999999
100
AcDbArc
 50
318.1896850000205
 51
41.81031499997946
  0
LINE
  5
BC2B
330
1E
100
AcDbEntity
  8
002
100
AcDbLine
 10
9332.559176869457
 20
-2423.61877677881
 30
0.0
 11
9335.710967460775
 21
-2427.142586147205
 31
0.0
  0
LINE
  5
BC2C
330
1E
100
AcDbEntity
  8
002
100
AcDbLine
 10
9335.71096816788
 20
-2429.961633500499
 30
0.0
 11
9332.559176869457
 21
-2433.485443575999
 31
0.0
  0
ARC
  5
BC2D
330
1E
100
AcDbEntity
  8
002
100
AcDbCircle
 10
9335.024662346878
 20
-2434.894966899092
 30
0.0
 40
2.114285999999999
100
AcDbArc
 50
138.1896850000205
 51
221.8103149999794
  0
LINE
  5
BC2E
330
1E
100
AcDbEntity
  8
002
100
AcDbLine
 10
9333.448766697667
 20
-2436.304490222186
 30
0.0
 11
9336.60055799609
 21
-2439.828300297687
 31
0.0
  0
LINE
  5
BC2F
330
1E
100
AcDbEntity
  8
002
100
AcDbLine
 10
9336.600557288983
 20
-2442.647347650982
 30
0.0
 11
9333.448766697667
 21
-2446.171157019374
 31
0.0
  0
LINE
  5
BC30
330
1E
100
AcDbEntity
  8
002
100
AcDbLine
 10
9335.710967460775
 20
-2442.647347650982
 30
0.0
 11
9332.559176869459
 21
-2446.171157019374
 31
0.0
  0
ARC
  5
BC31
330
1E
100
AcDbEntity
  8
002
100
AcDbCircle
 10
9335.024661639771
 20
-2447.580681049574
 30
0.0
 40
2.114285999999999
100
AcDbArc
 50
138.1896850000205
 51
221.8103149999794
  0
ARC
  5
BC32
330
1E
100
AcDbEntity
  8
002
100
AcDbCircle
 10
9334.135071811564
 20
-2447.580681049574
 30
0.0
 40
2.114285999999999
100
AcDbArc
 50
138.1896850000205
 51
221.8103149999794
  0
ARC
  5
BC33
330
1E
100
AcDbEntity
  8
002
100
AcDbCircle
 10
9335.024661639771
 20
-2441.237824327887
 30
0.0
 40
2.114285999999999
100
AcDbArc
 50
318.1896850000205
 51
41.81031499997946
  0
ARC
  5
BC34
330
1E
100
AcDbEntity
  8
002
100
AcDbCircle
 10
9334.135072518671
 20
-2441.237823620781
 30
0.0
 40
2.114285999999999
100
AcDbArc
 50
318.1896850000205
 51
41.81031499997946
  0
ARC
  5
BC35
330
1E
100
AcDbEntity
  8
002
100
AcDbCircle
 10
9334.135072518671
 20
-2434.894966899092
 30
0.0
 40
2.114285999999999
100
AcDbArc
 50
138.1896850000205
 51
221.8103149999794
  0
LINE
  5
BC36
330
1E
100
AcDbEntity
  8
002
100
AcDbLine
 10
9332.559176869459
 20
-2436.304490222186
 30
0.0
 11
9335.71096816788
 21
-2439.828300297687
 31
0.0
  0
ARC
  5
BC37
330
1E
100
AcDbEntity
  8
002
100
AcDbCircle
 10
9335.024661639771
 20
-2466.60925262885
 30
0.0
 40
2.114285999999999
100
AcDbArc
 50
318.1896850000205
 51
41.81031499997946
  0
LINE
  5
BC38
330
1E
100
AcDbEntity
  8
002
100
AcDbLine
 10
9333.448765990558
 20
-2461.675919230258
 30
0.0
 11
9336.60055799609
 21
-2465.199728598651
 31
0.0
  0
ARC
  5
BC39
330
1E
100
AcDbEntity
  8
002
100
AcDbCircle
 10
9334.135071811564
 20
-2466.609252628852
 30
0.0
 40
2.114285999999999
100
AcDbArc
 50
332.1818609999535
 51
41.81031499997946
  0
LINE
  5
BC3A
330
1E
100
AcDbEntity
  8
002
100
AcDbLine
 10
9332.559176162353
 20
-2461.675919230258
 30
0.0
 11
9335.71096816788
 21
-2465.199728598651
 31
0.0
  0
ARC
  5
BC3B
330
1E
100
AcDbEntity
  8
002
100
AcDbCircle
 10
9335.024662346878
 20
-2472.952110057645
 30
0.0
 40
2.114285999999999
100
AcDbArc
 50
138.1896850000205
 51
221.8103149999794
  0
LINE
  5
BC3C
330
1E
100
AcDbEntity
  8
002
100
AcDbLine
 10
9333.448766697667
 20
-2474.36163338074
 30
0.0
 11
9336.600557288983
 21
-2477.885442749133
 31
0.0
  0
LINE
  5
BC3D
330
1E
100
AcDbEntity
  8
002
100
AcDbLine
 10
9336.600557288983
 20
-2468.018775951945
 30
0.0
 11
9333.448765990558
 21
-2471.542586027446
 31
0.0
  0
ARC
  5
BC3E
330
1E
100
AcDbEntity
  8
002
100
AcDbCircle
 10
9335.024662346878
 20
-2453.923538478369
 30
0.0
 40
2.114285999999999
100
AcDbArc
 50
318.1896850000205
 51
41.81031499997946
  0
LINE
  5
BC3F
330
1E
100
AcDbEntity
  8
002
100
AcDbLine
 10
9336.600557288983
 20
-2455.333062508569
 30
0.0
 11
9333.448766697667
 21
-2458.856871876964
 31
0.0
  0
ARC
  5
BC40
330
1E
100
AcDbEntity
  8
002
100
AcDbCircle
 10
9334.135072518671
 20
-2453.923538478369
 30
0.0
 40
2.114285999999999
100
AcDbArc
 50
318.1896850000205
 51
41.81031499997946
  0
LINE
  5
BC41
330
1E
100
AcDbEntity
  8
002
100
AcDbLine
 10
9335.71096816788
 20
-2455.333061801463
 30
0.0
 11
9332.559176869459
 21
-2458.856871876964
 31
0.0
  0
ARC
  5
BC42
330
1E
100
AcDbEntity
  8
002
100
AcDbCircle
 10
9335.024662346878
 20
-2460.266395200056
 30
0.0
 40
2.114285999999999
100
AcDbArc
 50
138.1896850000205
 51
221.8103149999794
  0
ARC
  5
BC43
330
1E
100
AcDbEntity
  8
002
100
AcDbCircle
 10
9334.135072518671
 20
-2460.266395200056
 30
0.0
 40
2.114285999999999
100
AcDbArc
 50
138.1896850000205
 51
221.8103149999794
  0
LWPOLYLINE
  5
BC44
330
1E
100
AcDbEntity
  8
001
100
AcDbPolyline
 90
        3
 70
     0
 43
0.0
 10
9317.031514634509
 20
-2469.342156668048
 10
9321.035671031335
 20
-2462.092210275196
 10
9313.942996535633
 20
-2466.368770495797
  0
LINE
  5
BC45
330
1E
100
AcDbEntity
  8
002
100
AcDbLine
 10
9322.338947489289
 20
-2467.595919025727
 30
0.0
 11
9336.00501640152
 21
-2467.595919025727
 31
0.0
  0
LINE
  5
BC46
330
1E
100
AcDbEntity
  8
002
100
AcDbLine
 10
9333.448766697667
 20
-2448.990205079775
 30
0.0
 11
9336.600557288983
 21
-2452.51401444817
 31
0.0
  0
LINE
  5
BC47
330
1E
100
AcDbEntity
  8
002
100
AcDbLine
 10
9332.559176869459
 20
-2448.990205079775
 30
0.0
 11
9335.710967460775
 21
-2452.51401444817
 31
0.0
  0
ARC
  5
BC48
330
1E
100
AcDbEntity
  8
002
100
AcDbCircle
 10
9335.024661639771
 20
-2422.209252748611
 30
0.0
 40
2.114285999999999
100
AcDbArc
 50
138.1896850000205
 51
221.8103149999794
  0
ARC
  5
BC49
330
1E
100
AcDbEntity
  8
002
100
AcDbCircle
 10
9334.135071811564
 20
-2422.209252748611
 30
0.0
 40
2.114285999999999
100
AcDbArc
 50
138.1896850000205
 51
221.8103149999794
  0
LINE
  5
BC4A
330
1E
100
AcDbEntity
  8
002
100
AcDbLine
 10
9336.600557288983
 20
-2480.704490809534
 30
0.0
 11
9333.448766697667
 21
-2484.228300177929
 31
0.0
  0
ARC
  5
BC4B
330
1E
100
AcDbEntity
  8
002
100
AcDbCircle
 10
9335.024661639771
 20
-2485.637824208128
 30
0.0
 40
2.114285999999999
100
AcDbArc
 50
138.1896850000205
 51
221.8103149999794
  0
ARC
  5
BC4C
330
1E
100
AcDbEntity
  8
002
100
AcDbCircle
 10
9335.024661639771
 20
-2491.980680929815
 30
0.0
 40
2.114285999999999
100
AcDbArc
 50
318.1896850000205
 51
41.81031499997946
  0
LINE
  5
BC4D
330
1E
100
AcDbEntity
  8
002
100
AcDbLine
 10
9333.448766697667
 20
-2487.047348238327
 30
0.0
 11
9336.600557288983
 21
-2490.571157606722
 31
0.0
  0
LINE
  5
BC4E
330
1E
100
AcDbEntity
  8
002
100
AcDbLine
 10
9336.60055799609
 20
-2493.390204960016
 30
0.0
 11
9333.448765990558
 21
-2496.914014328409
 31
0.0
  0
ARC
  5
BC4F
330
1E
100
AcDbEntity
  8
002
100
AcDbCircle
 10
9335.024662346878
 20
-2504.666395080297
 30
0.0
 40
2.114285999999999
100
AcDbArc
 50
318.1896850000205
 51
41.81031499997946
  0
LINE
  5
BC50
330
1E
100
AcDbEntity
  8
002
100
AcDbLine
 10
9333.448766697665
 20
-2499.733061681703
 30
0.0
 11
9336.60055799609
 21
-2503.256871757205
 31
0.0
  0
ARC
  5
BC51
330
1E
100
AcDbEntity
  8
002
100
AcDbCircle
 10
9335.024662346878
 20
-2498.323538358608
 30
0.0
 40
2.114285999999999
100
AcDbArc
 50
138.1896850000205
 51
221.8103149999794
  0
LINE
  5
BC52
330
1E
100
AcDbEntity
  8
002
100
AcDbLine
 10
9333.448766697667
 20
-2512.418776539292
 30
0.0
 11
9336.600557288983
 21
-2515.942585907687
 31
0.0
  0
ARC
  5
BC53
330
1E
100
AcDbEntity
  8
002
100
AcDbCircle
 10
9335.024662346878
 20
-2517.352109937887
 30
0.0
 40
2.114285999999999
100
AcDbArc
 50
318.1896850000205
 51
41.81031499997946
  0
ARC
  5
BC54
330
1E
100
AcDbEntity
  8
002
100
AcDbCircle
 10
9335.024661639771
 20
-2511.009252509093
 30
0.0
 40
2.114285999999999
100
AcDbArc
 50
138.1896850000205
 51
221.8103149999794
  0
LINE
  5
BC55
330
1E
100
AcDbEntity
  8
002
100
AcDbLine
 10
9336.600557288983
 20
-2506.075919110498
 30
0.0
 11
9333.448766697665
 21
-2509.599728478892
 31
0.0
  0
ARC
  5
BC56
330
1E
100
AcDbEntity
  8
002
100
AcDbCircle
 10
9335.024662346878
 20
-2479.294966779332
 30
0.0
 40
2.114285999999999
100
AcDbArc
 50
318.1896850000205
 51
41.81031499997946
  0
LINE
  5
BC57
330
1E
100
AcDbEntity
  8
002
100
AcDbLine
 10
9306.003867261919
 20
-2294.606770491838
 30
0.0
 11
9304.897329295069
 21
-2295.49200100674
 31
0.0
  0
LINE
  5
BC58
330
1E
100
AcDbEntity
  8
003
 62
     3
100
AcDbLine
 10
9277.938947609049
 20
-2351.747034275195
 30
0.0
 11
9321.070376710636
 21
-2351.747034275195
 31
0.0
  0
LINE
  5
BC59
330
1E
100
AcDbEntity
  8
002
100
AcDbLine
 10
9277.938947609049
 20
-2351.747034275195
 30
0.0
 11
9321.070376710636
 21
-2351.747034275196
 31
0.0
  0
LINE
  5
BC5A
330
1E
100
AcDbEntity
  8
002
100
AcDbLine
 10
9277.938948316156
 20
-2330.59020492773
 30
0.0
 11
9330.373234037166
 21
-2330.59020492773
 31
0.0
  0
ARC
  5
BC5B
330
1E
100
AcDbEntity
  8
002
100
AcDbCircle
 10
9307.538899210246
 20
-2298.793963400711
 30
0.0
 40
4.228575
100
AcDbArc
 50
128.6598080000221
 51
180.0
  0
ARC
  5
BC5C
330
1E
100
AcDbEntity
  8
002
100
AcDbCircle
 10
9277.657940545777
 20
-2349.209891303677
 30
0.0
 40
2.537142999999999
100
AcDbArc
 50
210.1399749999846
 51
270.0
  0
LINE
  5
BC5D
330
1E
100
AcDbEntity
  8
002
100
AcDbLine
 10
9277.938948316156
 20
-2330.59020492773
 30
0.0
 11
9277.938947609049
 21
-2351.747034275195
 31
0.0
  0
LINE
  5
BC5E
330
1E
100
AcDbEntity
  8
002
100
AcDbLine
 10
9303.310324998326
 20
-2328.898775101539
 30
0.0
 11
9305.001754824514
 21
-2330.59020492773
 31
0.0
  0
LINE
  5
BC5F
330
1E
100
AcDbEntity
  8
002
100
AcDbLine
 10
9303.310324998326
 20
-2328.898775101539
 30
0.0
 11
9303.310324291219
 21
-2298.793963400711
 31
0.0
  0
LINE
  5
BC60
330
1E
100
AcDbEntity
  8
003
100
AcDbLine
 10
9299.224662031337
 20
-2351.747034275195
 30
0.0
 11
9299.224662031337
 21
-2373.747034275194
 31
0.0
  0
LINE
  5
BC61
330
1E
100
AcDbEntity
  8
003
 62
     3
100
AcDbLine
 10
9299.224662031337
 20
-2351.747034275195
 30
0.0
 11
9299.224662031337
 21
-2373.747034275194
 31
0.0
  0
LINE
  5
BC62
330
1E
100
AcDbEntity
  8
002
100
AcDbLine
 10
9345.59609045206
 20
-2307.755919598283
 30
0.0
 11
9346.115294212749
 21
-2311.984490981776
 31
0.0
  0
LINE
  5
BC63
330
1E
100
AcDbEntity
  8
002
100
AcDbLine
 10
9345.596091159166
 20
-2303.353050635867
 30
0.0
 11
9345.59609045206
 21
-2307.755919598283
 31
0.0
  0
ARC
  5
BC64
330
1E
100
AcDbEntity
  8
002
100
AcDbCircle
 10
9332.739009680265
 20
-2296.040553234381
 30
0.0
 40
0.7210800000000001
100
AcDbArc
 50
186.9999999999797
 51
329.9999999999897
  0
LINE
  5
BC65
330
1E
100
AcDbEntity
  8
002
100
AcDbLine
 10
9333.363483963001
 20
-2296.401092839972
 30
0.0
 11
9333.882947231877
 21
-2295.501356029455
 31
0.0
  0
LINE
  5
BC66
330
1E
100
AcDbEntity
  8
002
100
AcDbLine
 10
9311.767474836381
 20
-2293.378745216019
 30
0.0
 11
9311.767474129274
 21
-2303.021522914401
 31
0.0
  0
LINE
  5
BC67
330
1E
100
AcDbEntity
  8
002
100
AcDbLine
 10
9309.653187376865
 20
-2305.218754706455
 30
0.0
 11
9310.921759569732
 21
-2305.218754706455
 31
0.0
  0
LINE
  5
BC68
330
1E
100
AcDbEntity
  8
002
100
AcDbLine
 10
9310.921758862624
 20
-2303.021522914401
 30
0.0
 11
9309.653187376865
 21
-2305.218754706455
 31
0.0
  0
LINE
  5
BC69
330
1E
100
AcDbEntity
  8
002
100
AcDbLine
 10
9310.921758862624
 20
-2303.021522914401
 30
0.0
 11
9311.767474129274
 21
-2303.021522914401
 31
0.0
  0
ARC
  5
BC6A
330
1E
100
AcDbEntity
  8
002
100
AcDbCircle
 10
9303.362297346742
 20
-2291.304808097867
 30
0.0
 40
4.228575
100
AcDbArc
 50
308.6598080000221
 51
358.5258020000115
  0
LINE
  5
BC6B
330
1E
100
AcDbEntity
  8
002
100
AcDbLine
 10
9329.104661844302
 20
-2311.98449027467
 30
0.0
 11
9329.104661844302
 21
-2330.59020492773
 31
0.0
  0
LINE
  5
BC6C
330
1E
100
AcDbEntity
  8
002
100
AcDbLine
 10
9330.37323333006
 20
-2312.716900872021
 30
0.0
 11
9330.373234037166
 21
-2330.59020492773
 31
0.0
  0
LINE
  5
BC6D
330
1E
100
AcDbEntity
  8
002
100
AcDbLine
 10
9329.104661844302
 20
-2330.59020492773
 30
0.0
 11
9330.373233330062
 21
-2329.857794330377
 31
0.0
  0
ARC
  5
BC6E
330
1E
100
AcDbEntity
  8
002
100
AcDbCircle
 10
9418.45437631597
 20
-2316.749165270923
 30
0.0
 40
84.571429
100
AcDbArc
 50
180.0
 51
184.9999999999723
  0
LINE
  5
BC6F
330
1E
100
AcDbEntity
  8
002
100
AcDbLine
 10
9330.37323333006
 20
-2314.521633953294
 30
0.0
 11
9329.104661844302
 21
-2315.254043136432
 31
0.0
  0
LINE
  5
BC70
330
1E
100
AcDbEntity
  8
002
100
AcDbLine
 10
9329.104661844302
 20
-2311.98449027467
 30
0.0
 11
9330.37323333006
 21
-2312.716900872021
 31
0.0
  0
LINE
  5
BC71
330
1E
100
AcDbEntity
  8
002
100
AcDbLine
 10
9333.333233227795
 20
-2314.521633953294
 30
0.0
 11
9330.37323333006
 21
-2314.521633953294
 31
0.0
  0
LINE
  5
BC72
330
1E
100
AcDbEntity
  8
002
100
AcDbLine
 10
9332.910376301578
 20
-2307.755918891176
 30
0.0
 11
9332.391173247996
 21
-2311.984490981776
 31
0.0
  0
LINE
  5
BC73
330
1E
100
AcDbEntity
  8
002
100
AcDbLine
 10
9310.913925533702
 20
-2330.59020492773
 30
0.0
 11
9309.645354047946
 21
-2329.857794330379
 31
0.0
  0
LINE
  5
BC74
330
1E
100
AcDbEntity
  8
002
100
AcDbLine
 10
9310.921804824566
 20
-2329.857794330379
 30
0.0
 11
9309.653233338805
 21
-2330.59020492773
 31
0.0
  0
LINE
  5
BC75
330
1E
100
AcDbEntity
  8
002
100
AcDbLine
 10
9310.921759569732
 20
-2329.857794330379
 30
0.0
 11
9309.653186669759
 21
-2330.59020492773
 31
0.0
  0
LINE
  5
BC76
330
1E
100
AcDbEntity
  8
002
100
AcDbLine
 10
9311.767519384108
 20
-2311.138776422234
 30
0.0
 11
9312.613233236541
 21
-2310.293062569801
 31
0.0
  0
LINE
  5
BC77
330
1E
100
AcDbEntity
  8
002
100
AcDbLine
 10
9311.767519384108
 20
-2311.138776422234
 30
0.0
 11
9311.767518677001
 21
-2312.830204834212
 31
0.0
  0
LINE
  5
BC78
330
1E
100
AcDbEntity
  8
002
100
AcDbLine
 10
9311.767518677001
 20
-2312.830204834212
 30
0.0
 11
9309.653233338808
 21
-2314.295025321807
 31
0.0
  0
LINE
  5
BC79
330
1E
100
AcDbEntity
  8
002
100
AcDbLine
 10
9315.996090767601
 20
-2311.984490981776
 30
0.0
 11
9314.894117175024
 21
-2310.293061862694
 31
0.0
  0
LINE
  5
BC7A
330
1E
100
AcDbEntity
  8
002
100
AcDbLine
 10
9312.613233236541
 20
-2310.293062569801
 30
0.0
 11
9314.894117175024
 21
-2310.293061862694
 31
0.0
  0
LINE
  5
BC7B
330
1E
100
AcDbEntity
  8
002
100
AcDbLine
 10
9318.110376105797
 20
-2311.138776422236
 30
0.0
 11
9318.956090665336
 21
-2311.984490981776
 31
0.0
  0
LINE
  5
BC7C
330
1E
100
AcDbEntity
  8
002
100
AcDbLine
 10
9315.996090767601
 20
-2311.984490981776
 30
0.0
 11
9332.910376301578
 21
-2311.984490981776
 31
0.0
  0
LINE
  5
BC7D
330
1E
100
AcDbEntity
  8
002
100
AcDbLine
 10
9333.448766697667
 20
-2360.190205319295
 30
0.0
 11
9336.600557288983
 21
-2363.714014687688
 31
0.0
  0
LINE
  5
BC7E
330
1E
100
AcDbEntity
  8
002
100
AcDbLine
 10
9332.559176869457
 20
-2360.190205319295
 30
0.0
 11
9335.710967460775
 21
-2363.714014687688
 31
0.0
  0
LINE
  5
BC7F
330
1E
100
AcDbEntity
  8
002
100
AcDbLine
 10
9332.559176869457
 20
-2360.190205319295
 30
0.0
 11
9333.333233227795
 21
-2360.190204612186
 31
0.0
  0
LINE
  5
BC80
330
1E
100
AcDbEntity
  8
002
100
AcDbLine
 10
9334.204767791453
 20
-2324.120051307758
 30
0.0
 11
9337.360496967539
 21
-2360.190205319293
 31
0.0
  0
LINE
  5
BC81
330
1E
100
AcDbEntity
  8
002
100
AcDbLine
 10
9343.245287087949
 20
-2360.190205319293
 30
0.0
 11
9334.507505660322
 21
-2327.580358951669
 31
0.0
  0
LINE
  5
BC82
330
1E
100
AcDbEntity
  8
002
100
AcDbLine
 10
9333.333233227795
 20
-2314.521633953294
 30
0.0
 11
9333.333233227795
 21
-2360.190204612186
 31
0.0
  0
LINE
  5
BC83
330
1E
100
AcDbEntity
  8
002
100
AcDbLine
 10
9321.070376003531
 20
-2330.59020492773
 30
0.0
 11
9321.070376710636
 21
-2351.733061845199
 31
0.0
  0
LINE
  5
BC84
330
1E
100
AcDbEntity
  8
002
100
AcDbLine
 10
9310.921804824566
 20
-2303.021546248924
 30
0.0
 11
9310.921805531673
 21
-2330.590204927728
 31
0.0
  0
LINE
  5
BC85
330
1E
100
AcDbEntity
  8
002
100
AcDbLine
 10
9309.653233338805
 20
-2305.218776626765
 30
0.0
 11
9309.653233338805
 21
-2330.59020492773
 31
0.0
  0
LINE
  5
BC86
330
1E
100
AcDbEntity
  8
002
100
AcDbLine
 10
9309.653187376865
 20
-2305.218754706455
 30
0.0
 11
9309.653186669759
 21
-2330.59020492773
 31
0.0
  0
LINE
  5
BC87
330
1E
100
AcDbEntity
  8
002
100
AcDbLine
 10
9310.921758862624
 20
-2303.021522914401
 30
0.0
 11
9310.921759569732
 21
-2329.857794330379
 31
0.0
  0
LINE
  5
BC88
330
1E
100
AcDbEntity
  8
002
100
AcDbLine
 10
9332.910376301578
 20
-2303.353050635867
 30
0.0
 11
9332.910376301578
 21
-2307.755918891176
 31
0.0
  0
LINE
  5
BC89
330
1E
100
AcDbEntity
  8
002
100
AcDbLine
 10
9345.497007114348
 20
-2329.956705841144
 30
0.0
 11
9333.882947231877
 21
-2286.612445376593
 31
0.0
  0
ARC
  5
BC8A
330
1E
100
AcDbEntity
  8
002
100
AcDbCircle
 10
9418.45437631597
 20
-2316.749165270923
 30
0.0
 40
73.83085699999999
100
AcDbArc
 50
180.0
 51
184.9999999999723
  0
LINE
  5
BC8B
330
1E
100
AcDbEntity
  8
002
100
AcDbLine
 10
9345.142982790637
 20
-2296.401093547079
 30
0.0
 11
9344.623518814653
 21
-2295.501356029455
 31
0.0
  0
ARC
  5
BC8C
330
1E
100
AcDbEntity
  8
002
100
AcDbCircle
 10
9335.024662346878
 20
-2390.494967018852
 30
0.0
 40
2.114285999999999
100
AcDbArc
 50
318.1896850000205
 51
41.81031499997946
  0
ARC
  5
BC8D
330
1E
100
AcDbEntity
  8
002
100
AcDbCircle
 10
9334.135072518671
 20
-2390.494967018852
 30
0.0
 40
2.114285999999999
100
AcDbArc
 50
318.1896850000205
 51
41.81031499997946
  0
ARC
  5
BC8E
330
1E
100
AcDbEntity
  8
002
100
AcDbCircle
 10
9335.024661639771
 20
-2377.80925286837
 30
0.0
 40
2.114285999999999
100
AcDbArc
 50
318.1896850000205
 51
41.81031499997946
  0
ARC
  5
BC8F
330
1E
100
AcDbEntity
  8
002
100
AcDbCircle
 10
9335.024661639771
 20
-2384.152109590057
 30
0.0
 40
2.114285999999999
100
AcDbArc
 50
138.1896850000205
 51
221.8103149999794
  0
ARC
  5
BC90
330
1E
100
AcDbEntity
  8
002
100
AcDbCircle
 10
9334.135071811564
 20
-2384.152109590057
 30
0.0
 40
2.114285999999999
100
AcDbArc
 50
138.1896850000205
 51
221.8103149999794
  0
LINE
  5
BC91
330
1E
100
AcDbEntity
  8
002
100
AcDbLine
 10
9335.710967460775
 20
-2379.218776191464
 30
0.0
 11
9332.559176869459
 21
-2382.742585559857
 31
0.0
  0
LINE
  5
BC92
330
1E
100
AcDbEntity
  8
002
100
AcDbLine
 10
9333.448766697667
 20
-2385.561633620258
 30
0.0
 11
9336.600557288983
 21
-2389.085442988651
 31
0.0
  0
LINE
  5
BC93
330
1E
100
AcDbEntity
  8
002
100
AcDbLine
 10
9332.559176869459
 20
-2385.561633620258
 30
0.0
 11
9335.710967460775
 21
-2389.085442988652
 31
0.0
  0
LINE
  5
BC94
330
1E
100
AcDbEntity
  8
002
100
AcDbLine
 10
9336.600557288983
 20
-2379.218776191462
 30
0.0
 11
9333.448766697667
 21
-2382.742585559857
 31
0.0
  0
ARC
  5
BC95
330
1E
100
AcDbEntity
  8
002
100
AcDbCircle
 10
9334.135072518671
 20
-2377.809252161263
 30
0.0
 40
2.114285999999999
100
AcDbArc
 50
318.1896850000205
 51
41.81031499997946
  0
ARC
  5
BC96
330
1E
100
AcDbEntity
  8
002
100
AcDbCircle
 10
9335.024662346878
 20
-2371.466395439574
 30
0.0
 40
2.114285999999999
100
AcDbArc
 50
138.1896850000205
 51
221.8103149999794
  0
LINE
  5
BC97
330
1E
100
AcDbEntity
  8
002
100
AcDbLine
 10
9336.60055799609
 20
-2366.533062040982
 30
0.0
 11
9333.448765990558
 21
-2370.056871409375
 31
0.0
  0
ARC
  5
BC98
330
1E
100
AcDbEntity
  8
002
100
AcDbCircle
 10
9334.135072518671
 20
-2371.466395439576
 30
0.0
 40
2.114285999999999
100
AcDbArc
 50
138.1896850000205
 51
221.8103149999794
  0
LINE
  5
BC99
330
1E
100
AcDbEntity
  8
002
100
AcDbLine
 10
9335.71096816788
 20
-2366.533062040982
 30
0.0
 11
9332.559176869459
 21
-2370.056872116481
 31
0.0
  0
LINE
  5
BC9A
330
1E
100
AcDbEntity
  8
002
100
AcDbLine
 10
9333.448766697667
 20
-2372.875918762669
 30
0.0
 11
9336.60055799609
 21
-2376.39972883817
 31
0.0
  0
LINE
  5
BC9B
330
1E
100
AcDbEntity
  8
002
100
AcDbLine
 10
9332.559176869459
 20
-2372.875918762669
 30
0.0
 11
9335.71096816788
 21
-2376.39972883817
 31
0.0
  0
LINE
  5
BC9C
330
1E
100
AcDbEntity
  8
002
100
AcDbLine
 10
9333.448765990558
 20
-2398.247347770741
 30
0.0
 11
9336.60055799609
 21
-2401.771157139133
 31
0.0
  0
LINE
  5
BC9D
330
1E
100
AcDbEntity
  8
002
100
AcDbLine
 10
9332.559176162353
 20
-2398.247347770741
 30
0.0
 11
9335.71096816788
 21
-2401.771157139133
 31
0.0
  0
ARC
  5
BC9E
330
1E
100
AcDbEntity
  8
002
100
AcDbCircle
 10
9335.024662346878
 20
-2396.837823740539
 30
0.0
 40
2.114285999999999
100
AcDbArc
 50
138.1896850000205
 51
221.8103149999794
  0
ARC
  5
BC9F
330
1E
100
AcDbEntity
  8
002
100
AcDbCircle
 10
9334.135072518671
 20
-2396.837823740539
 30
0.0
 40
2.114285999999999
100
AcDbArc
 50
138.1896850000205
 51
221.8103149999794
  0
LINE
  5
BCA0
330
1E
100
AcDbEntity
  8
002
100
AcDbLine
 10
9336.600557288983
 20
-2391.904491049051
 30
0.0
 11
9333.448766697667
 21
-2395.428300417446
 31
0.0
  0
LINE
  5
BCA1
330
1E
100
AcDbEntity
  8
002
100
AcDbLine
 10
9335.710967460775
 20
-2391.904491049051
 30
0.0
 11
9332.559176869459
 21
-2395.428300417446
 31
0.0
  0
ARC
  5
BCA2
330
1E
100
AcDbEntity
  8
002
100
AcDbCircle
 10
9335.024661639771
 20
-2365.12353801078
 30
0.0
 40
2.114285999999999
100
AcDbArc
 50
318.1896850000205
 51
41.81031499997946
  0
ARC
  5
BCA3
330
1E
100
AcDbEntity
  8
002
100
AcDbCircle
 10
9334.135071811564
 20
-2365.12353801078
 30
0.0
 40
2.114285999999999
100
AcDbArc
 50
318.1896850000205
 51
41.81031499997946
  0
ARC
  5
BCA4
330
1E
100
AcDbEntity
  8
002
100
AcDbCircle
 10
9394.224662422901
 20
-2403.180681169335
 30
0.0
 40
2.114285999999999
100
AcDbArc
 50
318.1896850000205
 51
41.81031499997946
  0
ARC
  5
BCA5
330
1E
100
AcDbEntity
  8
002
100
AcDbCircle
 10
9395.487799793047
 20
-2403.180681169335
 30
0.0
 40
2.114285999999999
100
AcDbArc
 50
318.1896850000205
 51
41.81031499997946
  0
LINE
  5
BCA6
330
1E
100
AcDbEntity
  8
002
100
AcDbLine
 10
9407.333232792494
 20
-2330.59020492773
 30
0.0
 11
9406.910376573383
 21
-2467.595919025727
 31
0.0
  0
LINE
  5
BCA7
330
1E
100
AcDbEntity
  8
002
100
AcDbLine
 10
9395.800558072114
 20
-2417.275919350017
 30
0.0
 11
9392.648766066583
 21
-2420.799728718411
 31
0.0
  0
LINE
  5
BCA8
330
1E
100
AcDbEntity
  8
002
100
AcDbLine
 10
9392.648766066583
 20
-2410.933061921223
 30
0.0
 11
9395.800557365006
 21
-2414.456871996723
 31
0.0
  0
ARC
  5
BCA9
330
1E
100
AcDbEntity
  8
002
100
AcDbCircle
 10
9395.487799793045
 20
-2409.523537891022
 30
0.0
 40
2.114285999999999
100
AcDbArc
 50
138.1896850000205
 51
221.8103149999794
  0
LINE
  5
BCAA
330
1E
100
AcDbEntity
  8
002
100
AcDbLine
 10
9395.800557365006
 20
-2404.590205199534
 30
0.0
 11
9392.648766773689
 21
-2408.114014567929
 31
0.0
  0
ARC
  5
BCAB
330
1E
100
AcDbEntity
  8
002
100
AcDbCircle
 10
9394.224661715794
 20
-2409.523538598128
 30
0.0
 40
2.114285999999999
100
AcDbArc
 50
138.1896850000205
 51
221.8103149999794
  0
ARC
  5
BCAC
330
1E
100
AcDbEntity
  8
002
100
AcDbCircle
 10
9394.224661715794
 20
-2415.866395319817
 30
0.0
 40
2.114285999999999
100
AcDbArc
 50
318.1896850000205
 51
41.81031499997946
  0
LINE
  5
BCAD
330
1E
100
AcDbEntity
  8
002
100
AcDbLine
 10
9397.063695442259
 20
-2417.275919350017
 30
0.0
 11
9393.911903436729
 21
-2420.799728718411
 31
0.0
  0
LINE
  5
BCAE
330
1E
100
AcDbEntity
  8
002
100
AcDbLine
 10
9393.911904143836
 20
-2410.93306262833
 30
0.0
 11
9397.063694735152
 21
-2414.456871996723
 31
0.0
  0
ARC
  5
BCAF
330
1E
100
AcDbEntity
  8
002
100
AcDbCircle
 10
9395.487799085939
 20
-2415.866395319815
 30
0.0
 40
2.114285999999999
100
AcDbArc
 50
318.1896850000205
 51
41.81031499997946
  0
LINE
  5
BCB0
330
1E
100
AcDbEntity
  8
002
100
AcDbLine
 10
9397.063694735152
 20
-2404.590205199534
 30
0.0
 11
9393.911904143836
 21
-2408.114014567929
 31
0.0
  0
LINE
  5
BCB1
330
1E
100
AcDbEntity
  8
002
100
AcDbLine
 10
9395.800557365006
 20
-2442.647348358088
 30
0.0
 11
9392.648766773689
 21
-2446.171157726481
 31
0.0
  0
ARC
  5
BCB2
330
1E
100
AcDbEntity
  8
002
100
AcDbCircle
 10
9395.487799793047
 20
-2447.580681049574
 30
0.0
 40
2.114285999999999
100
AcDbArc
 50
138.1896850000205
 51
221.8103149999794
  0
LINE
  5
BCB3
330
1E
100
AcDbEntity
  8
002
100
AcDbLine
 10
9392.648766773689
 20
-2436.304490929293
 30
0.0
 11
9395.800557365006
 21
-2439.828300297687
 31
0.0
  0
LINE
  5
BCB4
330
1E
100
AcDbEntity
  8
002
100
AcDbLine
 10
9395.800557365006
 20
-2429.961633500499
 30
0.0
 11
9392.648766773689
 21
-2433.485442868892
 31
0.0
  0
LINE
  5
BCB5
330
1E
100
AcDbEntity
  8
002
100
AcDbLine
 10
9392.648766773689
 20
-2423.618776071704
 30
0.0
 11
9395.800557365006
 21
-2427.142585440098
 31
0.0
  0
ARC
  5
BCB6
330
1E
100
AcDbEntity
  8
002
100
AcDbCircle
 10
9395.487799085939
 20
-2434.894966899094
 30
0.0
 40
2.114285999999999
100
AcDbArc
 50
138.1896850000205
 51
221.8103149999794
  0
ARC
  5
BCB7
330
1E
100
AcDbEntity
  8
002
100
AcDbCircle
 10
9394.224662422901
 20
-2447.580681049574
 30
0.0
 40
2.114285999999999
100
AcDbArc
 50
138.1896850000205
 51
221.8103149999794
  0
ARC
  5
BCB8
330
1E
100
AcDbEntity
  8
002
100
AcDbCircle
 10
9394.224661715794
 20
-2434.894966899092
 30
0.0
 40
2.114285999999999
100
AcDbArc
 50
138.1896850000205
 51
221.8103149999794
  0
LINE
  5
BCB9
330
1E
100
AcDbEntity
  8
002
100
AcDbLine
 10
9397.063695442259
 20
-2442.647347650982
 30
0.0
 11
9393.911904143836
 21
-2446.171157726481
 31
0.0
  0
ARC
  5
BCBA
330
1E
100
AcDbEntity
  8
002
100
AcDbCircle
 10
9394.224661715794
 20
-2441.237823620781
 30
0.0
 40
2.114285999999999
100
AcDbArc
 50
318.1896850000205
 51
41.81031499997946
  0
ARC
  5
BCBB
330
1E
100
AcDbEntity
  8
002
100
AcDbCircle
 10
9395.487799793047
 20
-2441.237824327887
 30
0.0
 40
2.114285999999999
100
AcDbArc
 50
318.1896850000205
 51
41.81031499997946
  0
ARC
  5
BCBC
330
1E
100
AcDbEntity
  8
002
100
AcDbCircle
 10
9394.224662422901
 20
-2428.552109470298
 30
0.0
 40
2.114285999999999
100
AcDbArc
 50
318.1896850000205
 51
41.81031499997946
  0
LINE
  5
BCBD
330
1E
100
AcDbEntity
  8
002
100
AcDbLine
 10
9393.911904143836
 20
-2423.618776071704
 30
0.0
 11
9397.063695442259
 21
-2427.142586147205
 31
0.0
  0
LINE
  5
BCBE
330
1E
100
AcDbEntity
  8
002
100
AcDbLine
 10
9397.063694735152
 20
-2429.961633500499
 30
0.0
 11
9393.911904143836
 21
-2433.485442868892
 31
0.0
  0
ARC
  5
BCBF
330
1E
100
AcDbEntity
  8
002
100
AcDbCircle
 10
9395.487799793047
 20
-2428.552109470298
 30
0.0
 40
2.114285999999999
100
AcDbArc
 50
318.1896850000205
 51
41.81031499997946
  0
LINE
  5
BCC0
330
1E
100
AcDbEntity
  8
002
100
AcDbLine
 10
9393.911904143836
 20
-2436.304490929293
 30
0.0
 11
9397.063694735152
 21
-2439.828300297687
 31
0.0
  0
LINE
  5
BCC1
330
1E
100
AcDbEntity
  8
002
100
AcDbLine
 10
9395.800557365006
 20
-2455.333061801463
 30
0.0
 11
9392.648766066583
 21
-2458.856871876964
 31
0.0
  0
ARC
  5
BCC2
330
1E
100
AcDbEntity
  8
002
100
AcDbCircle
 10
9395.487799085939
 20
-2460.266395200056
 30
0.0
 40
2.114285999999999
100
AcDbArc
 50
138.1896850000205
 51
221.8103149999794
  0
LINE
  5
BCC3
330
1E
100
AcDbEntity
  8
002
100
AcDbLine
 10
9392.648766773689
 20
-2461.675919230258
 30
0.0
 11
9395.800557365006
 21
-2465.199728598651
 31
0.0
  0
LINE
  5
BCC4
330
1E
100
AcDbEntity
  8
002
100
AcDbLine
 10
9392.648766066583
 20
-2474.36163338074
 30
0.0
 11
9395.800557365006
 21
-2477.88544345624
 31
0.0
  0
LINE
  5
BCC5
330
1E
100
AcDbEntity
  8
002
100
AcDbLine
 10
9395.800557365006
 20
-2468.018776659052
 30
0.0
 11
9392.648766773689
 21
-2471.542586027446
 31
0.0
  0
ARC
  5
BCC6
330
1E
100
AcDbEntity
  8
002
100
AcDbCircle
 10
9394.224661715794
 20
-2460.266395200056
 30
0.0
 40
2.114285999999999
100
AcDbArc
 50
138.1896850000205
 51
221.8103149999794
  0
ARC
  5
BCC7
330
1E
100
AcDbEntity
  8
002
100
AcDbCircle
 10
9394.224661715794
 20
-2472.952110057645
 30
0.0
 40
2.114285999999999
100
AcDbArc
 50
138.1896850000205
 51
221.8103149999794
  0
ARC
  5
BCC8
330
1E
100
AcDbEntity
  8
002
100
AcDbCircle
 10
9394.224662422901
 20
-2466.60925262885
 30
0.0
 40
2.114285999999999
100
AcDbArc
 50
318.1896850000205
 51
41.81031499997946
  0
ARC
  5
BCC9
330
1E
100
AcDbEntity
  8
002
100
AcDbCircle
 10
9395.487799793047
 20
-2466.609252628852
 30
0.0
 40
2.114285999999999
100
AcDbArc
 50
332.1818609999535
 51
41.81031499997946
  0
ARC
  5
BCCA
330
1E
100
AcDbEntity
  8
002
100
AcDbCircle
 10
9394.224661715794
 20
-2453.923538478369
 30
0.0
 40
2.114285999999999
100
AcDbArc
 50
318.1896850000205
 51
41.81031499997946
  0
LINE
  5
BCCB
330
1E
100
AcDbEntity
  8
002
100
AcDbLine
 10
9397.063694735152
 20
-2455.333061801463
 30
0.0
 11
9393.911904143836
 21
-2458.856871169857
 31
0.0
  0
ARC
  5
BCCC
330
1E
100
AcDbEntity
  8
002
100
AcDbCircle
 10
9395.487799085939
 20
-2453.923538478369
 30
0.0
 40
2.114285999999999
100
AcDbArc
 50
318.1896850000205
 51
41.81031499997946
  0
LINE
  5
BCCD
330
1E
100
AcDbEntity
  8
002
100
AcDbLine
 10
9393.911904143836
 20
-2461.675919230258
 30
0.0
 11
9397.063694735152
 21
-2465.199728598651
 31
0.0
  0
LINE
  5
BCCE
330
1E
100
AcDbEntity
  8
002
100
AcDbLine
 10
9397.357744382999
 20
-2467.595919025727
 30
0.0
 11
9406.910376573383
 21
-2467.595919025727
 31
0.0
  0
LINE
  5
BCCF
330
1E
100
AcDbEntity
  8
002
100
AcDbLine
 10
9392.648766066583
 20
-2448.990205079775
 30
0.0
 11
9395.800558072114
 21
-2452.51401444817
 31
0.0
  0
LINE
  5
BCD0
330
1E
100
AcDbEntity
  8
002
100
AcDbLine
 10
9393.911903436729
 20
-2448.990205079775
 30
0.0
 11
9397.063695442259
 21
-2452.514014448168
 31
0.0
  0
ARC
  5
BCD1
330
1E
100
AcDbEntity
  8
002
100
AcDbCircle
 10
9395.487799793045
 20
-2422.209252748611
 30
0.0
 40
2.114285999999999
100
AcDbArc
 50
138.1896850000205
 51
221.8103149999794
  0
ARC
  5
BCD2
330
1E
100
AcDbEntity
  8
002
100
AcDbCircle
 10
9394.224662422901
 20
-2422.209252748611
 30
0.0
 40
2.114285999999999
100
AcDbArc
 50
138.1896850000205
 51
221.8103149999794
  0
LINE
  5
BCD3
330
1E
100
AcDbEntity
  8
002
100
AcDbLine
 10
9395.800558072114
 20
-2480.704490809534
 30
0.0
 11
9392.648766066583
 21
-2484.228300177929
 31
0.0
  0
LINE
  5
BCD4
330
1E
100
AcDbEntity
  8
002
100
AcDbLine
 10
9392.648766773689
 20
-2499.73306238881
 30
0.0
 11
9395.800557365006
 21
-2503.256871757205
 31
0.0
  0
LINE
  5
BCD5
330
1E
100
AcDbEntity
  8
002
100
AcDbLine
 10
9395.800557365006
 20
-2493.390204960016
 30
0.0
 11
9392.648766773689
 21
-2496.914014328409
 31
0.0
  0
LINE
  5
BCD6
330
1E
100
AcDbEntity
  8
002
100
AcDbLine
 10
9392.648766773689
 20
-2487.047347531222
 30
0.0
 11
9395.800557365006
 21
-2490.571156899616
 31
0.0
  0
ARC
  5
BCD7
330
1E
100
AcDbEntity
  8
002
100
AcDbCircle
 10
9394.224662422901
 20
-2485.637824208128
 30
0.0
 40
2.114285999999999
100
AcDbArc
 50
138.1896850000205
 51
221.8103149999794
  0
ARC
  5
BCD8
330
1E
100
AcDbEntity
  8
002
100
AcDbCircle
 10
9394.224661715794
 20
-2498.32353835861
 30
0.0
 40
2.114285999999999
100
AcDbArc
 50
138.1896850000205
 51
221.8103149999794
  0
ARC
  5
BCD9
330
1E
100
AcDbEntity
  8
002
100
AcDbCircle
 10
9394.224661715794
 20
-2504.666395080297
 30
0.0
 40
2.114285999999999
100
AcDbArc
 50
318.1896850000205
 51
41.81031499997946
  0
ARC
  5
BCDA
330
1E
100
AcDbEntity
  8
002
100
AcDbCircle
 10
9394.224662422901
 20
-2491.980680929815
 30
0.0
 40
2.114285999999999
100
AcDbArc
 50
318.1896850000205
 51
41.81031499997946
  0
LINE
  5
BCDB
330
1E
100
AcDbEntity
  8
002
100
AcDbLine
 10
9392.648766066583
 20
-2512.418776539292
 30
0.0
 11
9395.800558072114
 21
-2515.942585907687
 31
0.0
  0
ARC
  5
BCDC
330
1E
100
AcDbEntity
  8
002
100
AcDbCircle
 10
9394.224662422901
 20
-2511.009252509091
 30
0.0
 40
2.114285999999999
100
AcDbArc
 50
138.1896850000205
 51
221.8103149999794
  0
ARC
  5
BCDD
330
1E
100
AcDbEntity
  8
002
100
AcDbCircle
 10
9394.224661715794
 20
-2517.352109937887
 30
0.0
 40
2.114285999999999
100
AcDbArc
 50
318.1896850000205
 51
41.81031499997946
  0
LINE
  5
BCDE
330
1E
100
AcDbEntity
  8
002
100
AcDbLine
 10
9395.800558072114
 20
-2506.075919110498
 30
0.0
 11
9392.648766066583
 21
-2509.599728478892
 31
0.0
  0
ARC
  5
BCDF
330
1E
100
AcDbEntity
  8
002
100
AcDbCircle
 10
9394.224661715794
 20
-2479.294966779332
 30
0.0
 40
2.114285999999999
100
AcDbArc
 50
318.1896850000205
 51
41.81031499997946
  0
LINE
  5
BCE0
330
1E
100
AcDbEntity
  8
002
100
AcDbLine
 10
9392.656860317908
 20
-2351.411541806008
 30
0.0
 11
9384.504177224801
 21
-2320.985313303575
 31
0.0
  0
ARC
  5
BCE1
330
1E
100
AcDbEntity
  8
002
100
AcDbCircle
 10
9371.138885374337
 20
-2296.040552527274
 30
0.0
 40
0.7210800000000001
100
AcDbArc
 50
210.0000000000103
 51
353.0000000000202
  0
LINE
  5
BCE2
330
1E
100
AcDbEntity
  8
002
100
AcDbLine
 10
9370.514411091601
 20
-2296.401093547079
 30
0.0
 11
9369.994947115618
 21
-2295.501356029455
 31
0.0
  0
ARC
  5
BCE3
330
1E
100
AcDbEntity
  8
002
100
AcDbCircle
 10
9383.481867696406
 20
-2296.040553234381
 30
0.0
 40
0.7210800000000001
100
AcDbArc
 50
186.9999999999797
 51
329.9999999999897
  0
LINE
  5
BCE4
330
1E
100
AcDbEntity
  8
002
100
AcDbLine
 10
9384.106341272035
 20
-2296.401093547079
 30
0.0
 11
9384.625805248019
 21
-2295.501356029455
 31
0.0
  0
ARC
  5
BCE5
330
1E
100
AcDbEntity
  8
002
100
AcDbCircle
 10
9358.110438688333
 20
-2296.040552527274
 30
0.0
 40
0.7210800000000001
100
AcDbArc
 50
186.9999999999797
 51
329.9999999999897
  0
LINE
  5
BCE6
330
1E
100
AcDbEntity
  8
002
100
AcDbLine
 10
9358.734912971071
 20
-2296.401093547079
 30
0.0
 11
9359.254376239947
 21
-2295.501355322349
 31
0.0
  0
LINE
  5
BCE7
330
1E
100
AcDbEntity
  8
002
100
AcDbLine
 10
9370.96751946013
 20
-2307.755918891176
 30
0.0
 11
9371.486722513711
 21
-2311.984490981776
 31
0.0
  0
LINE
  5
BCE8
330
1E
100
AcDbEntity
  8
002
100
AcDbLine
 10
9370.96751946013
 20
-2311.984490981776
 30
0.0
 11
9383.653233610612
 21
-2311.98449027467
 31
0.0
  0
LINE
  5
BCE9
330
1E
100
AcDbEntity
  8
002
100
AcDbLine
 10
9383.653233610614
 20
-2307.755919598283
 30
0.0
 11
9383.134029849925
 21
-2311.984490981776
 31
0.0
  0
ARC
  5
BCEA
330
1E
100
AcDbEntity
  8
002
100
AcDbCircle
 10
9310.794947746702
 20
-2316.749165270921
 30
0.0
 40
73.83085699999999
100
AcDbArc
 50
355.0000000000276
 51
0.0
  0
LINE
  5
BCEB
330
1E
100
AcDbEntity
  8
002
100
AcDbLine
 10
9358.281804602542
 20
-2307.755918891176
 30
0.0
 11
9357.762601548961
 21
-2311.984490981776
 31
0.0
  0
LINE
  5
BCEC
330
1E
100
AcDbEntity
  8
002
100
AcDbLine
 10
9384.656334583299
 20
-2360.190204612188
 30
0.0
 11
9381.980817178662
 21
-2350.205038739288
 31
0.0
  0
LINE
  5
BCED
330
1E
100
AcDbEntity
  8
002
100
AcDbLine
 10
9363.950810482069
 20
-2360.190205319295
 30
0.0
 11
9359.254376239947
 21
-2342.66287305527
 31
0.0
  0
LINE
  5
BCEE
330
1E
100
AcDbEntity
  8
002
100
AcDbLine
 10
9384.344856167505
 20
-2323.183948702591
 30
0.0
 11
9381.107228469806
 21
-2360.190204612186
 31
0.0
  0
LINE
  5
BCEF
330
1E
100
AcDbEntity
  8
002
100
AcDbLine
 10
9369.994947822725
 20
-2344.11019759978
 30
0.0
 11
9359.254376239947
 21
-2304.025840110749
 31
0.0
  0
LINE
  5
BCF0
330
1E
100
AcDbEntity
  8
002
100
AcDbLine
 10
9370.96751946013
 20
-2303.353050635867
 30
0.0
 11
9370.96751946013
 21
-2307.755918891176
 31
0.0
  0
LINE
  5
BCF1
330
1E
100
AcDbEntity
  8
002
100
AcDbLine
 10
9358.281804602542
 20
-2303.353050635867
 30
0.0
 11
9358.281804602542
 21
-2307.755918891176
 31
0.0
  0
LINE
  5
BCF2
330
1E
100
AcDbEntity
  8
002
100
AcDbLine
 10
9383.653232903508
 20
-2303.353050635867
 30
0.0
 11
9383.653233610614
 21
-2307.755919598283
 31
0.0
  0
LINE
  5
BCF3
330
1E
100
AcDbEntity
  8
002
100
AcDbLine
 10
9425.938999064348
 20
-2328.898775101539
 30
0.0
 11
9425.938999771453
 21
-2298.793963400711
 31
0.0
  0
LINE
  5
BCF4
330
1E
100
AcDbEntity
  8
002
100
AcDbLine
 10
9417.481849226293
 20
-2293.378745216019
 30
0.0
 11
9417.4818499334
 21
-2303.021522914401
 31
0.0
  0
LINE
  5
BCF5
330
1E
100
AcDbEntity
  8
002
100
AcDbLine
 10
9419.596136685807
 20
-2305.218754706455
 30
0.0
 11
9418.327564492939
 21
-2305.218754706455
 31
0.0
  0
LINE
  5
BCF6
330
1E
100
AcDbEntity
  8
002
100
AcDbLine
 10
9418.327564492939
 20
-2303.021523621508
 30
0.0
 11
9419.596136685807
 21
-2305.218754706455
 31
0.0
  0
LINE
  5
BCF7
330
1E
100
AcDbEntity
  8
002
100
AcDbLine
 10
9418.327564492939
 20
-2303.021523621508
 30
0.0
 11
9417.4818499334
 21
-2303.021522914401
 31
0.0
  0
LINE
  5
BCF8
330
1E
100
AcDbEntity
  8
002
100
AcDbLine
 10
9423.245456800755
 20
-2294.606770491838
 30
0.0
 11
9424.351994767603
 21
-2295.49200100674
 31
0.0
  0
ARC
  5
BCF9
330
1E
100
AcDbEntity
  8
002
100
AcDbCircle
 10
9425.887026715932
 20
-2291.304808097866
 30
0.0
 40
4.228575
100
AcDbArc
 50
181.4741979999884
 51
231.3401919999778
  0
LINE
  5
BCFA
330
1E
100
AcDbEntity
  8
002
100
AcDbLine
 10
9395.885840099671
 20
-2296.401092839972
 30
0.0
 11
9395.366376830795
 21
-2295.501356029455
 31
0.0
  0
ARC
  5
BCFB
330
1E
100
AcDbEntity
  8
002
100
AcDbCircle
 10
9396.510314382409
 20
-2296.040553234381
 30
0.0
 40
0.7210800000000001
100
AcDbArc
 50
210.0000000000103
 51
353.0000000000202
  0
LINE
  5
BCFC
330
1E
100
AcDbEntity
  8
002
100
AcDbLine
 10
9418.327518530999
 20
-2330.59020492773
 30
0.0
 11
9419.596090723866
 21
-2329.857795037485
 31
0.0
  0
LINE
  5
BCFD
330
1E
100
AcDbEntity
  8
002
100
AcDbLine
 10
9418.327519238106
 20
-2329.857794330379
 30
0.0
 11
9419.596090723866
 21
-2330.59020492773
 31
0.0
  0
LINE
  5
BCFE
330
1E
100
AcDbEntity
  8
002
100
AcDbLine
 10
9418.327564492939
 20
-2329.857794330379
 30
0.0
 11
9419.596137392913
 21
-2330.59020492773
 31
0.0
  0
LINE
  5
BCFF
330
1E
100
AcDbEntity
  8
002
100
AcDbLine
 10
9414.355206887648
 20
-2310.293061862694
 30
0.0
 11
9416.636090119025
 21
-2310.293061862694
 31
0.0
  0
LINE
  5
BD00
330
1E
100
AcDbEntity
  8
002
100
AcDbLine
 10
9413.253233295071
 20
-2311.984490981776
 30
0.0
 11
9414.355206887648
 21
-2310.293061862694
 31
0.0
  0
LINE
  5
BD01
330
1E
100
AcDbEntity
  8
002
100
AcDbLine
 10
9411.138947956876
 20
-2311.138776422236
 30
0.0
 11
9410.293233397336
 21
-2311.984490981776
 31
0.0
  0
LINE
  5
BD02
330
1E
100
AcDbEntity
  8
002
100
AcDbLine
 10
9417.481805385673
 20
-2312.830204834212
 30
0.0
 11
9419.596090723866
 21
-2314.295025321807
 31
0.0
  0
LINE
  5
BD03
330
1E
100
AcDbEntity
  8
002
100
AcDbLine
 10
9417.481804678565
 20
-2311.138776422234
 30
0.0
 11
9416.636090119025
 21
-2310.293061862694
 31
0.0
  0
LINE
  5
BD04
330
1E
100
AcDbEntity
  8
002
100
AcDbLine
 10
9417.481804678565
 20
-2311.138776422234
 30
0.0
 11
9417.481805385673
 21
-2312.830204834212
 31
0.0
  0
LINE
  5
BD05
330
1E
100
AcDbEntity
  8
002
100
AcDbLine
 10
9398.876090732612
 20
-2312.716900872021
 30
0.0
 11
9398.876090025506
 21
-2330.59020492773
 31
0.0
  0
LINE
  5
BD06
330
1E
100
AcDbEntity
  8
002
100
AcDbLine
 10
9400.144662218371
 20
-2311.98449027467
 30
0.0
 11
9400.144662218371
 21
-2330.59020492773
 31
0.0
  0
LINE
  5
BD07
330
1E
100
AcDbEntity
  8
002
100
AcDbLine
 10
9400.144662218371
 20
-2330.59020492773
 30
0.0
 11
9398.876090025506
 21
-2329.857795037485
 31
0.0
  0
LINE
  5
BD08
330
1E
100
AcDbEntity
  8
002
100
AcDbLine
 10
9400.144662218371
 20
-2311.98449027467
 30
0.0
 11
9398.876090732612
 21
-2312.716900872021
 31
0.0
  0
LINE
  5
BD09
330
1E
100
AcDbEntity
  8
002
100
AcDbLine
 10
9395.916090834877
 20
-2314.521633953294
 30
0.0
 11
9398.876090732612
 21
-2314.521633953294
 31
0.0
  0
LINE
  5
BD0A
330
1E
100
AcDbEntity
  8
002
100
AcDbLine
 10
9398.876090732612
 20
-2314.521633953294
 30
0.0
 11
9400.144662218371
 21
-2315.254043136432
 31
0.0
  0
ARC
  5
BD0B
330
1E
100
AcDbEntity
  8
002
100
AcDbCircle
 10
9310.794947746702
 20
-2316.749165270921
 30
0.0
 40
84.571429
100
AcDbArc
 50
355.0000000000276
 51
0.0
  0
LINE
  5
BD0C
330
1E
100
AcDbEntity
  8
002
100
AcDbLine
 10
9396.338947761094
 20
-2307.755918891176
 30
0.0
 11
9396.858150814678
 21
-2311.984490981776
 31
0.0
  0
LINE
  5
BD0D
330
1E
100
AcDbEntity
  8
002
100
AcDbLine
 10
9396.338947761094
 20
-2311.984490981776
 30
0.0
 11
9413.253233295071
 21
-2311.984490981776
 31
0.0
  0
LINE
  5
BD0E
330
1E
100
AcDbEntity
  8
002
100
AcDbLine
 10
9392.648766773689
 20
-2360.190204612186
 30
0.0
 11
9395.800557365006
 21
-2363.714013980581
 31
0.0
  0
LINE
  5
BD0F
330
1E
100
AcDbEntity
  8
002
100
AcDbLine
 10
9393.911904143836
 20
-2360.190204612186
 30
0.0
 11
9397.063695442259
 21
-2363.714014687688
 31
0.0
  0
LINE
  5
BD10
330
1E
100
AcDbEntity
  8
002
100
AcDbLine
 10
9393.911904143836
 20
-2360.190204612186
 30
0.0
 11
9395.916090834877
 21
-2360.190204612186
 31
0.0
  0
LINE
  5
BD11
330
1E
100
AcDbEntity
  8
002
100
AcDbLine
 10
9395.044556271221
 20
-2324.120051307758
 30
0.0
 11
9391.888827095133
 21
-2360.190205319293
 31
0.0
  0
LINE
  5
BD12
330
1E
100
AcDbEntity
  8
002
100
AcDbLine
 10
9395.916090834877
 20
-2314.521633953294
 30
0.0
 11
9395.916090834877
 21
-2360.190204612186
 31
0.0
  0
LINE
  5
BD13
330
1E
100
AcDbEntity
  8
002
100
AcDbLine
 10
9408.178948059143
 20
-2330.590204927728
 30
0.0
 11
9408.178947352034
 21
-2351.747034275196
 31
0.0
  0
LINE
  5
BD14
330
1E
100
AcDbEntity
  8
002
100
AcDbLine
 10
9418.327519238106
 20
-2303.021546248924
 30
0.0
 11
9418.327518530999
 21
-2330.59020492773
 31
0.0
  0
LINE
  5
BD15
330
1E
100
AcDbEntity
  8
002
100
AcDbLine
 10
9419.596090723866
 20
-2305.218776626765
 30
0.0
 11
9419.596090723866
 21
-2330.59020492773
 31
0.0
  0
LINE
  5
BD16
330
1E
100
AcDbEntity
  8
002
100
AcDbLine
 10
9419.596136685807
 20
-2305.218754706455
 30
0.0
 11
9419.596137392913
 21
-2330.59020492773
 31
0.0
  0
LINE
  5
BD17
330
1E
100
AcDbEntity
  8
002
100
AcDbLine
 10
9418.327564492939
 20
-2303.021523621508
 30
0.0
 11
9418.327564492939
 21
-2329.857794330379
 31
0.0
  0
LINE
  5
BD18
330
1E
100
AcDbEntity
  8
002
100
AcDbLine
 10
9396.338947761094
 20
-2303.353050635867
 30
0.0
 11
9396.338947761094
 21
-2307.755918891176
 31
0.0
  0
LWPOLYLINE
  5
BD19
330
1E
100
AcDbEntity
  8
001
100
AcDbPolyline
 90
        3
 70
     0
 43
0.0
 10
9423.190233670993
 20
-2311.084105450745
 10
9419.596090723866
 20
-2318.545816221414
 10
9426.439565307793
 20
-2313.880855938458
  0
LINE
  5
BD1A
330
1E
100
AcDbEntity
  8
002
100
AcDbLine
 10
9425.938999064348
 20
-2328.898775101539
 30
0.0
 11
9424.247569238158
 21
-2330.590204927728
 31
0.0
  0
ARC
  5
BD1B
330
1E
100
AcDbEntity
  8
002
100
AcDbCircle
 10
9421.710424852426
 20
-2298.793963400711
 30
0.0
 40
4.228575
100
AcDbArc
 50
0.0
 51
51.34019199997785
  0
LINE
  5
BD1C
330
1E
100
AcDbEntity
  8
002
100
AcDbLine
 10
9395.800557365006
 20
-2379.218776898571
 30
0.0
 11
9392.648766773689
 21
-2382.742586266964
 31
0.0
  0
ARC
  5
BD1D
330
1E
100
AcDbEntity
  8
002
100
AcDbCircle
 10
9395.487799793047
 20
-2384.152109590057
 30
0.0
 40
2.114285999999999
100
AcDbArc
 50
138.1896850000205
 51
221.8103149999794
  0
LINE
  5
BD1E
330
1E
100
AcDbEntity
  8
002
100
AcDbLine
 10
9392.648766066583
 20
-2385.561633620258
 30
0.0
 11
9395.800558072114
 21
-2389.085442988652
 31
0.0
  0
LINE
  5
BD1F
330
1E
100
AcDbEntity
  8
002
100
AcDbLine
 10
9395.800557365006
 20
-2366.533062040982
 30
0.0
 11
9392.648766773689
 21
-2370.056871409375
 31
0.0
  0
ARC
  5
BD20
330
1E
100
AcDbEntity
  8
002
100
AcDbCircle
 10
9395.487799085939
 20
-2371.466395439574
 30
0.0
 40
2.114285999999999
100
AcDbArc
 50
138.1896850000205
 51
221.8103149999794
  0
LINE
  5
BD21
330
1E
100
AcDbEntity
  8
002
100
AcDbLine
 10
9392.648766773689
 20
-2372.875919469775
 30
0.0
 11
9395.800557365006
 21
-2376.39972883817
 31
0.0
  0
ARC
  5
BD22
330
1E
100
AcDbEntity
  8
002
100
AcDbCircle
 10
9394.224662422901
 20
-2384.152109590057
 30
0.0
 40
2.114285999999999
100
AcDbArc
 50
138.1896850000205
 51
221.8103149999794
  0
ARC
  5
BD23
330
1E
100
AcDbEntity
  8
002
100
AcDbCircle
 10
9394.224661715794
 20
-2371.466395439574
 30
0.0
 40
2.114285999999999
100
AcDbArc
 50
138.1896850000205
 51
221.8103149999794
  0
ARC
  5
BD24
330
1E
100
AcDbEntity
  8
002
100
AcDbCircle
 10
9394.224661715794
 20
-2390.494967018852
 30
0.0
 40
2.114285999999999
100
AcDbArc
 50
318.1896850000205
 51
41.81031499997946
  0
ARC
  5
BD25
330
1E
100
AcDbEntity
  8
002
100
AcDbCircle
 10
9395.487799085939
 20
-2390.494967018852
 30
0.0
 40
2.114285999999999
100
AcDbArc
 50
318.1896850000205
 51
41.81031499997946
  0
LINE
  5
BD26
330
1E
100
AcDbEntity
  8
002
100
AcDbLine
 10
9393.911903436729
 20
-2385.561633620258
 30
0.0
 11
9397.063695442259
 21
-2389.085442988652
 31
0.0
  0
ARC
  5
BD27
330
1E
100
AcDbEntity
  8
002
100
AcDbCircle
 10
9394.224661715794
 20
-2377.809252161263
 30
0.0
 40
2.114285999999999
100
AcDbArc
 50
318.1896850000205
 51
41.81031499997946
  0
LINE
  5
BD28
330
1E
100
AcDbEntity
  8
002
100
AcDbLine
 10
9397.063695442259
 20
-2379.218776191464
 30
0.0
 11
9393.911904143836
 21
-2382.742586266964
 31
0.0
  0
ARC
  5
BD29
330
1E
100
AcDbEntity
  8
002
100
AcDbCircle
 10
9395.487799793045
 20
-2377.80925286837
 30
0.0
 40
2.114285999999999
100
AcDbArc
 50
318.1896850000205
 51
41.81031499997946
  0
LINE
  5
BD2A
330
1E
100
AcDbEntity
  8
002
100
AcDbLine
 10
9397.063694735152
 20
-2366.533062040982
 30
0.0
 11
9393.911904143836
 21
-2370.056871409375
 31
0.0
  0
LINE
  5
BD2B
330
1E
100
AcDbEntity
  8
002
100
AcDbLine
 10
9393.911904143836
 20
-2372.875919469775
 30
0.0
 11
9397.063694735152
 21
-2376.39972883817
 31
0.0
  0
ARC
  5
BD2C
330
1E
100
AcDbEntity
  8
002
100
AcDbCircle
 10
9395.487799085939
 20
-2396.837823740539
 30
0.0
 40
2.114285999999999
100
AcDbArc
 50
138.1896850000205
 51
221.8103149999794
  0
LINE
  5
BD2D
330
1E
100
AcDbEntity
  8
002
100
AcDbLine
 10
9392.648766773689
 20
-2398.247347770741
 30
0.0
 11
9395.800557365006
 21
-2401.771157139133
 31
0.0
  0
ARC
  5
BD2E
330
1E
100
AcDbEntity
  8
002
100
AcDbCircle
 10
9394.224661715794
 20
-2396.837823740539
 30
0.0
 40
2.114285999999999
100
AcDbArc
 50
138.1896850000205
 51
221.8103149999794
  0
LINE
  5
BD2F
330
1E
100
AcDbEntity
  8
002
100
AcDbLine
 10
9393.911904143836
 20
-2398.247347770741
 30
0.0
 11
9397.063694735152
 21
-2401.771157139135
 31
0.0
  0
LINE
  5
BD30
330
1E
100
AcDbEntity
  8
002
100
AcDbLine
 10
9395.800557365006
 20
-2391.904490341945
 30
0.0
 11
9392.648766066583
 21
-2395.428300417446
 31
0.0
  0
LINE
  5
BD31
330
1E
100
AcDbEntity
  8
002
100
AcDbLine
 10
9397.063694735152
 20
-2391.904490341945
 30
0.0
 11
9393.911904143836
 21
-2395.42829971034
 31
0.0
  0
ARC
  5
BD32
330
1E
100
AcDbEntity
  8
002
100
AcDbCircle
 10
9394.224662422901
 20
-2365.12353801078
 30
0.0
 40
2.114285999999999
100
AcDbArc
 50
318.1896850000205
 51
41.81031499997946
  0
ARC
  5
BD33
330
1E
100
AcDbEntity
  8
002
100
AcDbCircle
 10
9395.487799793045
 20
-2365.12353801078
 30
0.0
 40
2.114285999999999
100
AcDbArc
 50
318.1896850000205
 51
41.81031499997946
  0
LINE
  5
BD34
330
1E
100
AcDbEntity
  8
003
100
AcDbLine
 10
9437.624662031337
 20
-2373.747034275194
 30
0.0
 11
9437.624662031337
 21
-2551.860594275194
 31
0.0
  0
LINE
  5
BD35
330
1E
100
AcDbEntity
  8
003
100
AcDbLine
 10
9447.124662031336
 20
-2373.747034275194
 30
0.0
 11
9447.124662031336
 21
-2551.860594275194
 31
0.0
  0
LINE
  5
BD36
330
1E
100
AcDbEntity
  8
001
100
AcDbLine
 10
9458.40739680716
 20
-2640.640069726527
 30
0.0
 11
9554.657396807161
 21
-2640.640069726527
 31
0.0
  0
TEXT
  5
BD37
330
1E
100
AcDbEntity
  8
001
100
AcDbText
 10
9468.03239680716
 20
-2637.140033726527
 30
0.0
 40
11.19999999999999
  1
コルゲートシース
 41
0.716146
100
AcDbText
  0
LINE
  5
BD38
330
1E
100
AcDbEntity
  8
001
100
AcDbLine
 10
9451.310376453625
 20
-2344.867436293916
 30
0.0
 11
9573.688745085663
 21
-2411.514702555767
 31
0.0
  0
ARC
  5
BD39
330
1E
100
AcDbEntity
  8
003
 62
     3
100
AcDbCircle
 10
9467.456934031336
 20
-2348.747034275195
 30
0.0
 40
3.0
100
AcDbArc
 50
270.0
 51
329.8600250000153
  0
ARC
  5
BD3A
330
1E
100
AcDbEntity
  8
003
 62
     3
100
AcDbCircle
 10
9467.456933031336
 20
-2348.747034275195
 30
0.0
 40
3.0
100
AcDbArc
 50
270.0
 51
329.8600250000153
  0
ARC
  5
BD3B
330
1E
100
AcDbEntity
  8
003
 62
     3
100
AcDbCircle
 10
9467.456933031336
 20
-2348.747034275195
 30
0.0
 40
3.0
100
AcDbArc
 50
270.0
 51
329.8600250000153
  0
LWPOLYLINE
  5
BD3C
330
1E
100
AcDbEntity
  8
001
100
AcDbPolyline
 90
        3
 70
     0
 43
0.0
 10
9459.336385171873
 20
-2346.911494806799
 10
9451.310376453625
 20
-2344.867436293916
 10
9457.23907531838
 20
-2350.65064721809
  0
ARC
  5
BD3D
330
1E
100
AcDbEntity
  8
002
100
AcDbCircle
 10
9451.591383516895
 20
-2349.209891303677
 30
0.0
 40
2.537142999999999
100
AcDbArc
 50
270.0
 51
329.8600250000153
  0
LINE
  5
BD3E
330
1E
100
AcDbEntity
  8
002
100
AcDbLine
 10
9451.310375746517
 20
-2330.59020492773
 30
0.0
 11
9451.310376453625
 21
-2351.747034275196
 31
0.0
  0
LINE
  5
BD3F
330
1E
100
AcDbEntity
  8
003
100
AcDbLine
 10
9430.024662031335
 20
-2351.747034275195
 30
0.0
 11
9430.024662031335
 21
-2373.747034275194
 31
0.0
  0
LINE
  5
BD40
330
1E
100
AcDbEntity
  8
003
 62
     3
100
AcDbLine
 10
9430.024662031335
 20
-2351.747034275195
 30
0.0
 11
9430.024662031335
 21
-2373.747034275194
 31
0.0
  0
ARC
  5
BD41
330
1E
100
AcDbEntity
  8
003
 62
     3
100
AcDbCircle
 10
9475.497494031337
 20
-2370.747034275195
 30
0.0
 40
3.0
100
AcDbArc
 50
270.0
 51
329.8600250000153
  0
ARC
  5
BD42
330
1E
100
AcDbEntity
  8
003
 62
     3
100
AcDbCircle
 10
9475.497493031337
 20
-2370.747034275195
 30
0.0
 40
3.0
100
AcDbArc
 50
270.0
 51
329.8600250000153
  0
LINE
  5
BD43
330
1E
100
AcDbEntity
  8
001
100
AcDbLine
 10
9395.366376830796
 20
-2179.143864110536
 30
0.0
 11
9466.240408031335
 21
-2141.730424556019
 31
0.0
  0
LINE
  5
BD44
330
1E
100
AcDbEntity
  8
003
100
AcDbLine
 10
9422.954801227023
 20
-2226.747034275195
 30
0.0
 11
9562.574662031336
 21
-2226.747034275195
 31
0.0
  0
LINE
  5
BD45
330
1E
100
AcDbEntity
  8
002
100
AcDbLine
 10
9350.081088452895
 20
-2262.933062084719
 30
0.0
 11
9345.046376447978
 21
-2262.933062084717
 31
0.0
  0
LINE
  5
BD46
330
1E
100
AcDbEntity
  8
002
100
AcDbLine
 10
9314.620053193237
 20
-2178.361505014298
 30
0.0
 11
9414.629270869435
 21
-2178.361505014298
 31
0.0
  0
LINE
  5
BD47
330
1E
100
AcDbEntity
  8
002
100
AcDbLine
 10
9410.508119612606
 20
-2182.590079933325
 30
0.0
 11
9318.741204450068
 21
-2182.590079933325
 31
0.0
  0
LINE
  5
BD48
330
1E
100
AcDbEntity
  8
001
100
AcDbLine
 10
9314.868991587264
 20
-2179.293717135602
 30
0.0
 11
9273.064433587263
 21
-2120.920495135602
 31
0.0
  0
LWPOLYLINE
  5
BD49
330
1E
100
AcDbEntity
  8
001
100
AcDbPolyline
 90
        3
 70
     0
 43
0.0
 10
9308.607691668541
 20
-2173.872359881436
 10
9314.868991587264
 20
-2179.293717135602
 10
9312.157224800623
 20
-2171.468033796922
  0
ARC
  5
BD4A
330
1E
100
AcDbEntity
  8
002
100
AcDbCircle
 10
9318.741204450068
 20
-2186.818654852353
 30
0.0
 40
4.228575
100
AcDbArc
 50
90.0
 51
178.5258020000115
  0
ARC
  5
BD4B
330
1E
100
AcDbEntity
  8
002
100
AcDbCircle
 10
9314.620053193237
 20
-2182.590079933325
 30
0.0
 40
4.228575
100
AcDbArc
 50
90.0
 51
178.5258020000115
  0
LINE
  5
BD4C
330
1E
100
AcDbEntity
  8
002
100
AcDbLine
 10
9344.623519521759
 20
-2210.785704739164
 30
0.0
 11
9341.838020142594
 21
-2200.390080350347
 31
0.0
  0
LINE
  5
BD4D
330
1E
100
AcDbEntity
  8
002
100
AcDbLine
 10
9344.623519521759
 20
-2200.39007964324
 30
0.0
 11
9333.882947938986
 21
-2200.39007964324
 31
0.0
  0
LINE
  5
BD4E
330
1E
100
AcDbEntity
  8
002
100
AcDbLine
 10
9344.623519521759
 20
-2249.422737683686
 30
0.0
 11
9333.882947231877
 21
-2209.338379487548
 31
0.0
  0
LINE
  5
BD4F
330
1E
100
AcDbEntity
  8
002
100
AcDbLine
 10
9328.310481226973
 20
-2265.889909700423
 30
0.0
 11
9327.836090358543
 21
-2265.470205056235
 31
0.0
  0
LINE
  5
BD50
330
1E
100
AcDbEntity
  8
002
100
AcDbLine
 10
9333.460091012765
 20
-2262.933062084717
 30
0.0
 11
9333.882947938985
 21
-2263.177199186204
 31
0.0
  0
ARC
  5
BD51
330
1E
100
AcDbEntity
  8
002
100
AcDbCircle
 10
9328.425379007848
 20
-2263.355919010935
 30
0.0
 40
0.422857
100
AcDbArc
 50
90.0
 51
186.9999999999797
  0
LINE
  5
BD52
330
1E
100
AcDbEntity
  8
002
100
AcDbLine
 10
9328.425379007848
 20
-2262.933062084717
 30
0.0
 11
9333.460091012765
 21
-2262.933062084717
 31
0.0
  0
LINE
  5
BD53
330
1E
100
AcDbEntity
  8
002
100
AcDbLine
 10
9318.956090665336
 20
-2265.470205056235
 30
0.0
 11
9318.110376105796
 21
-2266.315919615777
 31
0.0
  0
LINE
  5
BD54
330
1E
100
AcDbEntity
  8
002
100
AcDbLine
 10
9327.836090358543
 20
-2265.470205056235
 30
0.0
 11
9318.956090665336
 21
-2265.470205056235
 31
0.0
  0
LINE
  5
BD55
330
1E
100
AcDbEntity
  8
002
100
AcDbLine
 10
9345.046376447978
 20
-2262.933062084717
 30
0.0
 11
9344.623518814653
 21
-2263.177198479097
 31
0.0
  0
LINE
  5
BD56
330
1E
100
AcDbEntity
  8
002
100
AcDbLine
 10
9395.366376830796
 20
-2245.61249350037
 30
0.0
 11
9384.625804540913
 21
-2205.52813530423
 31
0.0
  0
LINE
  5
BD57
330
1E
100
AcDbEntity
  8
002
100
AcDbLine
 10
9395.366376123687
 20
-2200.39007964324
 30
0.0
 11
9384.625804540913
 21
-2200.39007964324
 31
0.0
  0
LINE
  5
BD58
330
1E
100
AcDbEntity
  8
002
100
AcDbLine
 10
9395.366376830795
 20
-2284.249526444891
 30
0.0
 11
9384.625804540913
 21
-2244.165168248753
 31
0.0
  0
LINE
  5
BD59
330
1E
100
AcDbEntity
  8
002
100
AcDbLine
 10
9367.81014979631
 20
-2178.361505014298
 30
0.0
 11
9367.699421117016
 21
-2182.590079933325
 31
0.0
  0
LINE
  5
BD5A
330
1E
100
AcDbEntity
  8
002
100
AcDbLine
 10
9368.233006722526
 20
-2178.361505014298
 30
0.0
 11
9368.122278043236
 21
-2182.590079933325
 31
0.0
  0
LINE
  5
BD5B
330
1E
100
AcDbEntity
  8
002
100
AcDbLine
 10
9361.439174266362
 20
-2178.361505014296
 30
0.0
 11
9361.549902945656
 21
-2182.590079933325
 31
0.0
  0
LINE
  5
BD5C
330
1E
100
AcDbEntity
  8
002
100
AcDbLine
 10
9361.016317340146
 20
-2178.361505014298
 30
0.0
 11
9361.127046019438
 21
-2182.590079933325
 31
0.0
  0
LINE
  5
BD5D
330
1E
100
AcDbEntity
  8
002
100
AcDbLine
 10
9369.994947822725
 20
-2200.39007964324
 30
0.0
 11
9359.254376239947
 21
-2200.39007964324
 31
0.0
  0
LINE
  5
BD5E
330
1E
100
AcDbEntity
  8
002
100
AcDbLine
 10
9369.994947822725
 20
-2228.199098766212
 30
0.0
 11
9362.543543536714
 21
-2200.390080350347
 31
0.0
  0
LINE
  5
BD5F
330
1E
100
AcDbEntity
  8
002
100
AcDbLine
 10
9375.452516753862
 20
-2262.933062084717
 30
0.0
 11
9370.417804748941
 21
-2262.933062084717
 31
0.0
  0
LINE
  5
BD60
330
1E
100
AcDbEntity
  8
002
100
AcDbLine
 10
9370.417804748941
 20
-2262.933062084717
 30
0.0
 11
9369.994947822725
 21
-2263.177199186204
 31
0.0
  0
LINE
  5
BD61
330
1E
100
AcDbEntity
  8
002
100
AcDbLine
 10
9384.202947614696
 20
-2262.933062084719
 30
0.0
 11
9384.625805248019
 21
-2263.177198479097
 31
0.0
  0
LINE
  5
BD62
330
1E
100
AcDbEntity
  8
002
100
AcDbLine
 10
9379.053338536007
 20
-2265.889910407529
 30
0.0
 11
9378.578947667575
 21
-2265.470204349128
 31
0.0
  0
ARC
  5
BD63
330
1E
100
AcDbEntity
  8
002
100
AcDbCircle
 10
9379.168235609775
 20
-2263.355919010935
 30
0.0
 40
0.422857
100
AcDbArc
 50
90.0
 51
186.9999999999797
  0
LINE
  5
BD64
330
1E
100
AcDbEntity
  8
002
100
AcDbLine
 10
9375.567414534737
 20
-2265.889909700423
 30
0.0
 11
9376.041805403167
 21
-2265.470205056235
 31
0.0
  0
ARC
  5
BD65
330
1E
100
AcDbEntity
  8
002
100
AcDbCircle
 10
9375.452516753862
 20
-2263.355919010935
 30
0.0
 40
0.422857
100
AcDbArc
 50
353.0000000000202
 51
90.0
  0
LINE
  5
BD66
330
1E
100
AcDbEntity
  8
002
100
AcDbLine
 10
9379.168235609775
 20
-2262.933062084719
 30
0.0
 11
9384.202947614696
 21
-2262.933062084719
 31
0.0
  0
LINE
  5
BD67
330
1E
100
AcDbEntity
  8
002
100
AcDbLine
 10
9378.578947667575
 20
-2265.470204349128
 30
0.0
 11
9376.041805403167
 21
-2265.470205056235
 31
0.0
  0
LINE
  5
BD68
330
1E
100
AcDbEntity
  8
002
100
AcDbLine
 10
9353.681909527935
 20
-2265.889909700423
 30
0.0
 11
9353.207518659507
 21
-2265.470205056235
 31
0.0
  0
LINE
  5
BD69
330
1E
100
AcDbEntity
  8
002
100
AcDbLine
 10
9350.195985526665
 20
-2265.889910407529
 30
0.0
 11
9350.670375687988
 21
-2265.470205056235
 31
0.0
  0
ARC
  5
BD6A
330
1E
100
AcDbEntity
  8
002
100
AcDbCircle
 10
9353.796807308812
 20
-2263.355919010935
 30
0.0
 40
0.422857
100
AcDbArc
 50
90.0
 51
186.9999999999797
  0
LINE
  5
BD6B
330
1E
100
AcDbEntity
  8
002
100
AcDbLine
 10
9353.796807308812
 20
-2262.933062084717
 30
0.0
 11
9358.831519313731
 21
-2262.933062084717
 31
0.0
  0
ARC
  5
BD6C
330
1E
100
AcDbEntity
  8
002
100
AcDbCircle
 10
9350.081088452895
 20
-2263.355919010935
 30
0.0
 40
0.422857
100
AcDbArc
 50
353.0000000000202
 51
90.0
  0
LINE
  5
BD6D
330
1E
100
AcDbEntity
  8
002
100
AcDbLine
 10
9353.207518659507
 20
-2265.470205056235
 30
0.0
 11
9350.670375687988
 21
-2265.470205056235
 31
0.0
  0
LINE
  5
BD6E
330
1E
100
AcDbEntity
  8
002
100
AcDbLine
 10
9358.831519313731
 20
-2262.933062084717
 30
0.0
 11
9359.254376239947
 21
-2263.177199186204
 31
0.0
  0
LINE
  5
BD6F
330
1E
100
AcDbEntity
  8
002
100
AcDbLine
 10
9369.994947822725
 20
-2266.836131710735
 30
0.0
 11
9359.254376239947
 21
-2226.751774221704
 31
0.0
  0
ARC
  5
BD70
330
1E
100
AcDbEntity
  8
002
100
AcDbCircle
 10
9414.629270869435
 20
-2182.590079933325
 30
0.0
 40
4.228575
100
AcDbArc
 50
1.474197999988435
 51
90.0
  0
ARC
  5
BD71
330
1E
100
AcDbEntity
  8
002
100
AcDbCircle
 10
9410.508119612606
 20
-2186.818654852353
 30
0.0
 40
4.228575
100
AcDbArc
 50
1.474197999988435
 51
90.0
  0
LWPOLYLINE
  5
BD72
330
1E
100
AcDbEntity
  8
001
100
AcDbPolyline
 90
        3
 70
     0
 43
0.0
 10
9401.468984126422
 20
-2173.544473487896
 10
9395.366376830796
 20
-2179.143864110534
 10
9403.451085433241
 20
-2177.345952645528
  0
LINE
  5
BD73
330
1E
100
AcDbEntity
  8
002
100
AcDbLine
 10
9395.366376123689
 20
-2206.975459848739
 30
0.0
 11
9393.601829335002
 21
-2200.39007964324
 31
0.0
  0
LINE
  5
BD74
330
1E
100
AcDbEntity
  8
002
  6
CENTER
100
AcDbLine
 10
9413.75000762866
 20
-2254.475854971013
 30
0.0
 11
9422.899989176203
 21
-2254.475854971013
 31
0.0
  0
LINE
  5
BD75
330
1E
100
AcDbEntity
  8
002
100
AcDbLine
 10
9410.293233397338
 20
-2265.470205056235
 30
0.0
 11
9411.138947956876
 21
-2266.315919615777
 31
0.0
  0
LINE
  5
BD76
330
1E
100
AcDbEntity
  8
002
100
AcDbLine
 10
9420.804005882827
 20
-2258.157925443638
 30
0.0
 11
9416.571178423618
 21
-2258.047085041473
 31
0.0
  0
LINE
  5
BD77
330
1E
100
AcDbEntity
  8
002
100
AcDbLine
 10
9420.793109367329
 20
-2257.734497175142
 30
0.0
 11
9416.560281908116
 21
-2257.623656772977
 31
0.0
  0
LINE
  5
BD78
330
1E
100
AcDbEntity
  8
002
100
AcDbLine
 10
9420.62549819013
 20
-2251.221601071569
 30
0.0
 11
9416.39837142579
 21
-2251.332292981309
 31
0.0
  0
LINE
  5
BD79
330
1E
100
AcDbEntity
  8
002
100
AcDbLine
 10
9420.614615816768
 20
-2250.798744145351
 30
0.0
 11
9416.387489052429
 21
-2250.909434640878
 31
0.0
  0
LINE
  5
BD7A
330
1E
100
AcDbEntity
  8
002
100
AcDbLine
 10
9400.938842835699
 20
-2265.889909700423
 30
0.0
 11
9401.413233704131
 21
-2265.470205056235
 31
0.0
  0
LINE
  5
BD7B
330
1E
100
AcDbEntity
  8
002
100
AcDbLine
 10
9395.789233049905
 20
-2262.933062084719
 30
0.0
 11
9395.366376123687
 21
-2263.177199186204
 31
0.0
  0
LINE
  5
BD7C
330
1E
100
AcDbEntity
  8
002
100
AcDbLine
 10
9400.823945054824
 20
-2262.933062084717
 30
0.0
 11
9395.789233049905
 21
-2262.933062084719
 31
0.0
  0
ARC
  5
BD7D
330
1E
100
AcDbEntity
  8
002
100
AcDbCircle
 10
9400.823945054824
 20
-2263.355919010935
 30
0.0
 40
0.422857
100
AcDbArc
 50
353.0000000000202
 51
90.0
  0
LINE
  5
BD7E
330
1E
100
AcDbEntity
  8
002
100
AcDbLine
 10
9410.293233397338
 20
-2265.470205056235
 30
0.0
 11
9401.413233704131
 21
-2265.470205056235
 31
0.0
  0
TEXT
  5
BD7F
330
1E
100
AcDbEntity
  8
001
100
AcDbText
 10
9475.865408031335
 20
-2138.230406556018
 30
0.0
 40
11.19999999999999
  1
ＰＣ鋼より線
 41
0.716146
100
AcDbText
  0
LINE
  5
BD80
330
1E
100
AcDbEntity
  8
001
100
AcDbLine
 10
9466.240408031335
 20
-2141.730424556019
 30
0.0
 11
9543.240408031335
 21
-2141.730424556019
 31
0.0
  0
LINE
  5
BD81
330
1E
100
AcDbEntity
  8
003
  6
ByBlock
100
AcDbLine
 10
9549.624662078649
 20
-2226.747034592421
 30
0.0
 11
9551.811878694552
 21
-2201.747034275194
 31
0.0
  0
LWPOLYLINE
  5
BD82
330
1E
100
AcDbEntity
  8
001
100
AcDbPolyline
 90
        3
 70
     0
 43
0.0
 10
9538.138875774395
 20
-2100.958407065103
 10
9533.293196774396
 20
-2106.347047065104
 10
9540.183997774395
 20
-2104.103187065104
  0
LINE
  5
BD83
330
1E
100
AcDbEntity
  8
003
 62
     3
100
AcDbLine
 10
9738.151338239514
 20
-2409.804942003617
 30
0.0
 11
9738.151338239514
 21
-2182.784408339079
 31
0.0
  0
LINE
  5
BD84
330
1E
100
AcDbEntity
  8
003
 62
     3
100
AcDbLine
 10
9738.151338239514
 20
-2409.804942003617
 30
0.0
 11
9757.875221239512
 21
-2409.804942003617
 31
0.0
  0
LINE
  5
BD85
330
1E
100
AcDbEntity
  8
003
 62
     3
100
AcDbLine
 10
9757.875221239512
 20
-2409.804942003617
 30
0.0
 11
9719.750940239514
 21
-2456.406979003617
 31
0.0
  0
LINE
  5
BD86
330
1E
100
AcDbEntity
  8
003
 62
     3
100
AcDbLine
 10
9738.151338239514
 20
-2456.406979003617
 30
0.0
 11
9738.151338239514
 21
-2595.443754374704
 31
0.0
  0
LINE
  5
BD87
330
1E
100
AcDbEntity
  8
003
 62
     3
100
AcDbLine
 10
9719.750940239514
 20
-2456.406979003617
 30
0.0
 11
9738.151338239514
 21
-2456.406979003617
 31
0.0
  0
LINE
  5
BD88
330
1E
100
AcDbEntity
  8
003
 48
0.25
100
AcDbLine
 10
9739.878506700319
 20
-2217.040582926496
 30
0.0
 11
9666.351830492143
 21
-2201.747034275194
 31
0.0
  0
LINE
  5
BD89
330
1E
100
AcDbEntity
  8
001
100
AcDbLine
 10
9600.474479774396
 20
-2062.657527065104
 30
0.0
 11
9662.934680218175
 21
-2062.657527065104
 31
0.0
  0
TEXT
  5
BD8A
330
1E
100
AcDbEntity
  8
001
100
AcDbText
 10
9601.170260352144
 20
-2076.922952922261
 30
0.0
 40
11.19999999999999
  1
(高さ110mm)
 41
0.716146
100
AcDbText
  0
TEXT
  5
BD8B
330
1E
100
AcDbEntity
  8
001
100
AcDbText
 10
9610.099479774396
 20
-2059.157509065104
 30
0.0
 40
11.19999999999999
  1
蓋
 41
0.716146
100
AcDbText
  0
DIMENSION
  5
BE3E
330
1E
100
AcDbEntity
  8
001
100
AcDbDimension
  2
*D9
 10
8356.137739412334
 20
-2163.108205372792
 30
0.0
 11
8384.250891009827
 21
-2105.525801120388
 31
0.0
 70
    34
 71
     5
 42
0.174532925199435
  3
ISO-25
100
AcDb2LineAngularDimension
 13
8314.756403971498
 23
-2661.545809632293
 33
0.0
 14
8402.64440180214
 24
-2163.108205372792
 34
0.0
 15
8356.137739412334
 25
-2661.545809632293
 35
0.0
 16
8392.061210326748
 26
-2119.515658330777
 36
0.0
  0
ENDSEC
  0
SECTION
  2
OBJECTS
  0
DICTIONARY
  5
C
330
0
100
AcDbDictionary
281
     1
  3
ACAD_GROUP
350
D
  3
ACAD_LAYOUT
350
19
  3
ACAD_MLINESTYLE
350
16
  3
ACAD_PLOTSETTINGS
350
18
  3
ACAD_PLOTSTYLENAME
350
E
  3
AcDbVariableDictionary
350
4BD
  3
DWGPROPS
350
B1EC
  0
DICTIONARY
  5
D
102
{ACAD_REACTORS
330
C
102
}
330
C
100
AcDbDictionary
281
     1
  0
DICTIONARY
  5
19
102
{ACAD_REACTORS
330
C
102
}
330
C
100
AcDbDictionary
281
     1
  3
Model
350
21
  3
ﾚｲｱｳﾄ1
350
1D
  0
DICTIONARY
  5
16
102
{ACAD_REACTORS
330
C
102
}
330
C
100
AcDbDictionary
281
     1
  3
Standard
350
17
  0
DICTIONARY
  5
18
102
{ACAD_REACTORS
330
C
102
}
330
C
100
AcDbDictionary
281
     1
  0
ACDBDICTIONARYWDFLT
  5
E
102
{ACAD_REACTORS
330
C
102
}
330
C
100
AcDbDictionary
281
     1
  3
Normal
350
F
100
AcDbDictionaryWithDefault
340
F
  0
DICTIONARY
  5
4BD
102
{ACAD_REACTORS
330
C
102
}
330
C
100
AcDbDictionary
281
     1
  3
DIMASSOC
350
4BE
  0
XRECORD
  5
B1EC
102
{ACAD_REACTORS
330
C
102
}
330
C
100
AcDbXrecord
280
     1
  1
DWGPROPS COOKIE
  2

  3

  4

  6

  7

  8

  9

300
=
301
=
302
=
303
=
304
=
305
=
306
=
307
=
308
=
309
=
 40
0.8365605324074072
 41
2453874.389934525
 42
2454273.747527268
  1

 90
        0
  0
LAYOUT
  5
21
102
{ACAD_REACTORS
330
19
102
}
330
19
100
AcDbPlotSettings
  1

  2
EPSON LP-9000C
  4
A3
  6

 40
5.873749732971191
 41
5.873747825622558
 42
5.873748779296875
 43
5.873748779296875
 44
297.0106506347656
 45
419.9466552734374
 46
0.0
 47
0.0
 48
5029.70424967919
 49
-3394.266830878659
140
7102.404249679191
141
-1928.571830878659
142
1.0
143
5.138045306919282
 70
 11952
 72
     1
 73
     1
 74
     4
  7
ZenithProtter.ctb
 75
     0
147
0.1946265438051556
148
-5029.70424967919
149
3394.266830878659
100
AcDbLayout
  1
Model
 70
     1
 71
     0
 10
0.0
 20
0.0
 11
12.0
 21
9.0
 12
0.0
 22
0.0
 32
0.0
 14
0.0
 24
0.0
 34
0.0
 15
0.0
 25
0.0
 35
0.0
146
0.0
 13
0.0
 23
0.0
 33
0.0
 16
1.0
 26
0.0
 36
0.0
 17
0.0
 27
1.0
 37
0.0
 76
     0
330
1E
  0
LAYOUT
  5
1D
102
{ACAD_REACTORS
330
19
102
}
330
19
100
AcDbPlotSettings
  1

  2
EPSON LP-9000C
  4

  6

 40
0.0
 41
0.0
 42
0.0
 43
0.0
 44
0.0
 45
0.0
 46
0.0
 47
0.0
 48
0.0
 49
0.0
140
0.0
141
0.0
142
1.0
143
1.0
 70
   688
 72
     0
 73
     0
 74
     5
  7
ZenithProtter.ctb
 75
    16
147
1.0
148
0.0
149
0.0
100
AcDbLayout
  1
ﾚｲｱｳﾄ1
 70
     1
 71
     1
 10
0.0
 20
0.0
 11
12.0
 21
9.0
 12
0.0
 22
0.0
 32
0.0
 14
1.000000000000000E+20
 24
1.000000000000000E+20
 34
1.000000000000000E+20
 15
-1.000000000000000E+20
 25
-1.000000000000000E+20
 35
-1.000000000000000E+20
146
0.0
 13
0.0
 23
0.0
 33
0.0
 16
1.0
 26
0.0
 36
0.0
 17
0.0
 27
1.0
 37
0.0
 76
     0
330
1A
  0
MLINESTYLE
  5
17
102
{ACAD_REACTORS
330
16
102
}
330
16
100
AcDbMlineStyle
  2
STANDARD
 70
     0
  3

 62
   256
 51
90.0
 52
90.0
 71
     2
 49
0.5
 62
   256
  6
BYLAYER
 49
-0.5
 62
   256
  6
BYLAYER
  0
ACDBPLACEHOLDER
  5
F
102
{ACAD_REACTORS
330
E
102
}
330
E
  0
DICTIONARYVAR
  5
4BE
102
{ACAD_REACTORS
330
4BD
102
}
330
4BD
100
DictionaryVariables
280
     0
  1
1
  0
ENDSEC
  0
EOF
