  0
SECTION
  2
HEADER
  9
$ACADVER
  1
AC1015
  9
$ACADMAINTVER
 70
    13
  9
$DWGCODEPAGE
  3
ANSI_932
  9
$INSBASE
 10
0.0
 20
0.0
 30
0.0
  9
$EXTMIN
 10
7594.819555722906
 20
-2675.928823249146
 30
0.0
  9
$EXTMAX
 10
9667.519555722906
 20
-1210.233823249145
 30
0.0
  9
$LIMMIN
 10
7588.24255159087
 20
-2679.455256499461
  9
$LIMMAX
 10
9681.137647765403
 20
-1207.136655268362
  9
$ORTHOMODE
 70
     1
  9
$REGENMODE
 70
     1
  9
$FILLMODE
 70
     1
  9
$QTEXTMODE
 70
     0
  9
$MIRRTEXT
 70
     1
  9
$LTSCALE
 40
24.5
  9
$ATTMODE
 70
     1
  9
$TEXTSIZE
 40
0.2
  9
$TRACEWID
 40
0.05
  9
$TEXTSTYLE
  7
STANDARD
  9
$CLAYER
  8
001
  9
$CELTYPE
  6
ByLayer
  9
$CECOLOR
 62
   256
  9
$CELTSCALE
 40
1.0
  9
$DISPSILH
 70
     0
  9
$DIMSCALE
 40
15.0
  9
$DIMASZ
 40
0.75
  9
$DIMEXO
 40
0.625
  9
$DIMDLI
 40
3.75
  9
$DIMRND
 40
0.0
  9
$DIMDLE
 40
0.0
  9
$DIMEXE
 40
0.0
  9
$DIMTP
 40
0.0
  9
$DIMTM
 40
0.0
  9
$DIMTXT
 40
0.75
  9
$DIMCEN
 40
2.5
  9
$DIMTSZ
 40
0.0
  9
$DIMTOL
 70
     0
  9
$DIMLIM
 70
     0
  9
$DIMTIH
 70
     0
  9
$DIMTOH
 70
     0
  9
$DIMSE1
 70
     0
  9
$DIMSE2
 70
     0
  9
$DIMTAD
 70
     1
  9
$DIMZIN
 70
     8
  9
$DIMBLK
  1
Open
  9
$DIMASO
 70
     1
  9
$DIMSHO
 70
     1
  9
$DIMPOST
  1

  9
$DIMAPOST
  1

  9
$DIMALT
 70
     0
  9
$DIMALTD
 70
     2
  9
$DIMALTF
 40
0.0394
  9
$DIMLFAC
 40
1.0
  9
$DIMTOFL
 70
     1
  9
$DIMTVP
 40
1.0
  9
$DIMTIX
 70
     0
  9
$DIMSOXD
 70
     0
  9
$DIMSAH
 70
     0
  9
$DIMBLK1
  1

  9
$DIMBLK2
  1

  9
$DIMSTYLE
  2
ISO-25
  9
$DIMCLRD
 70
     0
  9
$DIMCLRE
 70
     0
  9
$DIMCLRT
 70
     0
  9
$DIMTFAC
 40
1.0
  9
$DIMGAP
 40
0.5
  9
$DIMJUST
 70
     0
  9
$DIMSD1
 70
     0
  9
$DIMSD2
 70
     0
  9
$DIMTOLJ
 70
     1
  9
$DIMTZIN
 70
     0
  9
$DIMALTZ
 70
     0
  9
$DIMALTTZ
 70
     0
  9
$DIMUPT
 70
     0
  9
$DIMDEC
 70
     0
  9
$DIMTDEC
 70
     0
  9
$DIMALTU
 70
     2
  9
$DIMALTTD
 70
     2
  9
$DIMTXSTY
  7
STANDARD
  9
$DIMAUNIT
 70
     0
  9
$DIMADEC
 70
     0
  9
$DIMALTRND
 40
0.0
  9
$DIMAZIN
 70
     0
  9
$DIMDSEP
 70
    46
  9
$DIMATFIT
 70
     3
  9
$DIMFRAC
 70
     0
  9
$DIMLDRBLK
  1

  9
$DIMLUNIT
 70
     2
  9
$DIMLWD
 70
    -2
  9
$DIMLWE
 70
    -2
  9
$DIMTMOVE
 70
     0
  9
$LUNITS
 70
     2
  9
$LUPREC
 70
     4
  9
$SKETCHINC
 40
0.1
  9
$FILLETRAD
 40
0.0
  9
$AUNITS
 70
     0
  9
$AUPREC
 70
     0
  9
$MENU
  1
.
  9
$ELEVATION
 40
0.0
  9
$PELEVATION
 40
0.0
  9
$THICKNESS
 40
0.0
  9
$LIMCHECK
 70
     0
  9
$CHAMFERA
 40
0.0
  9
$CHAMFERB
 40
0.0
  9
$CHAMFERC
 40
0.0
  9
$CHAMFERD
 40
0.0
  9
$SKPOLY
 70
     0
  9
$TDCREATE
 40
2453874.389934525
  9
$TDUCREATE
 40
2453874.014934525
  9
$TDUPDATE
 40
2454278.537661666
  9
$TDUUPDATE
 40
2454278.162661666
  9
$TDINDWG
 40
0.9538290741
  9
$TDUSRTIMER
 40
0.9538290741
  9
$USRTIMER
 70
     1
  9
$ANGBASE
 50
0.0
  9
$ANGDIR
 70
     0
  9
$PDMODE
 70
     0
  9
$PDSIZE
 40
0.0
  9
$PLINEWID
 40
0.0
  9
$SPLFRAME
 70
     0
  9
$SPLINETYPE
 70
     6
  9
$SPLINESEGS
 70
     8
  9
$HANDSEED
  5
B1DC
  9
$SURFTAB1
 70
     6
  9
$SURFTAB2
 70
     6
  9
$SURFTYPE
 70
     6
  9
$SURFU
 70
     6
  9
$SURFV
 70
     6
  9
$UCSBASE
  2

  9
$UCSNAME
  2

  9
$UCSORG
 10
0.0
 20
0.0
 30
0.0
  9
$UCSXDIR
 10
1.0
 20
0.0
 30
0.0
  9
$UCSYDIR
 10
0.0
 20
1.0
 30
0.0
  9
$UCSORTHOREF
  2

  9
$UCSORTHOVIEW
 70
     0
  9
$UCSORGTOP
 10
0.0
 20
0.0
 30
0.0
  9
$UCSORGBOTTOM
 10
0.0
 20
0.0
 30
0.0
  9
$UCSORGLEFT
 10
0.0
 20
0.0
 30
0.0
  9
$UCSORGRIGHT
 10
0.0
 20
0.0
 30
0.0
  9
$UCSORGFRONT
 10
0.0
 20
0.0
 30
0.0
  9
$UCSORGBACK
 10
0.0
 20
0.0
 30
0.0
  9
$PUCSBASE
  2

  9
$PUCSNAME
  2

  9
$PUCSORG
 10
0.0
 20
0.0
 30
0.0
  9
$PUCSXDIR
 10
1.0
 20
0.0
 30
0.0
  9
$PUCSYDIR
 10
0.0
 20
1.0
 30
0.0
  9
$PUCSORTHOREF
  2

  9
$PUCSORTHOVIEW
 70
     0
  9
$PUCSORGTOP
 10
0.0
 20
0.0
 30
0.0
  9
$PUCSORGBOTTOM
 10
0.0
 20
0.0
 30
0.0
  9
$PUCSORGLEFT
 10
0.0
 20
0.0
 30
0.0
  9
$PUCSORGRIGHT
 10
0.0
 20
0.0
 30
0.0
  9
$PUCSORGFRONT
 10
0.0
 20
0.0
 30
0.0
  9
$PUCSORGBACK
 10
0.0
 20
0.0
 30
0.0
  9
$USERI1
 70
     0
  9
$USERI2
 70
     0
  9
$USERI3
 70
     0
  9
$USERI4
 70
     0
  9
$USERI5
 70
     0
  9
$USERR1
 40
0.0
  9
$USERR2
 40
0.0
  9
$USERR3
 40
0.0
  9
$USERR4
 40
0.0
  9
$USERR5
 40
0.0
  9
$WORLDVIEW
 70
     1
  9
$SHADEDGE
 70
     3
  9
$SHADEDIF
 70
    70
  9
$TILEMODE
 70
     1
  9
$MAXACTVP
 70
    64
  9
$PINSBASE
 10
0.0
 20
0.0
 30
0.0
  9
$PLIMCHECK
 70
     0
  9
$PEXTMIN
 10
1.000000000000000E+20
 20
1.000000000000000E+20
 30
1.000000000000000E+20
  9
$PEXTMAX
 10
-1.000000000000000E+20
 20
-1.000000000000000E+20
 30
-1.000000000000000E+20
  9
$PLIMMIN
 10
0.0
 20
0.0
  9
$PLIMMAX
 10
12.0
 20
9.0
  9
$UNITMODE
 70
     0
  9
$VISRETAIN
 70
     1
  9
$PLINEGEN
 70
     0
  9
$PSLTSCALE
 70
     1
  9
$TREEDEPTH
 70
  3020
  9
$CMLSTYLE
  2
Standard
  9
$CMLJUST
 70
     0
  9
$CMLSCALE
 40
1.0
  9
$PROXYGRAPHICS
 70
     1
  9
$MEASUREMENT
 70
     0
  9
$CELWEIGHT
370
    -1
  9
$ENDCAPS
280
     0
  9
$JOINSTYLE
280
     0
  9
$LWDISPLAY
290
     0
  9
$INSUNITS
 70
     0
  9
$HYPERLINKBASE
  1

  9
$STYLESHEET
  1
ZenithProtter.ctb
  9
$XEDIT
290
     1
  9
$CEPSNTYPE
380
     0
  9
$PSTYLEMODE
290
     1
  9
$FINGERPRINTGUID
  2
{DB2F255E-76A1-4E9F-8FDF-6D653DC3006F}
  9
$VERSIONGUID
  2
{5065F88D-E7E4-4A2C-8F0D-2B8331E6608E}
  9
$EXTNAMES
290
     1
  9
$PSVPSCALE
 40
0.0
  9
$OLESTARTUP
290
     0
  0
ENDSEC
  0
SECTION
  2
CLASSES
  0
CLASS
  1
ACDBDICTIONARYWDFLT
  2
AcDbDictionaryWithDefault
  3
AutoCAD 2000
 90
        0
280
     0
281
     0
  0
CLASS
  1
ACDBPLACEHOLDER
  2
AcDbPlaceHolder
  3
AutoCAD 2000
 90
        0
280
     0
281
     0
  0
CLASS
  1
LAYOUT
  2
AcDbLayout
  3
AutoCAD 2000
 90
        0
280
     0
281
     0
  0
CLASS
  1
DICTIONARYVAR
  2
AcDbDictionaryVar
  3
AutoCAD 2000
 90
        0
280
     0
281
     0
  0
ENDSEC
  0
SECTION
  2
TABLES
  0
TABLE
  2
VPORT
  5
8
330
0
100
AcDbSymbolTable
 70
     2
  0
VPORT
  5
B1DB
330
8
100
AcDbSymbolTableRecord
100
AcDbViewportTableRecord
  2
*Active
 70
     0
 10
0.0
 20
0.0
 11
1.0
 21
1.0
 12
8634.690099678136
 22
-1943.295955883911
 13
0.0
 23
0.0
 14
1.0
 24
1.0
 15
0.0
 25
0.0
 16
0.0
 26
0.0
 36
1.0
 17
0.0
 27
0.0
 37
0.0
 40
1484.403295632449
 41
1.723287671232876
 42
50.0
 43
0.0
 44
0.0
 50
0.0
 51
0.0
 71
     0
 72
   100
 73
     1
 74
     1
 75
     0
 76
     0
 77
     0
 78
     0
281
     0
 65
     1
110
0.0
120
0.0
130
0.0
111
1.0
121
0.0
131
0.0
112
0.0
122
1.0
132
0.0
 79
     0
146
0.0
  0
ENDTAB
  0
TABLE
  2
LTYPE
  5
5
330
0
100
AcDbSymbolTable
 70
     4
  0
LTYPE
  5
13
330
5
100
AcDbSymbolTableRecord
100
AcDbLinetypeTableRecord
  2
ByBlock
 70
     0
  3

 72
    65
 73
     0
 40
0.0
  0
LTYPE
  5
14
330
5
100
AcDbSymbolTableRecord
100
AcDbLinetypeTableRecord
  2
ByLayer
 70
     0
  3

 72
    65
 73
     0
 40
0.0
  0
LTYPE
  5
15
330
5
100
AcDbSymbolTableRecord
100
AcDbLinetypeTableRecord
  2
CONTINUOUS
 70
     0
  3
Solid-Line
 72
    65
 73
     0
 40
0.0
  0
LTYPE
  5
22
330
5
100
AcDbSymbolTableRecord
100
AcDbLinetypeTableRecord
  2
DASHED
 70
     0
  3
DASHED
 72
    65
 73
     2
 40
0.75
 49
0.5
 74
     0
 49
-0.25
 74
     0
  0
LTYPE
  5
24
330
5
100
AcDbSymbolTableRecord
100
AcDbLinetypeTableRecord
  2
CENTER
 70
     0
  3
CENTER
 72
    65
 73
     4
 40
2.0
 49
1.25
 74
     0
 49
-0.25
 74
     0
 49
0.25
 74
     0
 49
-0.25
 74
     0
  0
LTYPE
  5
A64D
330
5
100
AcDbSymbolTableRecord
100
AcDbLinetypeTableRecord
  2
HIDDEN
 70
     0
  3
HIDDEN
 72
    65
 73
     2
 40
0.375
 49
0.25
 74
     0
 49
-0.125
 74
     0
  0
ENDTAB
  0
TABLE
  2
LAYER
  5
2
330
0
100
AcDbSymbolTable
 70
     6
  0
LAYER
  5
10
330
2
100
AcDbSymbolTableRecord
100
AcDbLayerTableRecord
  2
0
 70
     0
 62
     7
  6
CONTINUOUS
370
     5
390
F
  0
LAYER
  5
26
330
2
100
AcDbSymbolTableRecord
100
AcDbLayerTableRecord
  2
001
 70
     0
 62
     4
  6
CONTINUOUS
370
     5
390
F
  0
LAYER
  5
586
330
2
100
AcDbSymbolTableRecord
100
AcDbLayerTableRecord
  2
DEFPOINTS
 70
     0
 62
     7
  6
CONTINUOUS
290
     0
370
    -3
390
F
  0
LAYER
  5
587
330
2
100
AcDbSymbolTableRecord
100
AcDbLayerTableRecord
  2
003
 70
     0
 62
     3
  6
CONTINUOUS
370
    13
390
F
  0
LAYER
  5
2C96
330
2
100
AcDbSymbolTableRecord
100
AcDbLayerTableRecord
  2
002
 70
     0
 62
     1
  6
CONTINUOUS
370
    15
390
F
  0
LAYER
  5
445B
330
2
100
AcDbSymbolTableRecord
100
AcDbLayerTableRecord
  2
004
 70
     0
 62
     4
  6
CONTINUOUS
370
    -3
390
F
  0
ENDTAB
  0
TABLE
  2
STYLE
  5
3
330
0
100
AcDbSymbolTable
 70
     1
  0
STYLE
  5
11
330
3
100
AcDbSymbolTableRecord
100
AcDbTextStyleTableRecord
  2
STANDARD
 70
     0
 40
0.0
 41
1.0
 50
0.0
 71
     0
 42
0.2
  3
TXT
  4
BIGFONT
  0
ENDTAB
  0
TABLE
  2
VIEW
  5
6
330
0
100
AcDbSymbolTable
 70
     0
  0
ENDTAB
  0
TABLE
  2
UCS
  5
7
330
0
100
AcDbSymbolTable
 70
     0
  0
ENDTAB
  0
TABLE
  2
APPID
  5
9
330
0
100
AcDbSymbolTable
 70
     1
  0
APPID
  5
12
330
9
100
AcDbSymbolTableRecord
100
AcDbRegAppTableRecord
  2
ACAD
 70
     0
  0
ENDTAB
  0
TABLE
  2
DIMSTYLE
  5
A
330
0
100
AcDbSymbolTable
 70
     2
100
AcDbDimStyleTable
 71
     2
340
58A
340
4BA
  0
DIMSTYLE
105
4BA
330
A
100
AcDbSymbolTableRecord
100
AcDbDimStyleTableRecord
  2
Standard
 70
     0
340
11
  0
DIMSTYLE
105
58A
102
{ACAD_REACTORS
330
ABBD
330
ABC1
330
AC2D
330
B0E1
330
AE83
330
AE84
330
AEA9
330
AED0
330
AED3
102
}
330
A
100
AcDbSymbolTableRecord
100
AcDbDimStyleTableRecord
  2
ISO-25
 70
     0
 40
15.0
 41
0.75
 42
0.625
 43
3.75
 44
0.0
 73
     0
 74
     0
 77
     1
 78
     8
140
0.75
141
2.5
143
0.0394
145
1.0
147
0.5
172
     1
271
     0
272
     0
340
11
342
1390
  0
ENDTAB
  0
TABLE
  2
BLOCK_RECORD
  5
1
330
0
100
AcDbSymbolTable
 70
    10
  0
BLOCK_RECORD
  5
1E
330
1
100
AcDbSymbolTableRecord
100
AcDbBlockTableRecord
  2
*Model_Space
340
21
  0
BLOCK_RECORD
  5
1A
330
1
100
AcDbSymbolTableRecord
100
AcDbBlockTableRecord
  2
*Paper_Space
340
1D
  0
BLOCK_RECORD
  5
1390
330
1
100
AcDbSymbolTableRecord
100
AcDbBlockTableRecord
  2
_Open
340
0
102
{BLKREFS
331
AC24
331
AE88
331
AEDC
331
B179
331
B17A
331
B182
331
B183
331
B18D
331
B18E
331
B198
331
B199
331
B1A3
331
B1A4
331
B1AC
331
B1AD
331
B1B5
331
B1B6
331
B1C0
331
B1C1
331
B1C9
331
B1CA
102
}
  0
BLOCK_RECORD
  5
B102
330
1
100
AcDbSymbolTableRecord
100
AcDbBlockTableRecord
  2
*D1
340
0
  0
BLOCK_RECORD
  5
B10E
330
1
100
AcDbSymbolTableRecord
100
AcDbBlockTableRecord
  2
*D2
340
0
  0
BLOCK_RECORD
  5
B11A
330
1
100
AcDbSymbolTableRecord
100
AcDbBlockTableRecord
  2
*D3
340
0
  0
BLOCK_RECORD
  5
B12A
330
1
100
AcDbSymbolTableRecord
100
AcDbBlockTableRecord
  2
*D4
340
0
  0
BLOCK_RECORD
  5
B136
330
1
100
AcDbSymbolTableRecord
100
AcDbBlockTableRecord
  2
*D5
340
0
  0
BLOCK_RECORD
  5
B144
330
1
100
AcDbSymbolTableRecord
100
AcDbBlockTableRecord
  2
*D6
340
0
  0
BLOCK_RECORD
  5
B150
330
1
100
AcDbSymbolTableRecord
100
AcDbBlockTableRecord
  2
*D7
340
0
  0
BLOCK_RECORD
  5
B15C
330
1
100
AcDbSymbolTableRecord
100
AcDbBlockTableRecord
  2
*D8
340
0
  0
BLOCK_RECORD
  5
B16A
330
1
100
AcDbSymbolTableRecord
100
AcDbBlockTableRecord
  2
*D9
340
0
  0
ENDTAB
  0
ENDSEC
  0
SECTION
  2
BLOCKS
  0
BLOCK
  5
1F
330
1E
100
AcDbEntity
  8
0
100
AcDbBlockBegin
  2
*Model_Space
 70
     0
 10
0.0
 20
0.0
 30
0.0
  3
*Model_Space
  1

  0
ENDBLK
  5
20
330
1E
100
AcDbEntity
  8
0
100
AcDbBlockEnd
  0
BLOCK
  5
1B
330
1A
100
AcDbEntity
 67
     1
  8
0
100
AcDbBlockBegin
  2
*Paper_Space
 70
     0
 10
0.0
 20
0.0
 30
0.0
  3
*Paper_Space
  1

  0
ENDBLK
  5
1C
330
1A
100
AcDbEntity
 67
     1
  8
0
100
AcDbBlockEnd
  0
BLOCK
  5
1394
330
1390
100
AcDbEntity
  8
0
100
AcDbBlockBegin
  2
_Open
 70
     0
 10
0.0
 20
0.0
 30
0.0
  3
_Open
  1

  0
LINE
  5
1391
330
1390
100
AcDbEntity
  8
0
  6
ByBlock
 62
     0
370
    -2
100
AcDbLine
 10
-1.0
 20
0.1666666666666666
 30
0.0
 11
0.0
 21
0.0
 31
0.0
  0
LINE
  5
1392
330
1390
100
AcDbEntity
  8
0
  6
ByBlock
 62
     0
370
    -2
100
AcDbLine
 10
-1.0
 20
-0.1666666666666666
 30
0.0
 11
0.0
 21
0.0
 31
0.0
  0
LINE
  5
1393
330
1390
100
AcDbEntity
  8
0
  6
ByBlock
 62
     0
370
    -2
100
AcDbLine
 10
0.0
 20
0.0
 30
0.0
 11
-1.0
 21
0.0
 31
0.0
  0
ENDBLK
  5
1395
330
1390
100
AcDbEntity
  8
0
100
AcDbBlockEnd
  0
BLOCK
  5
B10C
330
B102
100
AcDbEntity
  8
0
100
AcDbBlockBegin
  2
*D1
 70
     1
 10
0.0
 20
0.0
 30
0.0
  3
*D1
  1

  0
LINE
  5
B176
330
B102
100
AcDbEntity
  8
001
 62
     0
370
    -2
100
AcDbLine
 10
8160.471222511807
 20
-2307.692893347203
 30
0.0
 11
8223.991692997426
 21
-2307.692893347203
 31
0.0
  0
LINE
  5
B177
330
B102
100
AcDbEntity
  8
001
 62
     0
370
    -2
100
AcDbLine
 10
8160.471222511807
 20
-2457.692893347203
 30
0.0
 11
8223.991692997426
 21
-2457.692893347203
 31
0.0
  0
LINE
  5
B178
330
B102
100
AcDbEntity
  8
001
 62
     0
370
    -2
100
AcDbLine
 10
8223.991692997426
 20
-2318.942893347202
 30
0.0
 11
8223.991692997426
 21
-2446.442893347203
 31
0.0
  0
INSERT
  5
B179
330
B102
100
AcDbEntity
  8
001
 62
     0
370
    -2
100
AcDbBlockReference
  2
_Open
 10
8223.991692997426
 20
-2307.692893347203
 30
0.0
 41
11.25
 42
11.25
 43
11.25
 50
90.0
  0
INSERT
  5
B17A
330
B102
100
AcDbEntity
  8
001
 62
     0
370
    -2
100
AcDbBlockReference
  2
_Open
 10
8223.991692997426
 20
-2457.692893347203
 30
0.0
 41
11.25
 42
11.25
 43
11.25
 50
270.0
  0
MTEXT
  5
B17B
330
B102
100
AcDbEntity
  8
001
 62
     0
100
AcDbMText
 10
8210.866692997425
 20
-2382.692893347201
 30
0.0
 40
11.25
 41
0.0
 71
     5
 72
     1
  1
\A1;φ150
 11
0.0000000000000001
 21
1.0
 31
0.0
 73
     1
 44
1.0
  0
POINT
  5
B17C
330
B102
100
AcDbEntity
  8
DEFPOINTS
 62
     0
100
AcDbPoint
 10
8151.096222511808
 20
-2307.692893347203
 30
0.0
  0
POINT
  5
B17D
330
B102
100
AcDbEntity
  8
DEFPOINTS
 62
     0
100
AcDbPoint
 10
8151.096222511808
 20
-2457.692893347203
 30
0.0
  0
POINT
  5
B17E
330
B102
100
AcDbEntity
  8
DEFPOINTS
 62
     0
100
AcDbPoint
 10
8223.991692997426
 20
-2457.692893347203
 30
0.0
  0
ENDBLK
  5
B10D
330
B102
100
AcDbEntity
  8
0
100
AcDbBlockEnd
  0
BLOCK
  5
B118
330
B10E
100
AcDbEntity
  8
0
100
AcDbBlockBegin
  2
*D2
 70
     1
 10
0.0
 20
0.0
 30
0.0
  3
*D2
  1

  0
LINE
  5
B17F
330
B10E
100
AcDbEntity
  8
001
 62
     0
370
    -2
100
AcDbLine
 10
7853.096222511807
 20
-2373.255393347202
 30
0.0
 11
7853.096222511807
 21
-2277.382486469752
 31
0.0
  0
LINE
  5
B180
330
B10E
100
AcDbEntity
  8
001
 62
     0
370
    -2
100
AcDbLine
 10
8153.096222511807
 20
-2300.317893347203
 30
0.0
 11
8153.096222511807
 21
-2277.382486469752
 31
0.0
  0
LINE
  5
B181
330
B10E
100
AcDbEntity
  8
001
 62
     0
370
    -2
100
AcDbLine
 10
7864.346222511807
 20
-2277.382486469752
 30
0.0
 11
8141.846222511807
 21
-2277.382486469752
 31
0.0
  0
INSERT
  5
B182
330
B10E
100
AcDbEntity
  8
001
 62
     0
370
    -2
100
AcDbBlockReference
  2
_Open
 10
7853.096222511807
 20
-2277.382486469752
 30
0.0
 41
11.25
 42
11.25
 43
11.25
 50
180.0
  0
INSERT
  5
B183
330
B10E
100
AcDbEntity
  8
001
 62
     0
370
    -2
100
AcDbBlockReference
  2
_Open
 10
8153.096222511807
 20
-2277.382486469752
 30
0.0
 41
11.25
 42
11.25
 43
11.25
  0
MTEXT
  5
B184
330
B10E
100
AcDbEntity
  8
001
 62
     0
100
AcDbMText
 10
8003.096222511807
 20
-2264.257486469752
 30
0.0
 40
11.25
 41
0.0
 71
     5
 72
     1
  1
\A1;300
 73
     1
 44
1.0
  0
POINT
  5
B185
330
B10E
100
AcDbEntity
  8
DEFPOINTS
 62
     0
100
AcDbPoint
 10
7853.096222511807
 20
-2382.630393347202
 30
0.0
  0
POINT
  5
B186
330
B10E
100
AcDbEntity
  8
DEFPOINTS
 62
     0
100
AcDbPoint
 10
8153.096222511807
 20
-2309.692893347202
 30
0.0
  0
POINT
  5
B187
330
B10E
100
AcDbEntity
  8
DEFPOINTS
 62
     0
100
AcDbPoint
 10
8153.096222511807
 20
-2277.382486469752
 30
0.0
  0
ENDBLK
  5
B119
330
B10E
100
AcDbEntity
  8
0
100
AcDbBlockEnd
  0
BLOCK
  5
B128
330
B11A
100
AcDbEntity
  8
0
100
AcDbBlockBegin
  2
*D3
 70
     1
 10
0.0
 20
0.0
 30
0.0
  3
*D3
  1

  0
LINE
  5
B188
330
B11A
100
AcDbEntity
  8
001
 62
     0
370
    -2
100
AcDbLine
 10
8191.925892377943
 20
-1416.598252983412
 30
0.0
 11
8194.657438902853
 21
-1401.106882837249
 31
0.0
  0
LINE
  5
B189
330
B11A
100
AcDbEntity
  8
001
 62
     0
370
    -2
100
AcDbLine
 10
8128.521843000946
 20
-1416.4558256679
 30
0.0
 11
8128.521843000948
 21
-1395.320767940301
 31
0.0
  0
ARC
  5
B18A
330
B11A
100
AcDbEntity
  8
001
 62
     0
370
    -2
100
AcDbCircle
 10
8128.52184300095
 20
-1776.180485505301
 30
0.0
 40
380.8597175649996
100
AcDbArc
 50
76.61502161721637
 51
78.30751080860821
  0
ARC
  5
B18B
330
B11A
100
AcDbEntity
  8
001
 62
     0
370
    -2
100
AcDbCircle
 10
8128.52184300095
 20
-1776.180485505301
 30
0.0
 40
380.8597175649996
100
AcDbArc
 50
91.69248919139189
 51
93.38497838278373
  0
ARC
  5
B18C
330
B11A
100
AcDbEntity
  8
001
 62
     0
370
    -2
100
AcDbCircle
 10
8128.52184300095
 20
-1776.180485505301
 30
0.0
 40
380.8597175649996
100
AcDbArc
 50
80.00000000000007
 51
90.00000000000005
  0
INSERT
  5
B18D
330
B11A
100
AcDbEntity
  8
001
 62
     0
370
    -2
100
AcDbBlockReference
  2
_Open
 10
8194.657438902853
 20
-1401.106882837249
 30
0.0
 41
11.25
 42
11.25
 43
11.25
 50
169.1537554043041
  0
INSERT
  5
B18E
330
B11A
100
AcDbEntity
  8
001
 62
     0
370
    -2
100
AcDbBlockReference
  2
_Open
 10
8128.521843000948
 20
-1395.320767940301
 30
0.0
 41
11.25
 42
11.25
 43
11.25
 50
0.8462445956959651
  0
MTEXT
  5
B18F
330
B11A
100
AcDbEntity
  8
001
 62
     0
100
AcDbMText
 10
8162.859873691553
 20
-1383.694998737874
 30
0.0
 40
11.25
 41
0.0
 71
     5
 72
     1
  1
\A1;10°
 11
0.9961946980917455
 21
-0.0871557427476585
 31
0.0
 73
     1
 44
1.0
  0
POINT
  5
B190
330
B11A
100
AcDbEntity
  8
DEFPOINTS
 62
     0
100
AcDbPoint
 10
8172.73695748598
 20
-1397.896005100981
 30
0.0
  0
POINT
  5
B191
330
B11A
100
AcDbEntity
  8
DEFPOINTS
 62
     0
100
AcDbPoint
 10
8128.521843000946
 20
-2010.865700862403
 30
0.0
  0
POINT
  5
B192
330
B11A
100
AcDbEntity
  8
DEFPOINTS
 62
     0
100
AcDbPoint
 10
8087.140507560112
 20
-2010.865700862403
 30
0.0
  0
POINT
  5
B193
330
B11A
100
AcDbEntity
  8
DEFPOINTS
 62
     0
100
AcDbPoint
 10
8190.297940712316
 20
-1425.830825667901
 30
0.0
  0
POINT
  5
B194
330
B11A
100
AcDbEntity
  8
DEFPOINTS
 62
     0
100
AcDbPoint
 10
8128.521843000948
 20
-1425.8308256679
 30
0.0
  0
ENDBLK
  5
B129
330
B11A
100
AcDbEntity
  8
0
100
AcDbBlockEnd
  0
BLOCK
  5
B134
330
B12A
100
AcDbEntity
  8
0
100
AcDbBlockBegin
  2
*D4
 70
     1
 10
0.0
 20
0.0
 30
0.0
  3
*D4
  1

  0
LINE
  5
B195
330
B12A
100
AcDbEntity
  8
001
 62
     0
370
    -2
100
AcDbLine
 10
9323.519736619948
 20
-1576.066925505305
 30
0.0
 11
9409.58797325076
 21
-1576.066925505305
 31
0.0
  0
LINE
  5
B196
330
B12A
100
AcDbEntity
  8
001
 62
     0
370
    -2
100
AcDbLine
 10
9245.701865810099
 20
-1701.066925505305
 30
0.0
 11
9409.58797325076
 21
-1701.066925505305
 31
0.0
  0
LINE
  5
B197
330
B12A
100
AcDbEntity
  8
001
 62
     0
370
    -2
100
AcDbLine
 10
9409.58797325076
 20
-1587.316925505305
 30
0.0
 11
9409.58797325076
 21
-1689.816925505305
 31
0.0
  0
INSERT
  5
B198
330
B12A
100
AcDbEntity
  8
001
 62
     0
370
    -2
100
AcDbBlockReference
  2
_Open
 10
9409.58797325076
 20
-1576.066925505305
 30
0.0
 41
11.25
 42
11.25
 43
11.25
 50
90.0
  0
INSERT
  5
B199
330
B12A
100
AcDbEntity
  8
001
 62
     0
370
    -2
100
AcDbBlockReference
  2
_Open
 10
9409.58797325076
 20
-1701.066925505305
 30
0.0
 41
11.25
 42
11.25
 43
11.25
 50
270.0
  0
MTEXT
  5
B19A
330
B12A
100
AcDbEntity
  8
001
 62
     0
100
AcDbMText
 10
9396.462973250761
 20
-1638.566925505303
 30
0.0
 40
11.25
 41
0.0
 71
     5
 72
     1
  1
\A1;125
 11
0.0000000000000001
 21
1.0
 31
0.0
 73
     1
 44
1.0
  0
POINT
  5
B19B
330
B12A
100
AcDbEntity
  8
DEFPOINTS
 62
     0
100
AcDbPoint
 10
9314.144736619949
 20
-1576.066925505305
 30
0.0
  0
POINT
  5
B19C
330
B12A
100
AcDbEntity
  8
DEFPOINTS
 62
     0
100
AcDbPoint
 10
9236.326865810099
 20
-1701.066925505305
 30
0.0
  0
POINT
  5
B19D
330
B12A
100
AcDbEntity
  8
DEFPOINTS
 62
     0
100
AcDbPoint
 10
9409.58797325076
 20
-1701.066925505305
 30
0.0
  0
ENDBLK
  5
B135
330
B12A
100
AcDbEntity
  8
0
100
AcDbBlockEnd
  0
BLOCK
  5
B142
330
B136
100
AcDbEntity
  8
0
100
AcDbBlockBegin
  2
*D5
 70
     1
 10
0.0
 20
0.0
 30
0.0
  3
*D5
  1

  0
LINE
  5
B19E
330
B136
100
AcDbEntity
  8
001
 62
     0
370
    -2
100
AcDbLine
 10
8726.681360222929
 20
-2315.817893347202
 30
0.0
 11
8726.681360222929
 21
-2289.610848504256
 31
0.0
  0
LINE
  5
B19F
330
B136
100
AcDbEntity
  8
001
 62
     0
370
    -2
100
AcDbLine
 10
8748.68136022293
 20
-2309.817893347202
 30
0.0
 11
8748.68136022293
 21
-2289.610848504256
 31
0.0
  0
LINE
  5
B1A0
330
B136
100
AcDbEntity
  8
001
 62
     0
370
    -2
100
AcDbLine
 10
8715.431360222929
 20
-2289.610848504256
 30
0.0
 11
8704.181360222928
 21
-2289.610848504256
 31
0.0
  0
LINE
  5
B1A1
330
B136
100
AcDbEntity
  8
001
 62
     0
370
    -2
100
AcDbLine
 10
8759.931360222928
 20
-2289.610848504256
 30
0.0
 11
8804.931360222928
 21
-2289.610848504256
 31
0.0
  0
LINE
  5
B1A2
330
B136
100
AcDbEntity
  8
001
 62
     0
370
    -2
100
AcDbLine
 10
8726.681360222929
 20
-2289.610848504256
 30
0.0
 11
8748.68136022293
 21
-2289.610848504256
 31
0.0
  0
INSERT
  5
B1A3
330
B136
100
AcDbEntity
  8
001
 62
     0
370
    -2
100
AcDbBlockReference
  2
_Open
 10
8726.681360222929
 20
-2289.610848504256
 30
0.0
 41
11.25
 42
11.25
 43
11.25
  0
INSERT
  5
B1A4
330
B136
100
AcDbEntity
  8
001
 62
     0
370
    -2
100
AcDbBlockReference
  2
_Open
 10
8748.68136022293
 20
-2289.610848504256
 30
0.0
 41
11.25
 42
11.25
 43
11.25
 50
180.0
  0
MTEXT
  5
B1A5
330
B136
100
AcDbEntity
  8
001
 62
     0
100
AcDbMText
 10
8788.056360222929
 20
-2276.485848504257
 30
0.0
 40
11.25
 41
0.0
 71
     5
 72
     1
  1
\A1;22
 73
     1
 44
1.0
  0
POINT
  5
B1A6
330
B136
100
AcDbEntity
  8
DEFPOINTS
 62
     0
100
AcDbPoint
 10
8726.681360222929
 20
-2325.192893347202
 30
0.0
  0
POINT
  5
B1A7
330
B136
100
AcDbEntity
  8
DEFPOINTS
 62
     0
100
AcDbPoint
 10
8748.68136022293
 20
-2319.192893347203
 30
0.0
  0
POINT
  5
B1A8
330
B136
100
AcDbEntity
  8
DEFPOINTS
 62
     0
100
AcDbPoint
 10
8748.68136022293
 20
-2289.610848504256
 30
0.0
  0
ENDBLK
  5
B143
330
B136
100
AcDbEntity
  8
0
100
AcDbBlockEnd
  0
BLOCK
  5
B14E
330
B144
100
AcDbEntity
  8
0
100
AcDbBlockBegin
  2
*D6
 70
     1
 10
0.0
 20
0.0
 30
0.0
  3
*D6
  1

  0
LINE
  5
B1A9
330
B144
100
AcDbEntity
  8
001
 62
     0
370
    -2
100
AcDbLine
 10
8720.03841022293
 20
-2317.692893347202
 30
0.0
 11
8678.731040310918
 21
-2317.692893347202
 31
0.0
  0
LINE
  5
B1AA
330
B144
100
AcDbEntity
  8
001
 62
     0
370
    -2
100
AcDbLine
 10
8720.03841022293
 20
-2447.692893347202
 30
0.0
 11
8678.731040310918
 21
-2447.692893347202
 31
0.0
  0
LINE
  5
B1AB
330
B144
100
AcDbEntity
  8
001
 62
     0
370
    -2
100
AcDbLine
 10
8678.731040310918
 20
-2328.942893347202
 30
0.0
 11
8678.731040310918
 21
-2436.442893347202
 31
0.0
  0
INSERT
  5
B1AC
330
B144
100
AcDbEntity
  8
001
 62
     0
370
    -2
100
AcDbBlockReference
  2
_Open
 10
8678.731040310918
 20
-2317.692893347202
 30
0.0
 41
11.25
 42
11.25
 43
11.25
 50
90.0
  0
INSERT
  5
B1AD
330
B144
100
AcDbEntity
  8
001
 62
     0
370
    -2
100
AcDbBlockReference
  2
_Open
 10
8678.731040310918
 20
-2447.692893347202
 30
0.0
 41
11.25
 42
11.25
 43
11.25
 50
270.0
  0
MTEXT
  5
B1AE
330
B144
100
AcDbEntity
  8
001
 62
     0
100
AcDbMText
 10
8665.606040310917
 20
-2382.692893347201
 30
0.0
 40
11.25
 41
0.0
 71
     5
 72
     1
  1
\A1;M130
 11
0.0000000000000001
 21
1.0
 31
0.0
 73
     1
 44
1.0
  0
POINT
  5
B1AF
330
B144
100
AcDbEntity
  8
DEFPOINTS
 62
     0
100
AcDbPoint
 10
8729.41341022293
 20
-2317.692893347202
 30
0.0
  0
POINT
  5
B1B0
330
B144
100
AcDbEntity
  8
DEFPOINTS
 62
     0
100
AcDbPoint
 10
8729.41341022293
 20
-2447.692893347202
 30
0.0
  0
POINT
  5
B1B1
330
B144
100
AcDbEntity
  8
DEFPOINTS
 62
     0
100
AcDbPoint
 10
8678.731040310918
 20
-2447.692893347202
 30
0.0
  0
ENDBLK
  5
B14F
330
B144
100
AcDbEntity
  8
0
100
AcDbBlockEnd
  0
BLOCK
  5
B15A
330
B150
100
AcDbEntity
  8
0
100
AcDbBlockBegin
  2
*D7
 70
     1
 10
0.0
 20
0.0
 30
0.0
  3
*D7
  1

  0
LINE
  5
B1B2
330
B150
100
AcDbEntity
  8
001
  6
Continuous
 62
     0
370
    -2
100
AcDbLine
 10
8263.051271060179
 20
-1611.982974768949
 30
0.0
 11
8363.740464015176
 21
-1629.737196152676
 31
0.0
  0
LINE
  5
B1B3
330
B150
100
AcDbEntity
  8
001
  6
Continuous
 62
     0
370
    -2
100
AcDbLine
 10
8243.949971516817
 20
-1720.311827600294
 30
0.0
 11
8344.639164471812
 21
-1738.066048984021
 31
0.0
  0
LINE
  5
B1B4
330
B150
100
AcDbEntity
  8
001
  6
Continuous
 62
     0
370
    -2
100
AcDbLine
 10
8361.786922016424
 20
-1640.816283374063
 30
0.0
 11
8346.592706470566
 21
-1726.986961762633
 31
0.0
  0
INSERT
  5
B1B5
330
B150
100
AcDbEntity
  8
001
  6
Continuous
 62
     0
370
    -2
100
AcDbBlockReference
  2
_Open
 10
8363.740464015176
 20
-1629.737196152676
 30
0.0
 41
11.25
 42
11.25
 43
11.25
 50
79.9999999999998
  0
INSERT
  5
B1B6
330
B150
100
AcDbEntity
  8
001
  6
Continuous
 62
     0
370
    -2
100
AcDbBlockReference
  2
_Open
 10
8344.639164471812
 20
-1738.066048984021
 30
0.0
 41
11.25
 42
11.25
 43
11.25
 50
259.9999999999998
  0
MTEXT
  5
B1B7
330
B150
100
AcDbEntity
  8
001
  6
Continuous
 62
     0
100
AcDbMText
 10
8341.264212485208
 20
-1681.622490236471
 30
0.0
 40
11.25
 41
0.0
 71
     5
 72
     1
  1
\A1;110
 11
0.1736481776669337
 21
0.9848077530122074
 31
0.0
 73
     1
 44
1.0
  0
POINT
  5
B1B8
330
B150
100
AcDbEntity
  8
DEFPOINTS
  6
Continuous
 62
     0
100
AcDbPoint
 10
8253.81869837569
 20
-1610.355023103322
 30
0.0
  0
POINT
  5
B1B9
330
B150
100
AcDbEntity
  8
DEFPOINTS
  6
Continuous
 62
     0
100
AcDbPoint
 10
8234.717398832327
 20
-1718.683875934666
 30
0.0
  0
POINT
  5
B1BA
330
B150
100
AcDbEntity
  8
DEFPOINTS
  6
Continuous
 62
     0
100
AcDbPoint
 10
8344.639164471812
 20
-1738.066048984021
 30
0.0
  0
ENDBLK
  5
B15B
330
B150
100
AcDbEntity
  8
0
100
AcDbBlockEnd
  0
BLOCK
  5
B168
330
B15C
100
AcDbEntity
  8
0
100
AcDbBlockBegin
  2
*D8
 70
     1
 10
0.0
 20
0.0
 30
0.0
  3
*D8
  1

  0
LINE
  5
B1BB
330
B15C
100
AcDbEntity
  8
001
 62
     0
370
    -2
100
AcDbLine
 10
9370.722590405021
 20
-2270.817893347202
 30
0.0
 11
9370.722590405021
 21
-2252.830587622356
 31
0.0
  0
LINE
  5
B1BC
330
B15C
100
AcDbEntity
  8
001
 62
     0
370
    -2
100
AcDbLine
 10
9395.722590405021
 20
-2270.817893347202
 30
0.0
 11
9395.722590405021
 21
-2252.830587622356
 31
0.0
  0
LINE
  5
B1BD
330
B15C
100
AcDbEntity
  8
001
 62
     0
370
    -2
100
AcDbLine
 10
9359.472590405021
 20
-2252.830587622356
 30
0.0
 11
9348.22259040502
 21
-2252.830587622356
 31
0.0
  0
LINE
  5
B1BE
330
B15C
100
AcDbEntity
  8
001
 62
     0
370
    -2
100
AcDbLine
 10
9406.972590405022
 20
-2252.830587622356
 30
0.0
 11
9451.972590405022
 21
-2252.830587622356
 31
0.0
  0
LINE
  5
B1BF
330
B15C
100
AcDbEntity
  8
001
 62
     0
370
    -2
100
AcDbLine
 10
9370.722590405021
 20
-2252.830587622356
 30
0.0
 11
9395.722590405021
 21
-2252.830587622356
 31
0.0
  0
INSERT
  5
B1C0
330
B15C
100
AcDbEntity
  8
001
 62
     0
370
    -2
100
AcDbBlockReference
  2
_Open
 10
9370.722590405021
 20
-2252.830587622356
 30
0.0
 41
11.25
 42
11.25
 43
11.25
  0
INSERT
  5
B1C1
330
B15C
100
AcDbEntity
  8
001
 62
     0
370
    -2
100
AcDbBlockReference
  2
_Open
 10
9395.722590405021
 20
-2252.830587622356
 30
0.0
 41
11.25
 42
11.25
 43
11.25
 50
180.0
  0
MTEXT
  5
B1C2
330
B15C
100
AcDbEntity
  8
001
 62
     0
100
AcDbMText
 10
9435.097590405021
 20
-2239.705587622356
 30
0.0
 40
11.25
 41
0.0
 71
     5
 72
     1
  1
\A1;25
 73
     1
 44
1.0
  0
POINT
  5
B1C3
330
B15C
100
AcDbEntity
  8
DEFPOINTS
 62
     0
100
AcDbPoint
 10
9370.722590405021
 20
-2280.192893347202
 30
0.0
  0
POINT
  5
B1C4
330
B15C
100
AcDbEntity
  8
DEFPOINTS
 62
     0
100
AcDbPoint
 10
9395.722590405021
 20
-2280.192893347202
 30
0.0
  0
POINT
  5
B1C5
330
B15C
100
AcDbEntity
  8
DEFPOINTS
 62
     0
100
AcDbPoint
 10
9395.722590405021
 20
-2252.830587622356
 30
0.0
  0
ENDBLK
  5
B169
330
B15C
100
AcDbEntity
  8
0
100
AcDbBlockEnd
  0
BLOCK
  5
B174
330
B16A
100
AcDbEntity
  8
0
100
AcDbBlockBegin
  2
*D9
 70
     1
 10
0.0
 20
0.0
 30
0.0
  3
*D9
  1

  0
LINE
  5
B1C6
330
B16A
100
AcDbEntity
  8
001
 62
     0
370
    -2
100
AcDbLine
 10
9361.347590405022
 20
-2280.192893347202
 30
0.0
 11
9314.560846010328
 21
-2280.192893347202
 31
0.0
  0
LINE
  5
B1C7
330
B16A
100
AcDbEntity
  8
001
 62
     0
370
    -2
100
AcDbLine
 10
9361.347590405022
 20
-2485.192893347202
 30
0.0
 11
9314.560846010328
 21
-2485.192893347202
 31
0.0
  0
LINE
  5
B1C8
330
B16A
100
AcDbEntity
  8
001
 62
     0
370
    -2
100
AcDbLine
 10
9314.560846010328
 20
-2291.442893347202
 30
0.0
 11
9314.560846010328
 21
-2473.942893347202
 31
0.0
  0
INSERT
  5
B1C9
330
B16A
100
AcDbEntity
  8
001
 62
     0
370
    -2
100
AcDbBlockReference
  2
_Open
 10
9314.560846010328
 20
-2280.192893347202
 30
0.0
 41
11.25
 42
11.25
 43
11.25
 50
90.0
  0
INSERT
  5
B1CA
330
B16A
100
AcDbEntity
  8
001
 62
     0
370
    -2
100
AcDbBlockReference
  2
_Open
 10
9314.560846010328
 20
-2485.192893347202
 30
0.0
 41
11.25
 42
11.25
 43
11.25
 50
270.0
  0
MTEXT
  5
B1CB
330
B16A
100
AcDbEntity
  8
001
 62
     0
100
AcDbMText
 10
9301.435846010326
 20
-2382.6928933472
 30
0.0
 40
11.25
 41
0.0
 71
     5
 72
     1
  1
\A1;φ205
 11
0.0000000000000001
 21
1.0
 31
0.0
 73
     1
 44
1.0
  0
POINT
  5
B1CC
330
B16A
100
AcDbEntity
  8
DEFPOINTS
 62
     0
100
AcDbPoint
 10
9370.722590405021
 20
-2280.192893347202
 30
0.0
  0
POINT
  5
B1CD
330
B16A
100
AcDbEntity
  8
DEFPOINTS
 62
     0
100
AcDbPoint
 10
9370.722590405021
 20
-2485.192893347202
 30
0.0
  0
POINT
  5
B1CE
330
B16A
100
AcDbEntity
  8
DEFPOINTS
 62
     0
100
AcDbPoint
 10
9314.560846010328
 20
-2485.192893347202
 30
0.0
  0
ENDBLK
  5
B175
330
B16A
100
AcDbEntity
  8
0
100
AcDbBlockEnd
  0
ENDSEC
  0
SECTION
  2
ENTITIES
  0
LWPOLYLINE
  5
ABAA
330
1E
100
AcDbEntity
  8
001
  6
DASHED
100
AcDbPolyline
 90
        4
 70
     1
 43
0.0
 10
7594.819555722906
 20
-2675.928823249146
 10
9667.519555722906
 20
-2675.928823249146
 10
9667.519555722906
 20
-1210.233823249145
 10
7594.819555722906
 20
-1210.233823249145
  0
LINE
  5
ABAB
330
1E
100
AcDbEntity
  8
001
100
AcDbLine
 10
8788.505037351841
 20
-1344.93598097311
 30
0.0
 11
9009.555965074859
 21
-1344.93598097311
 31
0.0
  0
TEXT
  5
ABAC
330
1E
100
AcDbEntity
  8
001
100
AcDbText
 10
8788.505037351841
 20
-1341.375023752256
 30
0.0
 40
18.0
  1
角度なしアンカー頭部構造図
 41
0.787037
100
AcDbText
  0
LINE
  5
ABAD
330
1E
100
AcDbEntity
  8
001
100
AcDbLine
 10
8887.599479619948
 20
-1633.072023505305
 30
0.0
 11
8788.599479619948
 21
-1633.072023505305
 31
0.0
  0
LINE
  5
ABAE
330
1E
100
AcDbEntity
  8
003
100
AcDbLine
 10
9080.426799254103
 20
-1551.066925505303
 30
0.0
 11
8837.008765619948
 21
-1551.066925505305
 31
0.0
  0
LWPOLYLINE
  5
ABAF
330
1E
100
AcDbEntity
  8
003
  6
Continuous
100
AcDbPolyline
 90
       12
 70
     1
 43
0.0
 10
8990.662791439813
 20
-1371.066925505305
 10
9290.627889963662
 20
-1371.066925505305
 10
9390.627889963662
 20
-1551.066925505305
 10
9440.645340701738
 20
-1551.066925505305
 10
9440.645340701738
 20
-1548.766925505304
 10
9391.645340701739
 20
-1548.766925505304
 10
9291.645340701739
 20
-1368.766925505304
 10
8989.645340701738
 20
-1368.766925505304
 10
8889.645340701736
 20
-1548.766925505304
 10
8840.645340701739
 20
-1548.766925505304
 10
8840.645340701739
 20
-1551.066925505305
 10
8890.662791439813
 20
-1551.066925505305
  0
LWPOLYLINE
  5
ABB0
330
1E
100
AcDbEntity
  8
003
100
AcDbPolyline
 90
       64
 70
     0
 43
0.0
 10
8765.351985925979
 20
-1901.180485505305
 10
9071.887336973427
 20
-1901.180485505305
 10
9070.004423619948
 20
-1903.375678046235
 10
9068.954613619949
 20
-1905.738270046236
 10
9069.400586619947
 20
-1907.901417046236
 10
9070.807880619948
 20
-1910.097946046237
 10
9072.594425619946
 20
-1912.319472046236
 10
9074.178148619948
 20
-1914.557610046236
 10
9074.976981619947
 20
-1916.803973046235
 10
9074.635425619948
 20
-1918.945522046234
 10
9073.509631619948
 20
-1921.096725046236
 10
9072.054469619947
 20
-1923.267379046236
 10
9070.724811619948
 20
-1925.467283046235
 10
9069.975531619949
 20
-1927.706236046235
 10
9070.307402619949
 20
-1930.612154046235
 10
9071.632080619947
 20
-1933.554155046236
 10
9073.271217619947
 20
-1936.489472046236
 10
9074.546467619949
 20
-1939.375336046236
 10
9074.779482619948
 20
-1942.168980046235
 10
9073.882172619947
 20
-1944.337130046236
 10
9072.335435619949
 20
-1946.448953046236
 10
9070.611506619947
 20
-1948.536118046235
 10
9069.182623619949
 20
-1950.630298046235
 10
9068.521020619948
 20
-1952.763166046235
 10
9069.094975619949
 20
-1955.299572046237
 10
9070.646692619948
 20
-1957.893900046236
 10
9072.503653619948
 20
-1960.510399046235
 10
9073.993343619948
 20
-1963.113315046235
 10
9074.443244619947
 20
-1965.666898046236
 10
9073.649802619948
 20
-1967.794451046236
 10
9072.117342619947
 20
-1969.881874046235
 10
9070.362071619948
 20
-1971.951410046236
 10
9068.900201619948
 20
-1974.025302046235
 10
9068.247940619947
 20
-1976.125794046236
 10
9068.865320619948
 20
-1978.492810046236
 10
9070.453437619947
 20
-1980.889487046235
 10
9072.366529619948
 20
-1983.285933046236
 10
9073.958839619949
 20
-1985.652257046236
 10
9074.584606619948
 20
-1987.958568046235
 10
9073.972548619947
 20
-1989.921766046236
 10
9072.563384619948
 20
-1991.850280046235
 10
9070.805763619949
 20
-1993.778891046236
 10
9069.148335619948
 20
-1995.742379046236
 10
9068.039748619947
 20
-1997.775527046236
 10
9068.181930619948
 20
-2001.589862046235
 10
9070.206815619947
 20
-2005.591442046235
 10
9072.882927619948
 20
-2009.641449046235
 10
9074.978787619947
 20
-2013.601065046235
 10
9075.262915619948
 20
-2017.331472046236
 10
9074.095007619948
 20
-2019.512615046236
 10
9072.223531619947
 20
-2021.600115046236
 10
9070.148996619947
 20
-2023.645941046236
 10
9068.371913619948
 20
-2025.702062046235
 10
9067.392789619947
 20
-2027.820449046235
 10
9067.792133619949
 20
-2030.678194046235
 10
9069.509442619949
 20
-2033.674977046235
 10
9071.737283619949
 20
-2036.762852046237
 10
9073.668226619949
 20
-2039.893872046235
 10
9074.494838619948
 20
-2043.020092046235
 10
9073.904578619949
 20
-2045.617889046236
 10
9072.453675619948
 20
-2048.185201046235
 10
9070.635335619948
 20
-2050.728899046236
 10
9068.942766619947
 20
-2053.255850046236
 10
9067.86917361995
 20
-2055.772926046236
  0
LINE
  5
ABB1
330
1E
100
AcDbEntity
  8
001
 62
     3
100
AcDbLine
 10
9625.519555722906
 20
-2632.178823249147
 30
0.0
 11
7671.259555722905
 21
-2632.178823249147
 31
0.0
  0
LINE
  5
ABB2
330
1E
100
AcDbEntity
  8
001
 62
     3
100
AcDbLine
 10
7671.259555722905
 20
-1289.858823249147
 30
0.0
 11
9625.519555722906
 21
-1289.858823249147
 31
0.0
  0
LWPOLYLINE
  5
ABB3
330
1E
100
AcDbEntity
  8
002
100
AcDbPolyline
 90
       37
 70
     0
 43
0.0
 10
8227.99356293779
 20
-1455.562053424748
 10
8228.02685445888
 20
-1454.443147309068
 10
8227.741780014383
 20
-1453.276697169938
 10
8227.140515824098
 20
-1452.071613162257
 10
8226.227656193767
 20
-1450.837099699956
 10
8225.010174264602
 20
-1449.582588939822
 10
8223.49736948982
 20
-1448.317664026784
 10
8221.700798563313
 20
-1447.051986601511
 10
8219.63418611336
 20
-1445.795225048128
 10
8217.313318438041
 20
-1444.556981187763
 10
8214.755924378085
 20
-1443.346712550019
 10
8211.981540052271
 20
-1442.173664723272
 10
8209.011358518351
 20
-1441.04679961087
 10
8205.868069439356
 20
-1439.974723361083
 10
8202.575684906683
 20
-1438.965627652398
 10
8199.159354447699
 20
-1438.027219019595
 10
8195.645175202534
 20
-1437.166667432409
 10
8192.059992186937
 20
-1436.390545945952
 10
8188.431193313908
 20
-1435.704783787281
 10
8184.786498270847
 20
-1435.114617640487
 10
8181.15374887356
 20
-1434.62455898856
 10
8177.560694421222
 20
-1434.238349085506
 10
8174.034784263943
 20
-1433.958938176761
 10
8170.602951440423
 20
-1433.788462426982
 10
8167.291412700322
 20
-1433.728221582858
 10
8164.125463450266
 20
-1433.77867728129
 10
8161.129288919749
 20
-1433.93944488337
 10
8158.325777212631
 20
-1434.209294975033
 10
8155.736343993281
 20
-1434.586166253419
 10
8153.380769707309
 20
-1435.067180623407
 10
8151.277048845683
 20
-1435.648663289794
 10
8149.441251334684
 20
-1436.326171449713
 10
8147.887401868183
 20
-1437.094531174881
 10
8146.627369152158
 20
-1437.947871015532
 10
8145.670778336157
 20
-1438.879674771149
 10
8145.024937861483
 20
-1439.882821724932
 10
8144.694779912082
 20
-1440.949651535274
  0
LWPOLYLINE
  5
ABB4
330
1E
100
AcDbEntity
  8
002
100
AcDbPolyline
 90
       37
 70
     0
 43
0.0
 10
8232.157892943209
 20
-1456.296336443263
 10
8232.239569272167
 20
-1454.813819703953
 10
8231.971999712252
 20
-1453.281113518207
 10
8231.357222089178
 20
-1451.709883792564
 10
8230.399913916482
 20
-1450.112088122103
 10
8229.107361498012
 20
-1448.499886334626
 10
8227.489401503873
 20
-1446.8855483352
 10
8225.558347799903
 20
-1445.28136006852
 10
8223.328897223098
 20
-1443.699530794981
 10
8220.818016186818
 20
-1442.15209914057
 10
8218.044815981036
 20
-1440.65084217948
 10
8215.03040005485
 20
-1439.207184602572
 10
8211.797711709424
 20
-1437.832113702305
 10
8208.371352134916
 20
-1436.536095590652
 10
8204.77739959454
 20
-1435.328993055325
 10
8201.043204688405
 20
-1434.219992840493
 10
8197.197187338016
 20
-1433.217535384952
 10
8193.268619189263
 20
-1432.329249887345
 10
8189.287398397423
 20
-1431.561895926292
 10
8185.283823512294
 20
-1430.921314256036
 10
8181.288364660302
 20
-1430.412380715564
 10
8177.331431286832
 20
-1430.038967429351
 10
8173.44313547653
 20
-1429.803916870676
 10
8169.653070593597
 20
-1429.709018626266
 10
8165.990082304123
 20
-1429.754992715856
 10
8162.482046974231
 20
-1429.941492162664
 10
8159.155662601049
 20
-1430.267095567509
 10
8156.036246137135
 20
-1430.729324504744
 10
8153.147537533019
 20
-1431.324663538816
 10
8150.511521802737
 20
-1432.048579828686
 10
8148.148260185884
 20
-1432.895564440635
 10
8146.075739004723
 20
-1433.85917103706
 10
8144.309731548688
 20
-1434.932066196548
 10
8142.863677818771
 20
-1436.106084319171
 10
8141.748583606981
 20
-1437.372290967161
 10
8140.972934076657
 20
-1438.721049480507
 10
8140.542634132611
 20
-1440.142094470366
  0
LINE
  5
ABB5
330
1E
100
AcDbEntity
  8
002
100
AcDbLine
 10
8178.961446853973
 20
-1687.369389723255
 30
0.0
 11
8230.599137955683
 21
-1696.474507885976
 31
0.0
  0
LINE
  5
ABB6
330
1E
100
AcDbEntity
  8
003
100
AcDbLine
 10
8248.625622691568
 20
-1743.475656516269
 30
0.0
 11
8181.247798530973
 21
-1731.595128215327
 31
0.0
  0
LINE
  5
ABB7
330
1E
100
AcDbEntity
  8
003
100
AcDbLine
 10
8185.194709755784
 20
-1709.951689693236
 30
0.0
 11
8244.527476779991
 21
-1720.413657359693
 31
0.0
  0
LINE
  5
ABB8
330
1E
100
AcDbEntity
  8
003
  6
Continuous
100
AcDbLine
 10
8223.152019458648
 20
-1604.947660201525
 30
0.0
 11
8347.572027562753
 21
-1626.886264570244
 31
0.0
  0
LINE
  5
ABB9
330
1E
100
AcDbEntity
  8
003
  6
Continuous
100
AcDbLine
 10
8171.406120570457
 20
-1901.180485505305
 30
0.0
 11
8526.423425658945
 21
-1901.180485505305
 31
0.0
  0
LINE
  5
ABBA
330
1E
100
AcDbEntity
  8
002
100
AcDbLine
 10
8209.057946765595
 20
-1598.746558745691
 30
0.0
 11
8227.96580498659
 21
-1455.742064336956
 31
0.0
  0
LINE
  5
ABBB
330
1E
100
AcDbEntity
  8
002
100
AcDbLine
 10
8213.225861630432
 20
-1599.483656637374
 30
0.0
 11
8232.157892943209
 21
-1456.296336443263
 31
0.0
  0
LWPOLYLINE
  5
ABBC
330
1E
100
AcDbEntity
  8
003
  6
Continuous
100
AcDbPolyline
 90
       12
 70
     1
 43
0.0
 10
7988.918077199786
 20
-1371.066925505305
 10
8288.883175723633
 20
-1371.066925505305
 10
8388.883175723632
 20
-1551.066925505305
 10
8438.900626461709
 20
-1551.066925505305
 10
8438.900626461709
 20
-1548.766925505304
 10
8389.900626461709
 20
-1548.766925505304
 10
8289.90062646171
 20
-1368.766925505304
 10
7987.900626461708
 20
-1368.766925505304
 10
7887.900626461709
 20
-1548.766925505304
 10
7838.900626461709
 20
-1548.766925505304
 10
7838.900626461709
 20
-1551.066925505305
 10
7888.918077199786
 20
-1551.066925505305
  0
DIMENSION
  5
ABBD
330
1E
100
AcDbEntity
  8
001
100
AcDbDimension
  2
*D1
 10
8223.991692997426
 20
-2457.692893347203
 30
0.0
 11
8210.866692997425
 21
-2382.692893347201
 31
0.0
 70
    32
  1
φ150
 71
     5
 42
150.0
  3
ISO-25
100
AcDbAlignedDimension
 13
8151.096222511808
 23
-2307.692893347203
 33
0.0
 14
8151.096222511808
 24
-2457.692893347203
 34
0.0
 50
90.0
100
AcDbRotatedDimension
  0
LINE
  5
ABBE
330
1E
100
AcDbEntity
  8
001
 62
     3
100
AcDbLine
 10
7671.259555722905
 20
-2632.178823249147
 30
0.0
 11
7671.259555722905
 21
-1289.858823249147
 31
0.0
  0
LINE
  5
ABBF
330
1E
100
AcDbEntity
  8
002
100
AcDbLine
 10
7893.253448511808
 20
-2331.828689347203
 30
0.0
 11
7898.483525511807
 21
-2326.598612347202
 31
0.0
  0
LINE
  5
ABC0
330
1E
100
AcDbEntity
  8
002
100
AcDbLine
 10
8043.720626511808
 20
-2445.047393347204
 30
0.0
 11
7873.096222511808
 21
-2437.692893347202
 31
0.0
  0
DIMENSION
  5
ABC1
330
1E
100
AcDbEntity
  8
001
100
AcDbDimension
  2
*D2
 10
8153.096222511807
 20
-2277.382486469752
 30
0.0
 11
8003.096222511807
 21
-2264.257486469752
 31
0.0
 70
    32
 71
     5
 42
300.0
  3
ISO-25
100
AcDbAlignedDimension
 13
7853.096222511807
 23
-2382.630393347202
 33
0.0
 14
8153.096222511807
 24
-2309.692893347202
 34
0.0
100
AcDbRotatedDimension
  0
LINE
  5
ABC2
330
1E
100
AcDbEntity
  8
002
100
AcDbLine
 10
8043.718085511807
 20
-2325.343145347204
 30
0.0
 11
7873.311540511808
 21
-2332.688254347203
 31
0.0
  0
LINE
  5
ABC3
330
1E
100
AcDbEntity
  8
002
100
AcDbLine
 10
8043.720626511808
 20
-2320.338392347202
 30
0.0
 11
7873.096222511808
 21
-2327.692893347202
 31
0.0
  0
LINE
  5
ABC4
330
1E
100
AcDbEntity
  8
004
  6
CENTER
 62
     6
100
AcDbLine
 10
8161.283112511808
 20
-2382.692893347202
 30
0.0
 11
7839.768283511808
 21
-2382.692893347202
 31
0.0
  0
LINE
  5
ABC5
330
1E
100
AcDbEntity
  8
001
100
AcDbLine
 10
7835.756281511809
 20
-2206.738377347203
 30
0.0
 11
7987.75628151181
 21
-2206.738377347203
 31
0.0
  0
TEXT
  5
ABC6
330
1E
100
AcDbEntity
  8
001
100
AcDbText
 10
7835.756281511809
 20
-2206.738377347203
 30
0.0
 40
18.0
  1
アンカー頭部部品図
 41
0.787037
100
AcDbText
  0
LINE
  5
ABC7
330
1E
100
AcDbEntity
  8
001
100
AcDbLine
 10
7864.649409511809
 20
-2251.447783347202
 30
0.0
 11
8013.64940951181
 21
-2251.447783347202
 31
0.0
  0
TEXT
  5
ABC8
330
1E
100
AcDbEntity
  8
001
100
AcDbText
 10
7864.649409511809
 20
-2251.447783347202
 30
0.0
 40
16.0
  1
ヘッドキャップ（Ｌ型）
 41
0.703125
100
AcDbText
  0
LWPOLYLINE
  5
ABC9
330
1E
100
AcDbEntity
  8
002
100
AcDbPolyline
 90
       19
 70
     0
 43
0.0
 10
7873.096222511808
 20
-2332.692893347203
 10
7871.788886511807
 20
-2332.883158347204
 10
7870.491500511808
 20
-2333.452505347204
 10
7869.213937511807
 20
-2334.396601347203
 10
7867.965920511808
 20
-2335.708262347203
 10
7866.756948511808
 20
-2337.377503347203
 10
7865.596222511808
 20
-2339.391622347204
 10
7864.492576511807
 20
-2341.735290347203
 10
7863.45440851181
 20
-2344.390670347203
 10
7862.489621511809
 20
-2347.337554347203
 10
7861.605556511808
 20
-2350.553512347203
 10
7860.808942511806
 20
-2354.014071347202
 10
7860.105841511807
 20
-2357.692893347203
 10
7859.501606511807
 20
-2361.561979347203
 10
7859.000833511807
 20
-2365.591885347203
 10
7858.607335511807
 20
-2369.751940347203
 10
7858.324106511807
 20
-2374.010484347203
 10
7858.153302511808
 20
-2378.335105347203
 10
7858.096222511807
 20
-2382.692893347202
  0
LINE
  5
ABCA
330
1E
100
AcDbEntity
  8
002
100
AcDbLine
 10
7857.702072511807
 20
-2347.581076347203
 30
0.0
 11
7865.293944511808
 21
-2339.989203347204
 31
0.0
  0
LWPOLYLINE
  5
ABCB
330
1E
100
AcDbEntity
  8
002
100
AcDbPolyline
 90
       37
 70
     0
 43
0.0
 10
7873.096222511808
 20
-2327.692893347202
 10
7871.353107511808
 20
-2327.902184347203
 10
7869.623259511808
 20
-2328.528466347203
 10
7867.919841511808
 20
-2329.566972347203
 10
7866.255819511808
 20
-2331.009798347204
 10
7864.643857511808
 20
-2332.845964347203
 10
7863.096222511806
 20
-2335.061495347203
 10
7861.624694511808
 20
-2337.639530347203
 10
7860.240470511808
 20
-2340.560448347203
 10
7858.954087511808
 20
-2343.802020347204
 10
7857.775333511809
 20
-2347.339574347202
 10
7856.713181511809
 20
-2351.146189347204
 10
7855.775714511809
 20
-2355.192893347202
 10
7854.970067511807
 20
-2359.448888347204
 10
7854.302370511809
 20
-2363.881785347202
 10
7853.777706511808
 20
-2368.457845347204
 10
7853.400067511808
 20
-2373.142243347203
 10
7853.172328511807
 20
-2377.899327347204
 10
7853.096222511807
 20
-2382.692893347202
 10
7853.172328511807
 20
-2387.486458347202
 10
7853.400067511808
 20
-2392.243542347203
 10
7853.777706511808
 20
-2396.927940347203
 10
7854.302370511809
 20
-2401.504000347204
 10
7854.970067511807
 20
-2405.936897347203
 10
7855.775714511809
 20
-2410.192893347202
 10
7856.713181511809
 20
-2414.239597347203
 10
7857.775333511809
 20
-2418.046211347204
 10
7858.954087511808
 20
-2421.583766347203
 10
7860.240470511808
 20
-2424.825337347203
 10
7861.624694511808
 20
-2427.746255347203
 10
7863.096222511806
 20
-2430.324290347204
 10
7864.643857511808
 20
-2432.539821347203
 10
7866.255819511808
 20
-2434.375987347202
 10
7867.919841511808
 20
-2435.818813347203
 10
7869.623259511808
 20
-2436.857319347204
 10
7871.353107511808
 20
-2437.483601347203
 10
7873.096222511808
 20
-2437.692893347202
  0
LINE
  5
ABCC
330
1E
100
AcDbEntity
  8
002
100
AcDbLine
 10
7854.818570511809
 20
-2360.364072347203
 30
0.0
 11
7860.714720511807
 21
-2354.467922347203
 31
0.0
  0
LINE
  5
ABCD
330
1E
100
AcDbEntity
  8
002
100
AcDbLine
 10
7853.509264511806
 20
-2371.572874347202
 30
0.0
 11
7858.942057511807
 21
-2366.140080347204
 31
0.0
  0
LINE
  5
ABCE
330
1E
100
AcDbEntity
  8
002
100
AcDbLine
 10
7853.163277511808
 20
-2378.192893347202
 30
0.0
 11
7858.153605511809
 21
-2378.323569347203
 31
0.0
  0
LINE
  5
ABCF
330
1E
100
AcDbEntity
  8
002
100
AcDbLine
 10
7853.215587511808
 20
-2376.692893347202
 30
0.0
 11
7858.199933511807
 21
-2376.823412347202
 31
0.0
  0
LINE
  5
ABD0
330
1E
100
AcDbEntity
  8
002
100
AcDbLine
 10
7858.159284511808
 20
-2376.822348347203
 30
0.0
 11
7858.201473511808
 21
-2376.780159347203
 31
0.0
  0
LINE
  5
ABD1
330
1E
100
AcDbEntity
  8
002
100
AcDbLine
 10
7882.908030511808
 20
-2332.274612347204
 30
0.0
 11
7888.138107511808
 21
-2327.044535347204
 31
0.0
  0
LINE
  5
ABD2
330
1E
100
AcDbEntity
  8
002
100
AcDbLine
 10
7872.558065511808
 20
-2332.725082347204
 30
0.0
 11
7877.792689511807
 21
-2327.490459347203
 31
0.0
  0
LINE
  5
ABD3
330
1E
100
AcDbEntity
  8
002
100
AcDbLine
 10
8056.719303511806
 20
-2320.192893347202
 30
0.0
 11
8120.498146511806
 21
-2320.192893347202
 31
0.0
  0
LINE
  5
ABD4
330
1E
100
AcDbEntity
  8
002
100
AcDbLine
 10
8055.864343511808
 20
-2314.777675347204
 30
0.0
 11
8103.096222511807
 21
-2307.692893347203
 31
0.0
  0
LINE
  5
ABD5
330
1E
100
AcDbEntity
  8
002
100
AcDbLine
 10
8055.864343511808
 20
-2450.608111347202
 30
0.0
 11
8103.096222511807
 21
-2457.692893347203
 31
0.0
  0
ARC
  5
ABD6
330
1E
100
AcDbEntity
  8
002
100
AcDbCircle
 10
8057.347747511807
 20
-2440.718747347204
 30
0.0
 40
10.0
100
AcDbArc
 50
230.1944290000356
 51
261.4692340000372
  0
LINE
  5
ABD7
330
1E
100
AcDbEntity
  8
002
100
AcDbLine
 10
8049.691835511806
 20
-2447.355903347203
 30
0.0
 11
8050.945903511808
 21
-2448.400960347204
 31
0.0
  0
ARC
  5
ABD8
330
1E
100
AcDbEntity
  8
002
100
AcDbCircle
 10
8043.289991511807
 20
-2455.038116347203
 30
0.0
 40
10.0
100
AcDbArc
 50
50.19442900003564
 51
87.53188200002254
  0
LINE
  5
ABD9
330
1E
100
AcDbEntity
  8
002
100
AcDbLine
 10
8053.096222511808
 20
-2382.692893347202
 30
0.0
 11
8053.096222511808
 21
-2449.769965347202
 31
0.0
  0
LINE
  5
ABDA
330
1E
100
AcDbEntity
  8
002
100
AcDbLine
 10
7976.016793511807
 20
-2328.261304347202
 30
0.0
 11
7981.246870511808
 21
-2323.031227347202
 31
0.0
  0
LINE
  5
ABDB
330
1E
100
AcDbEntity
  8
002
100
AcDbLine
 10
7934.635121511809
 20
-2330.044996347203
 30
0.0
 11
7939.865198511809
 21
-2324.814919347204
 31
0.0
  0
LINE
  5
ABDC
330
1E
100
AcDbEntity
  8
002
100
AcDbLine
 10
7924.289702511806
 20
-2330.490920347203
 30
0.0
 11
7929.519779511807
 21
-2325.260843347203
 31
0.0
  0
LINE
  5
ABDD
330
1E
100
AcDbEntity
  8
002
100
AcDbLine
 10
7913.944284511808
 20
-2330.936843347202
 30
0.0
 11
7919.174361511808
 21
-2325.706766347202
 31
0.0
  0
LINE
  5
ABDE
330
1E
100
AcDbEntity
  8
002
100
AcDbLine
 10
7903.598866511808
 20
-2331.382766347203
 30
0.0
 11
7908.828943511808
 21
-2326.152689347203
 31
0.0
  0
LINE
  5
ABDF
330
1E
100
AcDbEntity
  8
002
100
AcDbLine
 10
7965.671375511807
 20
-2328.707227347204
 30
0.0
 11
7970.901452511808
 21
-2323.477150347204
 31
0.0
  0
LINE
  5
ABE0
330
1E
100
AcDbEntity
  8
002
100
AcDbLine
 10
7944.980539511807
 20
-2329.599073347202
 30
0.0
 11
7950.210616511808
 21
-2324.368996347204
 31
0.0
  0
LINE
  5
ABE1
330
1E
100
AcDbEntity
  8
002
100
AcDbLine
 10
7955.325957511807
 20
-2329.153150347203
 30
0.0
 11
7960.556034511808
 21
-2323.923073347203
 31
0.0
  0
LINE
  5
ABE2
330
1E
100
AcDbEntity
  8
002
100
AcDbLine
 10
8017.398466511808
 20
-2326.477611347203
 30
0.0
 11
8022.628543511808
 21
-2321.247534347203
 31
0.0
  0
LINE
  5
ABE3
330
1E
100
AcDbEntity
  8
002
100
AcDbLine
 10
8007.053048511806
 20
-2326.923534347203
 30
0.0
 11
8012.283124511807
 21
-2321.693457347203
 31
0.0
  0
LINE
  5
ABE4
330
1E
100
AcDbEntity
  8
002
100
AcDbLine
 10
7986.362211511809
 20
-2327.815380347203
 30
0.0
 11
7991.592288511808
 21
-2322.585304347203
 31
0.0
  0
LINE
  5
ABE5
330
1E
100
AcDbEntity
  8
002
100
AcDbLine
 10
7996.707629511807
 20
-2327.369457347204
 30
0.0
 11
8001.937706511808
 21
-2322.139380347203
 31
0.0
  0
ARC
  5
ABE6
330
1E
100
AcDbEntity
  8
002
100
AcDbCircle
 10
8056.719303511806
 20
-2330.192893347202
 30
0.0
 40
10.0
100
AcDbArc
 50
90.0
 51
129.8317249999974
  0
LINE
  5
ABE7
330
1E
100
AcDbEntity
  8
002
100
AcDbLine
 10
8049.692801511808
 20
-2323.031711347203
 30
0.0
 11
8050.313953511809
 21
-2322.513603347202
 31
0.0
  0
LINE
  5
ABE8
330
1E
100
AcDbEntity
  8
002
100
AcDbLine
 10
8049.691835511806
 20
-2318.029882347203
 30
0.0
 11
8050.945903511808
 21
-2316.984825347203
 31
0.0
  0
LINE
  5
ABE9
330
1E
100
AcDbEntity
  8
002
100
AcDbLine
 10
8038.089302511808
 20
-2325.585765347203
 30
0.0
 11
8043.319379511807
 21
-2320.355688347202
 31
0.0
  0
LINE
  5
ABEA
330
1E
100
AcDbEntity
  8
002
100
AcDbLine
 10
8027.743884511808
 20
-2326.031688347204
 30
0.0
 11
8032.973961511808
 21
-2320.801611347204
 31
0.0
  0
ARC
  5
ABEB
330
1E
100
AcDbEntity
  8
002
100
AcDbCircle
 10
8043.287450511808
 20
-2315.352421347202
 30
0.0
 40
10.0
100
AcDbArc
 50
272.4681179999774
 51
309.8317249999974
  0
ARC
  5
ABEC
330
1E
100
AcDbEntity
  8
002
100
AcDbCircle
 10
8043.289991511807
 20
-2310.347669347204
 30
0.0
 40
10.0
100
AcDbArc
 50
272.4681179999774
 51
309.8055709999643
  0
LINE
  5
ABED
330
1E
100
AcDbEntity
  8
002
100
AcDbLine
 10
8052.401417511807
 20
-2321.173144347203
 30
0.0
 11
8059.314395511808
 21
-2314.260167347203
 31
0.0
  0
ARC
  5
ABEE
330
1E
100
AcDbEntity
  8
002
100
AcDbCircle
 10
8057.347747511807
 20
-2324.667038347203
 30
0.0
 40
10.0
100
AcDbArc
 50
98.53076599996274
 51
129.8055709999643
  0
LINE
  5
ABEF
330
1E
100
AcDbEntity
  8
001
100
AcDbLine
 10
8196.374074396773
 20
-2328.942893347202
 30
0.0
 11
8196.374074396773
 21
-2395.851412583149
 31
0.0
  0
LINE
  5
ABF0
330
1E
100
AcDbEntity
  8
002
100
AcDbLine
 10
8152.230197511808
 20
-2319.192893347203
 30
0.0
 11
8152.230197511808
 21
-2356.372759347203
 31
0.0
  0
LINE
  5
ABF1
330
1E
100
AcDbEntity
  8
002
100
AcDbLine
 10
8120.498146511806
 20
-2319.192893347203
 30
0.0
 11
8120.498146511806
 21
-2382.692893347202
 31
0.0
  0
LINE
  5
ABF2
330
1E
100
AcDbEntity
  8
002
100
AcDbLine
 10
8123.096222511808
 20
-2356.372759347203
 30
0.0
 11
8123.096222511808
 21
-2317.692893347202
 31
0.0
  0
LINE
  5
ABF3
330
1E
100
AcDbEntity
  8
002
100
AcDbLine
 10
8153.096222511807
 20
-2455.692893347202
 30
0.0
 11
8153.096222511807
 21
-2309.692893347202
 31
0.0
  0
LINE
  5
ABF4
330
1E
100
AcDbEntity
  8
002
100
AcDbLine
 10
8151.096222511808
 20
-2457.692893347203
 30
0.0
 11
8103.096222511807
 21
-2457.692893347203
 31
0.0
  0
ARC
  5
ABF5
330
1E
100
AcDbEntity
  8
002
100
AcDbCircle
 10
8101.096222511808
 20
-2392.639935347204
 30
0.0
 40
2.0
100
AcDbArc
 50
0.0
 51
80.63061499999589
  0
ARC
  5
ABF6
330
1E
100
AcDbEntity
  8
002
100
AcDbCircle
 10
8101.096222511808
 20
-2425.778859347203
 30
0.0
 40
2.0
100
AcDbArc
 50
279.3693850000041
 51
0.0
  0
ARC
  5
ABF7
330
1E
100
AcDbEntity
  8
002
100
AcDbCircle
 10
8100.403966511807
 20
-2453.735658347202
 30
0.0
 40
2.0
100
AcDbArc
 50
9.529009000008539
 51
90.0
  0
ARC
  5
ABF8
330
1E
100
AcDbEntity
  8
002
100
AcDbCircle
 10
8100.096222511806
 20
-2449.735658347202
 30
0.0
 40
2.0
100
AcDbArc
 50
270.0
 51
0.0
  0
ARC
  5
ABF9
330
1E
100
AcDbEntity
  8
002
100
AcDbCircle
 10
8101.096222511808
 20
-2445.672943347203
 30
0.0
 40
2.0
100
AcDbArc
 50
0.0
 51
80.63061499999589
  0
ARC
  5
ABFA
330
1E
100
AcDbEntity
  8
002
100
AcDbCircle
 10
8101.096222511808
 20
-2445.672943347203
 30
0.0
 40
2.0
100
AcDbArc
 50
0.0
 51
80.63061499999589
  0
LINE
  5
ABFB
330
1E
100
AcDbEntity
  8
002
100
AcDbLine
 10
8102.165213511808
 20
-2452.146650347204
 30
0.0
 11
8103.096222511807
 21
-2457.692893347203
 31
0.0
  0
ARC
  5
ABFC
330
1E
100
AcDbEntity
  8
002
100
AcDbCircle
 10
8100.096222511806
 20
-2393.488456347204
 30
0.0
 40
2.0
100
AcDbArc
 50
0.0
 51
80.63061499999589
  0
LINE
  5
ABFD
330
1E
100
AcDbEntity
  8
002
100
AcDbLine
 10
8100.42182051181
 20
-2391.515137347203
 30
0.0
 11
8064.892930511808
 21
-2385.652870347203
 31
0.0
  0
LINE
  5
ABFE
330
1E
100
AcDbEntity
  8
002
100
AcDbLine
 10
8101.421820511808
 20
-2390.666616347203
 30
0.0
 11
8065.055729511808
 21
-2384.666211347203
 31
0.0
  0
LINE
  5
ABFF
330
1E
100
AcDbEntity
  8
002
100
AcDbLine
 10
8063.381326511807
 20
-2383.692893347202
 30
0.0
 11
8063.381326511807
 21
-2382.692893347202
 31
0.0
  0
ARC
  5
AC00
330
1E
100
AcDbEntity
  8
002
100
AcDbCircle
 10
8065.381326511808
 20
-2383.692893347202
 30
0.0
 40
2.0
100
AcDbArc
 50
180.0
 51
260.6306149999958
  0
ARC
  5
AC01
330
1E
100
AcDbEntity
  8
002
100
AcDbCircle
 10
8065.381326511808
 20
-2382.692893347202
 30
0.0
 40
2.0
100
AcDbArc
 50
180.0
 51
260.6306149999958
  0
ARC
  5
AC02
330
1E
100
AcDbEntity
  8
002
100
AcDbCircle
 10
8100.096222511806
 20
-2424.930338347203
 30
0.0
 40
2.0
100
AcDbArc
 50
279.3693850000041
 51
0.0
  0
LINE
  5
AC03
330
1E
100
AcDbEntity
  8
002
  6
HIDDEN
100
AcDbLine
 10
8100.42182051181
 20
-2443.534625347203
 30
0.0
 11
8101.421820511808
 21
-2443.699625347204
 31
0.0
  0
ARC
  5
AC04
330
1E
100
AcDbEntity
  8
002
100
AcDbCircle
 10
8100.096222511806
 20
-2445.507943347204
 30
0.0
 40
2.0
100
AcDbArc
 50
0.0
 51
80.63061499999589
  0
ARC
  5
AC05
330
1E
100
AcDbEntity
  8
002
100
AcDbCircle
 10
8107.096222511808
 20
-2451.318916347203
 30
0.0
 40
5.0
100
AcDbArc
 50
180.0
 51
189.5290090000085
  0
LINE
  5
AC06
330
1E
100
AcDbEntity
  8
002
100
AcDbLine
 10
8102.096222511807
 20
-2445.507943347204
 30
0.0
 11
8102.096222511807
 21
-2451.318916347203
 31
0.0
  0
LINE
  5
AC07
330
1E
100
AcDbEntity
  8
002
100
AcDbLine
 10
8101.421820511808
 20
-2443.699625347204
 30
0.0
 11
8065.055729511808
 21
-2437.699220347203
 31
0.0
  0
LINE
  5
AC08
330
1E
100
AcDbEntity
  8
002
100
AcDbLine
 10
8100.42182051181
 20
-2426.903656347203
 30
0.0
 11
8064.892930511808
 21
-2432.765923347204
 31
0.0
  0
LINE
  5
AC09
330
1E
100
AcDbEntity
  8
002
100
AcDbLine
 10
8101.421820511808
 20
-2427.752178347204
 30
0.0
 11
8065.055729511808
 21
-2433.752583347203
 31
0.0
  0
LINE
  5
AC0A
330
1E
100
AcDbEntity
  8
002
100
AcDbLine
 10
8063.381326511807
 20
-2434.725901347203
 30
0.0
 11
8063.381326511807
 21
-2435.725901347203
 31
0.0
  0
LINE
  5
AC0B
330
1E
100
AcDbEntity
  8
002
100
AcDbLine
 10
8063.381326511807
 20
-2451.735658347203
 30
0.0
 11
8100.403966511807
 21
-2451.735658347203
 31
0.0
  0
ARC
  5
AC0C
330
1E
100
AcDbEntity
  8
002
100
AcDbCircle
 10
8065.381326511808
 20
-2434.725901347203
 30
0.0
 40
2.0
100
AcDbArc
 50
99.36938500000412
 51
180.0
  0
ARC
  5
AC0D
330
1E
100
AcDbEntity
  8
002
100
AcDbCircle
 10
8065.381326511808
 20
-2435.725901347203
 30
0.0
 40
2.0
100
AcDbArc
 50
99.36938500000412
 51
260.6306149999958
  0
LINE
  5
AC0E
330
1E
100
AcDbEntity
  8
002
100
AcDbLine
 10
8102.096222511807
 20
-2424.930338347203
 30
0.0
 11
8102.096222511807
 21
-2393.488456347204
 31
0.0
  0
LINE
  5
AC0F
330
1E
100
AcDbEntity
  8
002
100
AcDbLine
 10
8103.096222511807
 20
-2445.672943347203
 30
0.0
 11
8103.096222511807
 21
-2457.692893347203
 31
0.0
  0
LINE
  5
AC10
330
1E
100
AcDbEntity
  8
002
100
AcDbLine
 10
8103.096222511807
 20
-2425.778859347203
 30
0.0
 11
8103.096222511807
 21
-2392.639935347204
 31
0.0
  0
MTEXT
  5
AC11
330
1E
100
AcDbEntity
  8
001
100
AcDbMText
 10
8183.249074396774
 20
-2374.277357209903
 30
0.0
 40
11.25
 41
0.0
 71
     5
 72
     1
  1
\A1;M130
 11
0.0000000000000001
 21
1.0
 31
0.0
 73
     1
 44
1.0
  0
LINE
  5
AC12
330
1E
100
AcDbEntity
  8
002
100
AcDbLine
 10
8151.096222511808
 20
-2457.692893347203
 30
0.0
 11
8153.096222511807
 21
-2455.692893347202
 31
0.0
  0
LINE
  5
AC13
330
1E
100
AcDbEntity
  8
002
100
AcDbLine
 10
8151.096222511808
 20
-2457.692893347203
 30
0.0
 11
8151.096222511808
 21
-2382.692893347202
 31
0.0
  0
LINE
  5
AC14
330
1E
100
AcDbEntity
  8
002
100
AcDbLine
 10
8135.077628511808
 20
-2317.692893347202
 30
0.0
 11
8145.077628511808
 21
-2307.692893347203
 31
0.0
  0
LINE
  5
AC15
330
1E
100
AcDbEntity
  8
002
100
AcDbLine
 10
8120.498146511806
 20
-2319.192893347203
 30
0.0
 11
8152.230197511808
 21
-2319.192893347203
 31
0.0
  0
LINE
  5
AC16
330
1E
100
AcDbEntity
  8
002
100
AcDbLine
 10
8123.096222511808
 20
-2317.692893347202
 30
0.0
 11
8153.096222511807
 21
-2317.692893347202
 31
0.0
  0
LINE
  5
AC17
330
1E
100
AcDbEntity
  8
002
100
AcDbLine
 10
8151.096222511808
 20
-2307.692893347203
 30
0.0
 11
8103.096222511807
 21
-2307.692893347203
 31
0.0
  0
LINE
  5
AC18
330
1E
100
AcDbEntity
  8
002
100
AcDbLine
 10
8092.979649511809
 20
-2320.192893347202
 30
0.0
 11
8105.479649511808
 21
-2307.692893347203
 31
0.0
  0
LINE
  5
AC19
330
1E
100
AcDbEntity
  8
002
100
AcDbLine
 10
8073.180659511807
 20
-2320.192893347202
 30
0.0
 11
8082.607324511808
 21
-2310.766227347203
 31
0.0
  0
LINE
  5
AC1A
330
1E
100
AcDbEntity
  8
002
100
AcDbLine
 10
8083.08015451181
 20
-2320.192893347202
 30
0.0
 11
8094.253789511808
 21
-2309.019258347203
 31
0.0
  0
LINE
  5
AC1B
330
1E
100
AcDbEntity
  8
002
100
AcDbLine
 10
8063.281164511806
 20
-2320.192893347202
 30
0.0
 11
8070.960859511808
 21
-2312.513197347203
 31
0.0
  0
LINE
  5
AC1C
330
1E
100
AcDbEntity
  8
002
100
AcDbLine
 10
8120.498146511806
 20
-2319.192893347203
 30
0.0
 11
8123.096222511808
 21
-2317.692893347202
 31
0.0
  0
LINE
  5
AC1D
330
1E
100
AcDbEntity
  8
002
100
AcDbLine
 10
8125.178133511807
 20
-2317.692893347202
 30
0.0
 11
8135.178133511809
 21
-2307.692893347203
 31
0.0
  0
LINE
  5
AC1E
330
1E
100
AcDbEntity
  8
002
100
AcDbLine
 10
8112.778638511807
 20
-2320.192893347202
 30
0.0
 11
8125.278638511806
 21
-2307.692893347203
 31
0.0
  0
LINE
  5
AC1F
330
1E
100
AcDbEntity
  8
002
100
AcDbLine
 10
8102.879143511808
 20
-2320.192893347202
 30
0.0
 11
8115.379143511807
 21
-2307.692893347203
 31
0.0
  0
LINE
  5
AC20
330
1E
100
AcDbEntity
  8
001
100
AcDbLine
 10
8162.471222511808
 20
-2317.692893347202
 30
0.0
 11
8196.374074396773
 21
-2317.692893347202
 31
0.0
  0
LINE
  5
AC21
330
1E
100
AcDbEntity
  8
002
100
AcDbLine
 10
8151.096222511808
 20
-2307.692893347203
 30
0.0
 11
8153.096222511807
 21
-2309.692893347202
 31
0.0
  0
LINE
  5
AC22
330
1E
100
AcDbEntity
  8
002
100
AcDbLine
 10
8152.230197511808
 20
-2319.192893347203
 30
0.0
 11
8153.096222511807
 21
-2317.692893347202
 31
0.0
  0
LINE
  5
AC23
330
1E
100
AcDbEntity
  8
002
100
AcDbLine
 10
8144.977123511807
 20
-2317.692893347202
 30
0.0
 11
8153.036673511808
 21
-2309.633343347202
 31
0.0
  0
INSERT
  5
AC24
330
1E
100
AcDbEntity
  8
001
100
AcDbBlockReference
  2
_Open
 10
8196.374074396773
 20
-2317.692893347202
 30
0.0
 41
11.25
 42
11.25
 43
11.25
 50
90.0
  0
LINE
  5
AC25
330
1E
100
AcDbEntity
  8
003
  6
Continuous
100
AcDbLine
 10
7761.880103225147
 20
-1901.180485505305
 30
0.0
 11
8042.736734441051
 21
-1901.180485505305
 31
0.0
  0
LINE
  5
AC26
330
1E
100
AcDbEntity
  8
003
100
AcDbLine
 10
8107.451880698683
 20
-1551.066925505305
 30
0.0
 11
7835.26405137992
 21
-1551.066925505305
 31
0.0
  0
LINE
  5
AC27
330
1E
100
AcDbEntity
  8
003
100
AcDbLine
 10
7761.880103225147
 20
-1760.665743078989
 30
0.0
 11
7761.880103225147
 21
-1532.104299569189
 31
0.0
  0
LINE
  5
AC28
330
1E
100
AcDbEntity
  8
003
100
AcDbLine
 10
7761.880103225147
 20
-1807.267780078989
 30
0.0
 11
7761.880103225147
 21
-1944.763645604813
 31
0.0
  0
LINE
  5
AC29
330
1E
100
AcDbEntity
  8
003
100
AcDbLine
 10
7761.880103225147
 20
-1760.665743078989
 30
0.0
 11
7781.603986225147
 21
-1760.665743078989
 31
0.0
  0
LINE
  5
AC2A
330
1E
100
AcDbEntity
  8
003
100
AcDbLine
 10
7781.603986225147
 20
-1760.665743078989
 30
0.0
 11
7743.479705225147
 21
-1807.267780078989
 31
0.0
  0
LINE
  5
AC2B
330
1E
100
AcDbEntity
  8
003
100
AcDbLine
 10
7743.479705225147
 20
-1807.267780078989
 30
0.0
 11
7761.880103225147
 21
-1807.267780078989
 31
0.0
  0
LINE
  5
AC2C
330
1E
100
AcDbEntity
  8
003
 48
0.25
100
AcDbLine
 10
7761.880103225147
 20
-1566.330786721499
 30
0.0
 11
7835.26405137992
 21
-1551.066925505305
 31
0.0
  0
DIMENSION
  5
AC2D
330
1E
100
AcDbEntity
  8
001
100
AcDbDimension
  2
*D3
 10
8128.521843000946
 20
-1425.8308256679
 30
0.0
 11
8162.859873691555
 21
-1383.694998737875
 31
0.0
 70
    34
 71
     5
 42
0.1745329251994323
  3
ISO-25
100
AcDb2LineAngularDimension
 13
8087.140507560112
 23
-2010.865700862403
 33
0.0
 14
8190.297940712312
 24
-1425.830825667901
 34
0.0
 15
8128.521843000946
 25
-2010.865700862403
 35
0.0
 16
8172.73695748598
 26
-1397.896005100981
 36
0.0
  0
LINE
  5
AC2E
330
1E
100
AcDbEntity
  8
002
100
AcDbLine
 10
8216.073807622349
 20
-1610.41437377281
 30
0.0
 11
8215.038161098178
 21
-1650.792648689233
 31
0.0
  0
LINE
  5
AC2F
330
1E
100
AcDbEntity
  8
002
100
AcDbLine
 10
8170.477156167988
 20
-1650.986937904759
 30
0.0
 11
8176.259762007596
 21
-1618.192146464518
 31
0.0
  0
LINE
  5
AC30
330
1E
100
AcDbEntity
  8
002
100
AcDbLine
 10
8145.491175479477
 20
-1646.581235369913
 30
0.0
 11
8151.273782711813
 21
-1613.786444175249
 31
0.0
  0
LINE
  5
AC31
330
1E
100
AcDbEntity
  8
002
100
AcDbLine
 10
8156.901440597414
 20
-1648.593172967243
 30
0.0
 11
8162.68404643702
 21
-1615.798381527003
 31
0.0
  0
LINE
  5
AC32
330
1E
100
AcDbEntity
  8
002
100
AcDbLine
 10
8167.973221950566
 20
-1617.212714269968
 30
0.0
 11
8156.206552393319
 21
-1655.699756586673
 31
0.0
  0
LINE
  5
AC33
330
1E
100
AcDbEntity
  8
002
100
AcDbLine
 10
8181.887419893195
 20
-1652.998875256511
 30
0.0
 11
8187.670025732801
 21
-1620.204083816272
 31
0.0
  0
LINE
  5
AC34
330
1E
100
AcDbEntity
  8
002
100
AcDbLine
 10
8154.032049990306
 20
-1662.431155693346
 30
0.0
 11
8154.032049782751
 21
-1600.578670267485
 31
0.0
  0
LINE
  5
AC35
330
1E
100
AcDbEntity
  8
002
100
AcDbLine
 10
8211.438099502597
 20
-1610.331180356904
 30
0.0
 11
8202.071746931299
 21
-1663.450409482702
 31
0.0
  0
LINE
  5
AC36
330
1E
100
AcDbEntity
  8
002
100
AcDbLine
 10
8194.415709531872
 20
-1670.342895056654
 30
0.0
 11
8202.19911693414
 21
-1626.200998161497
 31
0.0
  0
LINE
  5
AC37
330
1E
100
AcDbEntity
  8
002
100
AcDbLine
 10
8170.805833093591
 20
-1617.712180758353
 30
0.0
 11
8168.699541344846
 21
-1657.90260760852
 31
0.0
  0
LINE
  5
AC38
330
1E
100
AcDbEntity
  8
002
100
AcDbLine
 10
8175.032049495433
 20
-1685.107738447404
 30
0.0
 11
8175.03204963824
 21
-1627.589985289864
 31
0.0
  0
LINE
  5
AC39
330
1E
100
AcDbEntity
  8
002
100
AcDbLine
 10
8192.959201246347
 20
-1621.618416559236
 30
0.0
 11
8181.1925316891
 21
-1660.105458875943
 31
0.0
  0
LINE
  5
AC3A
330
1E
100
AcDbEntity
  8
002
100
AcDbLine
 10
8177.908525402392
 20
-1673.129171259088
 30
0.0
 11
8209.575818803131
 21
-1493.535025918985
 31
0.0
  0
LINE
  5
AC3B
330
1E
100
AcDbEntity
  8
002
100
AcDbLine
 10
8167.331127235893
 20
-1671.264090576636
 30
0.0
 11
8198.99842063663
 21
-1491.669945236535
 31
0.0
  0
LINE
  5
AC3C
330
1E
100
AcDbEntity
  8
002
100
AcDbLine
 10
8182.032049693662
 20
-1649.743498841189
 30
0.0
 11
8182.032050305258
 21
-1587.89101284175
 31
0.0
  0
LINE
  5
AC3D
330
1E
100
AcDbEntity
  8
002
100
AcDbLine
 10
8131.915459908901
 20
-1644.187470432398
 30
0.0
 11
8137.698067141236
 21
-1611.392679237733
 31
0.0
  0
LINE
  5
AC3E
330
1E
100
AcDbEntity
  8
002
100
AcDbLine
 10
8142.98724183563
 20
-1612.807012554274
 30
0.0
 11
8131.220573097534
 21
-1651.294054297403
 31
0.0
  0
LINE
  5
AC3F
330
1E
100
AcDbEntity
  8
002
100
AcDbLine
 10
8120.505196183694
 20
-1642.175533080644
 30
0.0
 11
8126.28780341603
 21
-1609.380741885979
 31
0.0
  0
LINE
  5
AC40
330
1E
100
AcDbEntity
  8
002
100
AcDbLine
 10
8120.833873928448
 20
-1608.900775360662
 30
0.0
 11
8118.72758275328
 21
-1649.09120302998
 31
0.0
  0
LINE
  5
AC41
330
1E
100
AcDbEntity
  8
002
100
AcDbLine
 10
8102.800450721275
 20
-1654.188653083756
 30
0.0
 11
8110.58385812354
 21
-1610.0467561886
 31
0.0
  0
LINE
  5
AC42
330
1E
100
AcDbEntity
  8
002
100
AcDbLine
 10
8126.03205024274
 20
-1682.862957322513
 30
0.0
 11
8126.032050079393
 21
-1613.26632711964
 31
0.0
  0
LINE
  5
AC43
330
1E
100
AcDbEntity
  8
002
100
AcDbLine
 10
8083.059139661937
 20
-1668.741703313471
 30
0.0
 11
8090.108263226538
 21
-1628.764136997311
 31
0.0
  0
LINE
  5
AC44
330
1E
100
AcDbEntity
  8
002
100
AcDbLine
 10
8133.032049561242
 20
-1635.419839851812
 30
0.0
 11
8133.032050172836
 21
-1573.567353852375
 31
0.0
  0
LINE
  5
AC45
330
1E
100
AcDbEntity
  8
002
100
AcDbLine
 10
8107.329851740471
 20
-1591.974087362161
 30
0.0
 11
8097.963497776444
 21
-1645.093316242382
 31
0.0
  0
LINE
  5
AC46
330
1E
100
AcDbEntity
  8
003
100
AcDbLine
 10
8038.585582539557
 20
-1684.100544946894
 30
0.0
 11
7994.789823713258
 21
-1564.681243717785
 31
0.0
  0
LINE
  5
AC47
330
1E
100
AcDbEntity
  8
002
100
AcDbLine
 10
8134.531349292258
 20
-1711.172638429016
 30
0.0
 11
8174.012440767272
 21
-1487.264242128114
 31
0.0
  0
LINE
  5
AC48
330
1E
100
AcDbEntity
  8
002
100
AcDbLine
 10
8145.108747463561
 20
-1713.037719112313
 30
0.0
 11
8184.589838114618
 21
-1489.12932338414
 31
0.0
  0
LINE
  5
AC49
330
1E
100
AcDbEntity
  8
002
100
AcDbLine
 10
8145.819853224232
 20
-1613.306477649932
 30
0.0
 11
8143.713562049063
 21
-1653.496905319251
 31
0.0
  0
LINE
  5
AC4A
330
1E
100
AcDbEntity
  8
002
100
AcDbLine
 10
8127.936565418098
 20
-1664.317766434973
 30
0.0
 11
8159.603858818837
 21
-1484.723621094872
 31
0.0
  0
LINE
  5
AC4B
330
1E
100
AcDbEntity
  8
002
100
AcDbLine
 10
8117.359167251597
 20
-1662.452685752521
 30
0.0
 11
8149.026460652336
 21
-1482.85854041242
 31
0.0
  0
LINE
  5
AC4C
330
1E
100
AcDbEntity
  8
003
100
AcDbLine
 10
8026.846916800527
 20
-1704.370086921071
 30
0.0
 11
7974.292006544508
 21
-1561.066925505305
 31
0.0
  0
LINE
  5
AC4D
330
1E
100
AcDbEntity
  8
004
  6
CENTER
 62
     6
100
AcDbLine
 10
8087.140507560112
 20
-2010.865700862403
 30
0.0
 11
8190.297940712312
 21
-1425.830825667901
 31
0.0
  0
LINE
  5
AC4E
330
1E
100
AcDbEntity
  8
004
  6
CENTER
 62
     6
100
AcDbLine
 10
8128.521843000946
 20
-2010.865700862403
 30
0.0
 11
8128.521843000946
 21
-1425.8308256679
 31
0.0
  0
LINE
  5
AC4F
330
1E
100
AcDbEntity
  8
003
100
AcDbLine
 10
8038.585582539557
 20
-1684.100544946894
 30
0.0
 11
8097.918350548573
 21
-1694.562512786999
 31
0.0
  0
LINE
  5
AC50
330
1E
100
AcDbEntity
  8
002
100
AcDbLine
 10
8059.86161207147
 20
-1666.368875453179
 30
0.0
 11
8111.499303173181
 21
-1675.4739936159
 31
0.0
  0
LINE
  5
AC51
330
1E
100
AcDbEntity
  8
002
  6
Continuous
100
AcDbLine
 10
8056.187766513707
 20
-1687.20428490093
 30
0.0
 11
8205.076630221466
 21
-1713.457408699636
 31
0.0
  0
ARC
  5
AC52
330
1E
100
AcDbEntity
  8
002
100
AcDbCircle
 10
8063.956452613512
 20
-1940.738388811467
 30
0.0
 40
2.5
100
AcDbArc
 50
128.1896849999879
 51
211.8103150000168
  0
LINE
  5
AC53
330
1E
100
AcDbEntity
  8
003
100
AcDbLine
 10
8065.845304273613
 20
-1711.2465548367
 30
0.0
 11
8032.354827744729
 21
-1901.180485505305
 31
0.0
  0
LINE
  5
AC54
330
1E
100
AcDbEntity
  8
003
100
AcDbLine
 10
8094.224741956038
 20
-1716.250615397446
 30
0.0
 11
8026.846916800527
 21
-1704.370086921071
 31
0.0
  0
LINE
  5
AC55
330
1E
100
AcDbEntity
  8
002
100
AcDbLine
 10
8059.227235342293
 20
-1956.828277412158
 30
0.0
 11
8062.173863048569
 21
-1961.578791933541
 31
0.0
  0
LINE
  5
AC56
330
1E
100
AcDbEntity
  8
002
100
AcDbLine
 10
8064.199758512566
 20
-1950.08936782013
 30
0.0
 11
8059.8060625433
 21
-1953.545585230386
 31
0.0
  0
LINE
  5
AC57
330
1E
100
AcDbEntity
  8
002
100
AcDbLine
 10
8061.595035847561
 20
-1964.861484115314
 30
0.0
 11
8057.201339878297
 21
-1968.317701525568
 31
0.0
  0
LINE
  5
AC58
330
1E
100
AcDbEntity
  8
002
100
AcDbLine
 10
8056.284987900971
 20
-1969.848500957667
 30
0.0
 11
8125.079951079953
 21
-1975.008429326081
 31
0.0
  0
LINE
  5
AC59
330
1E
100
AcDbEntity
  8
002
100
AcDbLine
 10
8110.658937890702
 20
-1981.134090644767
 30
0.0
 11
8059.90666533353
 21
-1978.102799993592
 31
0.0
  0
LINE
  5
AC5A
330
1E
100
AcDbEntity
  8
002
100
AcDbLine
 10
8053.680265235968
 20
-1984.620617252849
 30
0.0
 11
8077.993496811993
 21
-1986.444217812246
 31
0.0
  0
LWPOLYLINE
  5
AC5B
330
1E
100
AcDbEntity
  8
002
100
AcDbPolyline
 90
       24
 70
     0
 43
0.0
 10
8136.125982969799
 20
-1967.11682904018
 10
8133.252081888409
 20
-1969.495051903737
 10
8130.275298168857
 20
-1971.714520551404
 10
8127.19469999028
 20
-1973.765368276747
 10
8124.00935269396
 20
-1975.637732950073
 10
8120.718323300584
 20
-1977.321748676107
 10
8117.67447034518
 20
-1978.668379505475
 10
8114.55949964534
 20
-1979.865439551847
 10
8111.388280955482
 20
-1980.923226363878
 10
8108.175686173295
 20
-1981.85203685272
 10
8104.936585400492
 20
-1982.662166597418
 10
8099.827364840665
 20
-1983.720778450644
 10
8094.687246811735
 20
-1984.56518170472
 10
8089.51396528735
 20
-1985.247917079899
 10
8084.305257716522
 20
-1985.821522862956
 10
8079.058858941131
 20
-1986.338534850099
 10
8073.663315262463
 20
-1986.873767915703
 10
8068.283206205103
 20
-1987.523329075824
 10
8062.97573448986
 20
-1988.405781723024
 10
8057.798104459859
 20
-1989.639691566786
 10
8052.807518314958
 20
-1991.343624954106
 10
8050.733129985273
 20
-1992.246477560675
 10
8048.699601642345
 20
-1993.24779229038
 10
8046.702684721141
 20
-1994.337335922015
  0
LINE
  5
AC5C
330
1E
100
AcDbEntity
  8
002
100
AcDbLine
 10
8058.889710565976
 20
-1955.076384662483
 30
0.0
 11
8134.052653374395
 21
-1960.71393983991
 31
0.0
  0
LINE
  5
AC5D
330
1E
100
AcDbEntity
  8
002
100
AcDbLine
 10
8061.494433230979
 20
-1940.304268367301
 30
0.0
 11
8136.657376039396
 21
-1945.941823544728
 31
0.0
  0
LINE
  5
AC5E
330
1E
100
AcDbEntity
  8
003
100
AcDbLine
 10
8056.489630619999
 20
-1709.596897148863
 30
0.0
 11
8022.708274931813
 21
-1901.180485505305
 31
0.0
  0
LINE
  5
AC5F
330
1E
100
AcDbEntity
  8
002
100
AcDbLine
 10
8054.017790012286
 20
-1986.372510002524
 30
0.0
 11
8056.350843985457
 21
-1990.133829002927
 31
0.0
  0
LINE
  5
AC60
330
1E
100
AcDbEntity
  8
003
100
AcDbLine
 10
8021.691412736167
 20
-1985.68801660168
 30
0.0
 11
8022.990668108338
 21
-1989.980421200212
 31
0.0
  0
LINE
  5
AC61
330
1E
100
AcDbEntity
  8
003
100
AcDbLine
 10
8020.442938038453
 20
-2024.362787923677
 30
0.0
 11
8020.7141295388
 21
-2027.585053284738
 31
0.0
  0
LINE
  5
AC62
330
1E
100
AcDbEntity
  8
003
100
AcDbLine
 10
8022.196868767444
 20
-2006.096085544322
 30
0.0
 11
8019.798596658828
 21
-2007.75059162818
 31
0.0
  0
LINE
  5
AC63
330
1E
100
AcDbEntity
  8
003
100
AcDbLine
 10
8020.7141295388
 20
-2027.585053284738
 30
0.0
 11
8019.681734199506
 21
-2030.04088633774
 31
0.0
  0
LINE
  5
AC64
330
1E
100
AcDbEntity
  8
003
100
AcDbLine
 10
8019.085026318666
 20
-2020.944030419714
 30
0.0
 11
8020.442938038453
 21
-2024.362787923677
 31
0.0
  0
LINE
  5
AC65
330
1E
100
AcDbEntity
  8
003
100
AcDbLine
 10
8017.427235095999
 20
-2017.516206649599
 30
0.0
 11
8019.085026318666
 21
-2020.944030419714
 31
0.0
  0
LINE
  5
AC66
330
1E
100
AcDbEntity
  8
003
100
AcDbLine
 10
8016.256401785296
 20
-2014.266743938762
 30
0.0
 11
8017.427235095999
 21
-2017.516206649599
 31
0.0
  0
LINE
  5
AC67
330
1E
100
AcDbEntity
  8
003
100
AcDbLine
 10
8016.359366929464
 20
-2011.383069148769
 30
0.0
 11
8016.256401785296
 21
-2014.266743938762
 31
0.0
  0
LINE
  5
AC68
330
1E
100
AcDbEntity
  8
003
100
AcDbLine
 10
8017.691469877966
 20
-2009.466888305598
 30
0.0
 11
8016.359366929464
 21
-2011.383069148769
 31
0.0
  0
LINE
  5
AC69
330
1E
100
AcDbEntity
  8
003
100
AcDbLine
 10
8019.798596658828
 20
-2007.75059162818
 30
0.0
 11
8017.691469877966
 21
-2009.466888305598
 31
0.0
  0
LINE
  5
AC6A
330
1E
100
AcDbEntity
  8
003
100
AcDbLine
 10
8015.57464077409
 20
-2034.506550522162
 30
0.0
 11
8013.468985264177
 21
-2036.701199936018
 31
0.0
  0
LINE
  5
AC6B
330
1E
100
AcDbEntity
  8
003
100
AcDbLine
 10
8013.468985264177
 20
-2036.701199936018
 30
0.0
 11
8011.97461689375
 21
-2038.993608427734
 31
0.0
  0
LINE
  5
AC6C
330
1E
100
AcDbEntity
  8
003
100
AcDbLine
 10
8017.807064625937
 20
-2032.317248437819
 30
0.0
 11
8015.57464077409
 21
-2034.506550522162
 31
0.0
  0
LINE
  5
AC6D
330
1E
100
AcDbEntity
  8
003
100
AcDbLine
 10
8019.681734199506
 20
-2030.04088633774
 30
0.0
 11
8017.807064625937
 21
-2032.317248437819
 31
0.0
  0
LINE
  5
AC6E
330
1E
100
AcDbEntity
  8
003
100
AcDbLine
 10
8024.922847618778
 20
-1994.4336014656
 30
0.0
 11
8026.299286693346
 21
-1998.697004270996
 31
0.0
  0
LINE
  5
AC6F
330
1E
100
AcDbEntity
  8
003
100
AcDbLine
 10
8022.990668108338
 20
-1989.980421200212
 30
0.0
 11
8024.922847618778
 21
-1994.4336014656
 31
0.0
  0
LINE
  5
AC70
330
1E
100
AcDbEntity
  8
003
100
AcDbLine
 10
8025.931319773086
 20
-2002.420076315911
 30
0.0
 11
8024.402403412702
 21
-2004.365277756857
 31
0.0
  0
LINE
  5
AC71
330
1E
100
AcDbEntity
  8
003
100
AcDbLine
 10
8024.402403412702
 20
-2004.365277756857
 30
0.0
 11
8022.196868767444
 21
-2006.096085544322
 31
0.0
  0
LINE
  5
AC72
330
1E
100
AcDbEntity
  8
003
100
AcDbLine
 10
8026.299286693346
 20
-1998.697004270996
 30
0.0
 11
8025.931319773086
 21
-2002.420076315911
 31
0.0
  0
LINE
  5
AC73
330
1E
100
AcDbEntity
  8
003
100
AcDbLine
 10
8042.736734441051
 20
-1901.180485505305
 30
0.0
 11
8043.106146759802
 21
-1903.37016399175
 31
0.0
  0
LINE
  5
AC74
330
1E
100
AcDbEntity
  8
003
100
AcDbLine
 10
8037.414208782612
 20
-1911.163477274869
 30
0.0
 11
8036.287521921103
 21
-1913.238304441336
 31
0.0
  0
LINE
  5
AC75
330
1E
100
AcDbEntity
  8
003
100
AcDbLine
 10
8039.10567561051
 20
-1909.227887448407
 30
0.0
 11
8037.414208782612
 21
-1911.163477274869
 31
0.0
  0
LINE
  5
AC76
330
1E
100
AcDbEntity
  8
003
100
AcDbLine
 10
8040.915660541442
 20
-1907.34289678961
 30
0.0
 11
8039.10567561051
 21
-1909.227887448407
 31
0.0
  0
LINE
  5
AC77
330
1E
100
AcDbEntity
  8
003
100
AcDbLine
 10
8042.397903681679
 20
-1905.419867473434
 30
0.0
 11
8040.915660541442
 21
-1907.34289678961
 31
0.0
  0
LINE
  5
AC78
330
1E
100
AcDbEntity
  8
003
100
AcDbLine
 10
8043.106146759802
 20
-1903.37016399175
 30
0.0
 11
8042.397903681679
 21
-1905.419867473434
 31
0.0
  0
LINE
  5
AC79
330
1E
100
AcDbEntity
  8
003
100
AcDbLine
 10
8033.296763981507
 20
-1933.862169629057
 30
0.0
 11
8031.525938384254
 21
-1935.676411400212
 31
0.0
  0
LINE
  5
AC7A
330
1E
100
AcDbEntity
  8
003
100
AcDbLine
 10
8030.504017979033
 20
-1937.661990187474
 30
0.0
 11
8030.628811033192
 21
-1940.259528720875
 31
0.0
  0
LINE
  5
AC7B
330
1E
100
AcDbEntity
  8
003
100
AcDbLine
 10
8031.525938384254
 20
-1935.676411400212
 30
0.0
 11
8030.504017979033
 21
-1937.661990187474
 31
0.0
  0
LINE
  5
AC7C
330
1E
100
AcDbEntity
  8
003
100
AcDbLine
 10
8035.35693502509
 20
-1932.10607048452
 30
0.0
 11
8033.296763981507
 21
-1933.862169629057
 31
0.0
  0
LINE
  5
AC7D
330
1E
100
AcDbEntity
  8
003
100
AcDbLine
 10
8037.246887830066
 20
-1930.294918882509
 30
0.0
 11
8035.35693502509
 21
-1932.10607048452
 31
0.0
  0
LINE
  5
AC7E
330
1E
100
AcDbEntity
  8
003
100
AcDbLine
 10
8038.507060971332
 20
-1928.315524199119
 30
0.0
 11
8037.246887830066
 21
-1930.294918882509
 31
0.0
  0
LINE
  5
AC7F
330
1E
100
AcDbEntity
  8
003
100
AcDbLine
 10
8038.762697182411
 20
-1925.523859298644
 30
0.0
 11
8038.507060971332
 21
-1928.315524199119
 31
0.0
  0
LINE
  5
AC80
330
1E
100
AcDbEntity
  8
003
100
AcDbLine
 10
8038.007946119979
 20
-1922.460393218734
 30
0.0
 11
8038.762697182411
 21
-1925.523859298644
 31
0.0
  0
LINE
  5
AC81
330
1E
100
AcDbEntity
  8
003
100
AcDbLine
 10
8036.903423742055
 20
-1919.28503712659
 30
0.0
 11
8038.007946119979
 21
-1922.460393218734
 31
0.0
  0
LINE
  5
AC82
330
1E
100
AcDbEntity
  8
003
100
AcDbLine
 10
8036.109743689754
 20
-1916.157703811724
 30
0.0
 11
8036.903423742055
 21
-1919.28503712659
 31
0.0
  0
LINE
  5
AC83
330
1E
100
AcDbEntity
  8
003
100
AcDbLine
 10
8036.287521921103
 20
-1913.238304441336
 30
0.0
 11
8036.109743689754
 21
-1916.157703811724
 31
0.0
  0
ARC
  5
AC84
330
1E
100
AcDbEntity
  8
002
100
AcDbCircle
 10
8061.351729948507
 20
-1955.510505106649
 30
0.0
 40
2.5
100
AcDbArc
 50
128.1896849999879
 51
211.8103150000168
  0
ARC
  5
AC85
330
1E
100
AcDbEntity
  8
002
100
AcDbCircle
 10
8058.747007283502
 20
-1970.282621401833
 30
0.0
 40
2.5
100
AcDbArc
 50
128.1896849999879
 51
211.8103150000168
  0
LINE
  5
AC86
330
1E
100
AcDbEntity
  8
003
100
AcDbLine
 10
8034.095560542409
 20
-1951.398068909202
 30
0.0
 11
8032.944727007901
 21
-1953.355519841161
 31
0.0
  0
LINE
  5
AC87
330
1E
100
AcDbEntity
  8
003
100
AcDbLine
 10
8031.706453635802
 20
-1943.083895878435
 30
0.0
 11
8033.080852942424
 21
-1945.983102273032
 31
0.0
  0
LINE
  5
AC88
330
1E
100
AcDbEntity
  8
003
100
AcDbLine
 10
8028.99088218961
 20
-1968.388813402511
 30
0.0
 11
8030.14809357244
 21
-1970.995689353631
 31
0.0
  0
LINE
  5
AC89
330
1E
100
AcDbEntity
  8
003
100
AcDbLine
 10
8027.522992836564
 20
-1965.696569862528
 30
0.0
 11
8028.99088218961
 21
-1968.388813402511
 31
0.0
  0
LINE
  5
AC8A
330
1E
100
AcDbEntity
  8
003
100
AcDbLine
 10
8026.375181495778
 20
-1963.06053014849
 30
0.0
 11
8027.522992836564
 21
-1965.696569862528
 31
0.0
  0
LINE
  5
AC8B
330
1E
100
AcDbEntity
  8
003
100
AcDbLine
 10
8026.17820890013
 20
-1960.622267528257
 30
0.0
 11
8026.375181495778
 21
-1963.06053014849
 31
0.0
  0
LINE
  5
AC8C
330
1E
100
AcDbEntity
  8
003
100
AcDbLine
 10
8027.185307197923
 20
-1958.66695065553
 30
0.0
 11
8026.17820890013
 21
-1960.622267528257
 31
0.0
  0
LINE
  5
AC8D
330
1E
100
AcDbEntity
  8
003
100
AcDbLine
 10
8028.985095674295
 20
-1956.878416796506
 30
0.0
 11
8027.185307197923
 21
-1958.66695065553
 31
0.0
  0
LINE
  5
AC8E
330
1E
100
AcDbEntity
  8
003
100
AcDbLine
 10
8031.073071318749
 20
-1955.145121309029
 30
0.0
 11
8028.985095674295
 21
-1956.878416796506
 31
0.0
  0
LINE
  5
AC8F
330
1E
100
AcDbEntity
  8
003
100
AcDbLine
 10
8032.944727007901
 20
-1953.355519841161
 30
0.0
 11
8031.073071318749
 21
-1955.145121309029
 31
0.0
  0
LINE
  5
AC90
330
1E
100
AcDbEntity
  8
003
100
AcDbLine
 10
8034.09591958399
 20
-1948.805156084061
 30
0.0
 11
8034.095560542409
 21
-1951.398068909202
 31
0.0
  0
LINE
  5
AC91
330
1E
100
AcDbEntity
  8
003
100
AcDbLine
 10
8033.080852942424
 20
-1945.983102273032
 30
0.0
 11
8034.09591958399
 21
-1948.805156084061
 31
0.0
  0
ARC
  5
AC92
330
1E
100
AcDbEntity
  8
002
100
AcDbCircle
 10
8057.444645950999
 20
-1977.668679549424
 30
0.0
 40
2.5
100
AcDbArc
 50
308.1896849999879
 51
31.81031500001687
  0
ARC
  5
AC93
330
1E
100
AcDbEntity
  8
002
100
AcDbCircle
 10
8056.142284618498
 20
-1985.054737697015
 30
0.0
 40
2.5
100
AcDbArc
 50
128.1896849999879
 51
211.8103150000168
  0
LINE
  5
AC94
330
1E
100
AcDbEntity
  8
002
100
AcDbLine
 10
8058.990313182558
 20
-1979.633600410496
 30
0.0
 11
8054.596617213292
 21
-1983.089817820751
 31
0.0
  0
LINE
  5
AC95
330
1E
100
AcDbEntity
  8
003
100
AcDbLine
 10
8027.697563270372
 20
-1976.857232239612
 30
0.0
 11
8025.631744697136
 21
-1978.451335621279
 31
0.0
  0
LINE
  5
AC96
330
1E
100
AcDbEntity
  8
003
100
AcDbLine
 10
8029.420201844542
 20
-1975.202715461255
 30
0.0
 11
8027.697563270372
 21
-1976.857232239612
 31
0.0
  0
LINE
  5
AC97
330
1E
100
AcDbEntity
  8
003
100
AcDbLine
 10
8030.363867063336
 20
-1973.375625606482
 30
0.0
 11
8029.420201844542
 21
-1975.202715461255
 31
0.0
  0
LINE
  5
AC98
330
1E
100
AcDbEntity
  8
003
100
AcDbLine
 10
8030.14809357244
 20
-1970.995689353631
 30
0.0
 11
8030.363867063336
 21
-1973.375625606482
 31
0.0
  0
LINE
  5
AC99
330
1E
100
AcDbEntity
  8
002
100
AcDbLine
 10
8056.622512677289
 20
-1971.60039370734
 30
0.0
 11
8059.569140383564
 21
-1976.350908228725
 31
0.0
  0
LINE
  5
AC9A
330
1E
100
AcDbEntity
  8
003
100
AcDbLine
 10
8022.213743121989
 20
-1981.906940275895
 30
0.0
 11
8021.691412736167
 21
-1985.68801660168
 31
0.0
  0
LINE
  5
AC9B
330
1E
100
AcDbEntity
  8
003
100
AcDbLine
 10
8023.658540639607
 20
-1980.097184474811
 30
0.0
 11
8022.213743121989
 21
-1981.906940275895
 31
0.0
  0
LINE
  5
AC9C
330
1E
100
AcDbEntity
  8
003
100
AcDbLine
 10
8025.631744697136
 20
-1978.451335621279
 30
0.0
 11
8023.658540639607
 21
-1980.097184474811
 31
0.0
  0
LINE
  5
AC9D
330
1E
100
AcDbEntity
  8
003
100
AcDbLine
 10
8030.628811033192
 20
-1940.259528720875
 30
0.0
 11
8031.706453635802
 21
-1943.083895878435
 31
0.0
  0
LINE
  5
AC9E
330
1E
100
AcDbEntity
  8
004
  6
CENTER
100
AcDbLine
 10
8013.25571394075
 20
-1682.726314780056
 30
0.0
 11
8039.976173437654
 21
-1672.926870297189
 31
0.0
  0
LINE
  5
AC9F
330
1E
100
AcDbEntity
  8
003
100
AcDbLine
 10
8019.788463289776
 20
-1685.123574562376
 30
0.0
 11
8036.687839300896
 21
-1678.925907928159
 31
0.0
  0
LINE
  5
ACA0
330
1E
100
AcDbEntity
  8
003
100
AcDbLine
 10
8016.689630059493
 20
-1676.673886064413
 30
0.0
 11
8033.589006070611
 21
-1670.476219430196
 31
0.0
  0
LINE
  5
ACA1
330
1E
100
AcDbEntity
  8
002
100
AcDbLine
 10
8059.86161207147
 20
-1666.368875453179
 30
0.0
 11
8056.187766513707
 21
-1687.20428490093
 31
0.0
  0
ARC
  5
ACA2
330
1E
100
AcDbEntity
  8
002
100
AcDbCircle
 10
8147.218969981887
 20
-1871.647121624644
 30
0.0
 40
2.5
100
AcDbArc
 50
308.1896849999879
 51
31.81031500001687
  0
LINE
  5
ACA3
330
1E
100
AcDbEntity
  8
003
100
AcDbLine
 10
8209.627236213398
 20
-1736.599188776072
 30
0.0
 11
8180.607113080046
 21
-1901.180485505305
 31
0.0
  0
LINE
  5
ACA4
330
1E
100
AcDbEntity
  8
003
100
AcDbLine
 10
8218.982909867014
 20
-1738.248846463908
 30
0.0
 11
8190.253665892962
 21
-1901.180485505305
 31
0.0
  0
LINE
  5
ACA5
330
1E
100
AcDbEntity
  8
002
100
AcDbLine
 10
8074.855571332317
 20
-1868.195579641058
 30
0.0
 11
8077.802199038593
 21
-1872.946094162443
 31
0.0
  0
LINE
  5
ACA6
330
1E
100
AcDbEntity
  8
002
100
AcDbLine
 10
8074.518046555999
 20
-1866.443686891385
 30
0.0
 11
8149.680989364417
 21
-1872.081242068812
 31
0.0
  0
ARC
  5
ACA7
330
1E
100
AcDbEntity
  8
002
100
AcDbCircle
 10
8145.916608649384
 20
-1879.033179772237
 30
0.0
 40
2.5
100
AcDbArc
 50
128.1896849999879
 51
211.8103150000168
  0
LINE
  5
ACA8
330
1E
100
AcDbEntity
  8
002
100
AcDbLine
 10
8141.187391378167
 20
-1895.123068372926
 30
0.0
 11
8144.134019084445
 21
-1899.873582894311
 31
0.0
  0
LINE
  5
ACA9
330
1E
100
AcDbEntity
  8
002
100
AcDbLine
 10
8143.555191883434
 20
-1903.156275076084
 30
0.0
 11
8139.161495914171
 21
-1906.612492486338
 31
0.0
  0
LINE
  5
ACAA
330
1E
100
AcDbEntity
  8
002
100
AcDbLine
 10
8069.308601225992
 20
-1895.987919481751
 30
0.0
 11
8144.471544034409
 21
-1901.625474659178
 31
0.0
  0
LINE
  5
ACAB
330
1E
100
AcDbEntity
  8
002
100
AcDbLine
 10
8071.913323890996
 20
-1881.215803186567
 30
0.0
 11
8147.076266699412
 21
-1886.853358363994
 31
0.0
  0
LINE
  5
ACAC
330
1E
100
AcDbEntity
  8
002
100
AcDbLine
 10
8146.159914548439
 20
-1888.3841587809
 30
0.0
 11
8141.766218579174
 21
-1891.840376191154
 31
0.0
  0
LINE
  5
ACAD
330
1E
100
AcDbEntity
  8
002
100
AcDbLine
 10
8143.454589266854
 20
-1878.599059328069
 30
0.0
 11
8078.139723988559
 21
-1874.69798592731
 31
0.0
  0
LINE
  5
ACAE
330
1E
100
AcDbEntity
  8
002
100
AcDbLine
 10
8140.84986660185
 20
-1893.371175623253
 30
0.0
 11
8075.535001323554
 21
-1889.470102222494
 31
0.0
  0
LINE
  5
ACAF
330
1E
100
AcDbEntity
  8
002
100
AcDbLine
 10
8138.245143936847
 20
-1908.143291918435
 30
0.0
 11
8072.930278658551
 21
-1904.242218517676
 31
0.0
  0
LINE
  5
ACB0
330
1E
100
AcDbEntity
  8
002
100
AcDbLine
 10
8135.640421271842
 20
-1922.915408213619
 30
0.0
 11
8070.325555993546
 21
-1919.01433481286
 31
0.0
  0
LINE
  5
ACB1
330
1E
100
AcDbEntity
  8
002
100
AcDbLine
 10
8066.703878560987
 20
-1910.760035776933
 30
0.0
 11
8141.866821369406
 21
-1916.397590954362
 31
0.0
  0
LINE
  5
ACB2
330
1E
100
AcDbEntity
  8
002
100
AcDbLine
 10
8133.035698606837
 20
-1937.687524508801
 30
0.0
 11
8067.720833328543
 21
-1933.786451108042
 31
0.0
  0
LINE
  5
ACB3
330
1E
100
AcDbEntity
  8
002
100
AcDbLine
 10
8064.099155895984
 20
-1925.532152072117
 30
0.0
 11
8139.262098704401
 21
-1931.169707249544
 31
0.0
  0
LINE
  5
ACB4
330
1E
100
AcDbEntity
  8
002
100
AcDbLine
 10
8130.430975941834
 20
-1952.459640803985
 30
0.0
 11
8065.11611066354
 21
-1948.558567403226
 31
0.0
  0
LINE
  5
ACB5
330
1E
100
AcDbEntity
  8
002
100
AcDbLine
 10
8127.826253276829
 20
-1967.231757099169
 30
0.0
 11
8062.511387998535
 21
-1963.330683698408
 31
0.0
  0
LINE
  5
ACB6
330
1E
100
AcDbEntity
  8
002
100
AcDbLine
 10
8077.223371837584
 20
-1876.228786344214
 30
0.0
 11
8072.829675868318
 21
-1879.68500375447
 31
0.0
  0
ARC
  5
ACB7
330
1E
100
AcDbEntity
  8
002
100
AcDbCircle
 10
8074.375343273526
 20
-1881.649923630733
 30
0.0
 40
2.5
100
AcDbArc
 50
128.1896849999879
 51
211.8103150000168
  0
ARC
  5
ACB8
330
1E
100
AcDbEntity
  8
002
100
AcDbCircle
 10
8075.677704606029
 20
-1874.263865483142
 30
0.0
 40
2.5
100
AcDbArc
 50
308.1896849999879
 51
31.81031500001687
  0
LINE
  5
ACB9
330
1E
100
AcDbEntity
  8
002
100
AcDbLine
 10
8074.618649172583
 20
-1891.000902639398
 30
0.0
 11
8070.224953203316
 21
-1894.457120049652
 31
0.0
  0
ARC
  5
ACBA
330
1E
100
AcDbEntity
  8
002
100
AcDbCircle
 10
8070.468259276021
 20
-1903.808098073508
 30
0.0
 40
2.5
100
AcDbArc
 50
308.1896849999879
 51
31.81031500001687
  0
ARC
  5
ACBB
330
1E
100
AcDbEntity
  8
002
100
AcDbCircle
 10
8069.165897943518
 20
-1911.194156221099
 30
0.0
 40
2.5
100
AcDbArc
 50
128.1896849999879
 51
211.8103150000168
  0
LINE
  5
ACBC
330
1E
100
AcDbEntity
  8
002
100
AcDbLine
 10
8072.013926507578
 20
-1905.773018934582
 30
0.0
 11
8067.620230538313
 21
-1909.229236344836
 31
0.0
  0
LINE
  5
ACBD
330
1E
100
AcDbEntity
  8
002
100
AcDbLine
 10
8069.646126002309
 20
-1897.739812231424
 30
0.0
 11
8072.592753708585
 21
-1902.490326752809
 31
0.0
  0
ARC
  5
ACBE
330
1E
100
AcDbEntity
  8
002
100
AcDbCircle
 10
8071.770620608523
 20
-1896.422039925917
 30
0.0
 40
2.5
100
AcDbArc
 50
128.1896849999879
 51
211.8103150000168
  0
ARC
  5
ACBF
330
1E
100
AcDbEntity
  8
002
100
AcDbCircle
 10
8073.072981941024
 20
-1889.035981778324
 30
0.0
 40
2.5
100
AcDbArc
 50
308.1896849999879
 51
31.81031500001687
  0
ARC
  5
ACC0
330
1E
100
AcDbEntity
  8
002
100
AcDbCircle
 10
8065.258813946014
 20
-1933.352330663874
 30
0.0
 40
2.5
100
AcDbArc
 50
308.1896849999879
 51
31.81031500001687
  0
ARC
  5
ACC1
330
1E
100
AcDbEntity
  8
002
100
AcDbCircle
 10
8067.863536611016
 20
-1918.580214368692
 30
0.0
 40
2.5
100
AcDbArc
 50
308.1896849999879
 51
31.81031500001687
  0
LINE
  5
ACC2
330
1E
100
AcDbEntity
  8
002
100
AcDbLine
 10
8069.409203842573
 20
-1920.545135229763
 30
0.0
 11
8065.015507873308
 21
-1924.001352640019
 31
0.0
  0
LINE
  5
ACC3
330
1E
100
AcDbEntity
  8
002
100
AcDbLine
 10
8064.436680672301
 20
-1927.28404482179
 30
0.0
 11
8067.383308378577
 21
-1932.034559343175
 31
0.0
  0
LINE
  5
ACC4
330
1E
100
AcDbEntity
  8
002
100
AcDbLine
 10
8067.041403337304
 20
-1912.511928526608
 30
0.0
 11
8069.98803104358
 21
-1917.262443047991
 31
0.0
  0
LINE
  5
ACC5
330
1E
100
AcDbEntity
  8
002
100
AcDbLine
 10
8072.250848667312
 20
-1882.967695936242
 30
0.0
 11
8075.197476373588
 21
-1887.718210457626
 31
0.0
  0
LINE
  5
ACC6
330
1E
100
AcDbEntity
  8
002
100
AcDbLine
 10
8066.804481177568
 20
-1935.317251524947
 30
0.0
 11
8062.410785208305
 21
-1938.773468935202
 31
0.0
  0
ARC
  5
ACC7
330
1E
100
AcDbEntity
  8
002
100
AcDbCircle
 10
8066.561175278515
 20
-1925.966272516283
 30
0.0
 40
2.5
100
AcDbArc
 50
128.1896849999879
 51
211.8103150000168
  0
ARC
  5
ACC8
330
1E
100
AcDbEntity
  8
002
100
AcDbCircle
 10
8060.049368616004
 20
-1962.89656325424
 30
0.0
 40
2.5
100
AcDbArc
 50
308.1896849999879
 51
31.81031500001687
  0
ARC
  5
ACC9
330
1E
100
AcDbEntity
  8
002
100
AcDbCircle
 10
8062.654091281009
 20
-1948.124446959058
 30
0.0
 40
2.5
100
AcDbArc
 50
308.1896849999879
 51
31.81031500001687
  0
LINE
  5
ACCA
330
1E
100
AcDbEntity
  8
002
100
AcDbLine
 10
8061.831958007296
 20
-1942.056161116974
 30
0.0
 11
8064.778585713574
 21
-1946.806675638358
 31
0.0
  0
ARC
  5
ACCB
330
1E
100
AcDbEntity
  8
002
100
AcDbCircle
 10
8140.707163319378
 20
-1908.577412362603
 30
0.0
 40
2.5
100
AcDbArc
 50
128.1896849999879
 51
211.8103150000168
  0
ARC
  5
ACCC
330
1E
100
AcDbEntity
  8
002
100
AcDbCircle
 10
8143.311885984381
 20
-1893.805296067419
 30
0.0
 40
2.5
100
AcDbArc
 50
128.1896849999879
 51
211.8103150000168
  0
LINE
  5
ACCD
330
1E
100
AcDbEntity
  8
002
100
AcDbLine
 10
8138.345746553429
 20
-1932.70050766645
 30
0.0
 11
8133.952050584163
 21
-1936.156725076703
 31
0.0
  0
ARC
  5
ACCE
330
1E
100
AcDbEntity
  8
002
100
AcDbCircle
 10
8135.497717989368
 20
-1938.121644952969
 30
0.0
 40
2.5
100
AcDbArc
 50
128.1896849999879
 51
211.8103150000168
  0
ARC
  5
ACCF
330
1E
100
AcDbEntity
  8
002
100
AcDbCircle
 10
8139.404801986875
 20
-1915.963470510194
 30
0.0
 40
2.5
100
AcDbArc
 50
308.1896849999879
 51
31.81031500001687
  0
ARC
  5
ACD0
330
1E
100
AcDbEntity
  8
002
100
AcDbCircle
 10
8138.102440654373
 20
-1923.349528657785
 30
0.0
 40
2.5
100
AcDbArc
 50
128.1896849999879
 51
211.8103150000168
  0
LINE
  5
ACD1
330
1E
100
AcDbEntity
  8
002
100
AcDbLine
 10
8140.950469218433
 20
-1917.928391371268
 30
0.0
 11
8136.556773249166
 21
-1921.38460878152
 31
0.0
  0
LINE
  5
ACD2
330
1E
100
AcDbEntity
  8
002
100
AcDbLine
 10
8135.977946048159
 20
-1924.667300963292
 30
0.0
 11
8138.924573754435
 21
-1929.417815484677
 31
0.0
  0
ARC
  5
ACD3
330
1E
100
AcDbEntity
  8
002
100
AcDbCircle
 10
8136.80007932187
 20
-1930.735586805378
 30
0.0
 40
2.5
100
AcDbArc
 50
308.1896849999879
 51
31.81031500001687
  0
LINE
  5
ACD4
330
1E
100
AcDbEntity
  8
002
100
AcDbLine
 10
8138.582668713162
 20
-1909.89518466811
 30
0.0
 11
8141.52929641944
 21
-1914.645699189495
 31
0.0
  0
ARC
  5
ACD5
330
1E
100
AcDbEntity
  8
002
100
AcDbCircle
 10
8131.590633991864
 20
-1960.279819395744
 30
0.0
 40
2.5
100
AcDbArc
 50
308.1896849999879
 51
31.81031500001687
  0
LINE
  5
ACD6
330
1E
100
AcDbEntity
  8
002
100
AcDbLine
 10
8135.741023888424
 20
-1947.472623961633
 30
0.0
 11
8131.347327919158
 21
-1950.928841371887
 31
0.0
  0
LINE
  5
ACD7
330
1E
100
AcDbEntity
  8
002
100
AcDbLine
 10
8130.768500718152
 20
-1954.211533553658
 30
0.0
 11
8133.715128424427
 21
-1958.962048075043
 31
0.0
  0
LINE
  5
ACD8
330
1E
100
AcDbEntity
  8
002
100
AcDbLine
 10
8133.136301223419
 20
-1962.244740256815
 30
0.0
 11
8128.742605254155
 21
-1965.70095766707
 31
0.0
  0
ARC
  5
ACD9
330
1E
100
AcDbEntity
  8
002
100
AcDbCircle
 10
8132.892995324365
 20
-1952.893761248153
 30
0.0
 40
2.5
100
AcDbArc
 50
128.1896849999879
 51
211.8103150000168
  0
ARC
  5
ACDA
330
1E
100
AcDbEntity
  8
002
100
AcDbCircle
 10
8130.288272659361
 20
-1967.665877543335
 30
0.0
 40
2.5
100
AcDbArc
 50
128.1896849999879
 51
211.8103150000168
  0
ARC
  5
ACDB
330
1E
100
AcDbEntity
  8
002
100
AcDbCircle
 10
8134.195356656865
 20
-1945.50770310056
 30
0.0
 40
2.5
100
AcDbArc
 50
308.1896849999879
 51
31.81031500001687
  0
LINE
  5
ACDC
330
1E
100
AcDbEntity
  8
002
100
AcDbLine
 10
8128.163778053147
 20
-1968.983649848842
 30
0.0
 11
8129.979723637163
 21
-1971.911293489922
 31
0.0
  0
LINE
  5
ACDD
330
1E
100
AcDbEntity
  8
002
100
AcDbLine
 10
8133.373223383157
 20
-1939.439417258476
 30
0.0
 11
8136.31985108943
 21
-1944.189931779861
 31
0.0
  0
LINE
  5
ACDE
330
1E
100
AcDbEntity
  8
003
100
AcDbLine
 10
8155.548000728147
 20
-1988.270832959227
 30
0.0
 11
8157.015890081195
 21
-1990.963076499212
 31
0.0
  0
LINE
  5
ACDF
330
1E
100
AcDbEntity
  8
003
100
AcDbLine
 10
8157.445209736129
 20
-1997.776978557955
 30
0.0
 11
8155.722571161959
 21
-1999.431495336313
 31
0.0
  0
LINE
  5
ACE0
330
1E
100
AcDbEntity
  8
003
100
AcDbLine
 10
8158.388874954923
 20
-1995.949888703184
 30
0.0
 11
8157.445209736129
 21
-1997.776978557955
 31
0.0
  0
LINE
  5
ACE1
330
1E
100
AcDbEntity
  8
003
100
AcDbLine
 10
8158.173101464027
 20
-1993.569952450332
 30
0.0
 11
8158.388874954923
 21
-1995.949888703184
 31
0.0
  0
LINE
  5
ACE2
330
1E
100
AcDbEntity
  8
003
100
AcDbLine
 10
8157.015890081195
 20
-1990.963076499212
 30
0.0
 11
8158.173101464027
 21
-1993.569952450332
 31
0.0
  0
LINE
  5
ACE3
330
1E
100
AcDbEntity
  8
003
100
AcDbLine
 10
8152.427411304289
 20
-2026.939540853558
 30
0.0
 11
8150.221876659031
 21
-2028.670348641022
 31
0.0
  0
LINE
  5
ACE4
330
1E
100
AcDbEntity
  8
003
100
AcDbLine
 10
8153.956327664673
 20
-2024.994339412613
 30
0.0
 11
8152.427411304289
 21
-2026.939540853558
 31
0.0
  0
LINE
  5
ACE5
330
1E
100
AcDbEntity
  8
003
100
AcDbLine
 10
8154.324294584933
 20
-2021.271267367697
 30
0.0
 11
8153.956327664673
 21
-2024.994339412613
 31
0.0
  0
LINE
  5
ACE6
330
1E
100
AcDbEntity
  8
003
100
AcDbLine
 10
8152.947855510365
 20
-2017.007864562301
 30
0.0
 11
8154.324294584933
 21
-2021.271267367697
 31
0.0
  0
LINE
  5
ACE7
330
1E
100
AcDbEntity
  8
003
100
AcDbLine
 10
8151.015675999925
 20
-2012.554684296914
 30
0.0
 11
8152.947855510365
 21
-2017.007864562301
 31
0.0
  0
LINE
  5
ACE8
330
1E
100
AcDbEntity
  8
003
100
AcDbLine
 10
8149.716420627754
 20
-2008.262279698381
 30
0.0
 11
8151.015675999925
 21
-2012.554684296914
 31
0.0
  0
LINE
  5
ACE9
330
1E
100
AcDbEntity
  8
003
100
AcDbLine
 10
8150.238751013578
 20
-2004.481203372597
 30
0.0
 11
8149.716420627754
 21
-2008.262279698381
 31
0.0
  0
LINE
  5
ACEA
330
1E
100
AcDbEntity
  8
003
100
AcDbLine
 10
8151.683548531194
 20
-2002.671447571512
 30
0.0
 11
8150.238751013578
 21
-2004.481203372597
 31
0.0
  0
LINE
  5
ACEB
330
1E
100
AcDbEntity
  8
003
100
AcDbLine
 10
8153.656752588723
 20
-2001.025598717979
 30
0.0
 11
8151.683548531194
 21
-2002.671447571512
 31
0.0
  0
LINE
  5
ACEC
330
1E
100
AcDbEntity
  8
003
100
AcDbLine
 10
8147.823604550415
 20
-2030.32485472488
 30
0.0
 11
8145.716477769553
 21
-2032.0411514023
 31
0.0
  0
LINE
  5
ACED
330
1E
100
AcDbEntity
  8
003
100
AcDbLine
 10
8150.221876659031
 20
-2028.670348641022
 30
0.0
 11
8147.823604550415
 21
-2030.32485472488
 31
0.0
  0
LINE
  5
ACEE
330
1E
100
AcDbEntity
  8
003
100
AcDbLine
 10
8155.722571161959
 20
-1999.431495336313
 30
0.0
 11
8153.656752588723
 21
-2001.025598717979
 31
0.0
  0
LINE
  5
ACEF
330
1E
100
AcDbEntity
  8
003
100
AcDbLine
 10
8144.384374821051
 20
-2033.957332245468
 30
0.0
 11
8144.281409676883
 21
-2036.841007035464
 31
0.0
  0
LINE
  5
ACF0
330
1E
100
AcDbEntity
  8
003
100
AcDbLine
 10
8144.281409676883
 20
-2036.841007035464
 30
0.0
 11
8145.452242987586
 21
-2040.090469746299
 31
0.0
  0
LINE
  5
ACF1
330
1E
100
AcDbEntity
  8
003
100
AcDbLine
 10
8145.716477769553
 20
-2032.0411514023
 30
0.0
 11
8144.384374821051
 21
-2033.957332245468
 31
0.0
  0
LINE
  5
ACF2
330
1E
100
AcDbEntity
  8
003
100
AcDbLine
 10
8171.406120570457
 20
-1901.180485505305
 30
0.0
 11
8172.595304917651
 21
-1903.698099875497
 31
0.0
  0
LINE
  5
ACF3
330
1E
100
AcDbEntity
  8
003
100
AcDbLine
 10
8168.565939936611
 20
-1911.856662427673
 30
0.0
 11
8167.121819114051
 21
-1914.001063753081
 31
0.0
  0
LINE
  5
ACF4
330
1E
100
AcDbEntity
  8
003
100
AcDbLine
 10
8170.801438789728
 20
-1910.021784266546
 30
0.0
 11
8168.565939936611
 21
-1911.856662427673
 31
0.0
  0
LINE
  5
ACF5
330
1E
100
AcDbEntity
  8
003
100
AcDbLine
 10
8172.283681929963
 20
-1908.098754950371
 30
0.0
 11
8170.801438789728
 21
-1910.021784266546
 31
0.0
  0
LINE
  5
ACF6
330
1E
100
AcDbEntity
  8
003
100
AcDbLine
 10
8172.991925008085
 20
-1906.049051468688
 30
0.0
 11
8172.283681929963
 21
-1908.098754950371
 31
0.0
  0
LINE
  5
ACF7
330
1E
100
AcDbEntity
  8
003
100
AcDbLine
 10
8172.595304917651
 20
-1903.698099875497
 30
0.0
 11
8172.991925008085
 21
-1906.049051468688
 31
0.0
  0
LINE
  5
ACF8
330
1E
100
AcDbEntity
  8
003
100
AcDbLine
 10
8170.422911573266
 20
-1927.994130570136
 30
0.0
 11
8168.940668433029
 21
-1929.91715988631
 31
0.0
  0
LINE
  5
ACF9
330
1E
100
AcDbEntity
  8
003
100
AcDbLine
 10
8171.131154651389
 20
-1925.944427088452
 30
0.0
 11
8170.422911573266
 21
-1927.994130570136
 31
0.0
  0
LINE
  5
ACFA
330
1E
100
AcDbEntity
  8
003
100
AcDbLine
 10
8170.734534560954
 20
-1923.593475495261
 30
0.0
 11
8171.131154651389
 21
-1925.944427088452
 31
0.0
  0
LINE
  5
ACFB
330
1E
100
AcDbEntity
  8
003
100
AcDbLine
 10
8169.563520457
 20
-1921.114329227672
 30
0.0
 11
8170.734534560954
 21
-1923.593475495261
 31
0.0
  0
LINE
  5
ACFC
330
1E
100
AcDbEntity
  8
003
100
AcDbLine
 10
8168.189881031432
 20
-1918.616322915782
 30
0.0
 11
8169.563520457
 21
-1921.114329227672
 31
0.0
  0
LINE
  5
ACFD
330
1E
100
AcDbEntity
  8
003
100
AcDbLine
 10
8167.185390247508
 20
-1916.208790088325
 30
0.0
 11
8168.189881031432
 21
-1918.616322915782
 31
0.0
  0
LINE
  5
ACFE
330
1E
100
AcDbEntity
  8
003
100
AcDbLine
 10
8168.940668433029
 20
-1929.91715988631
 30
0.0
 11
8167.130683502097
 21
-1931.802150545109
 31
0.0
  0
LINE
  5
ACFF
330
1E
100
AcDbEntity
  8
003
100
AcDbLine
 10
8164.134751581341
 20
-1938.731966908426
 30
0.0
 11
8164.928431633642
 21
-1941.859300223292
 31
0.0
  0
LINE
  5
AD00
330
1E
100
AcDbEntity
  8
003
100
AcDbLine
 10
8164.31252981269
 20
-1935.812567538038
 30
0.0
 11
8164.134751581341
 21
-1938.731966908426
 31
0.0
  0
LINE
  5
AD01
330
1E
100
AcDbEntity
  8
003
100
AcDbLine
 10
8165.439216674199
 20
-1933.737740371569
 30
0.0
 11
8164.31252981269
 21
-1935.812567538038
 31
0.0
  0
LINE
  5
AD02
330
1E
100
AcDbEntity
  8
003
100
AcDbLine
 10
8167.130683502097
 20
-1931.802150545109
 30
0.0
 11
8165.439216674199
 21
-1933.737740371569
 31
0.0
  0
LINE
  5
AD03
330
1E
100
AcDbEntity
  8
003
100
AcDbLine
 10
8167.121819114051
 20
-1914.001063753081
 30
0.0
 11
8167.185390247508
 21
-1916.208790088325
 31
0.0
  0
ARC
  5
AD04
330
1E
100
AcDbEntity
  8
002
100
AcDbCircle
 10
8144.614247316882
 20
-1886.419237919828
 30
0.0
 40
2.5
100
AcDbArc
 50
308.1896849999879
 51
31.81031500001687
  0
ARC
  5
AD05
330
1E
100
AcDbEntity
  8
002
100
AcDbCircle
 10
8142.00952465188
 20
-1901.19135421501
 30
0.0
 40
2.5
100
AcDbArc
 50
308.1896849999879
 51
31.81031500001687
  0
LINE
  5
AD06
330
1E
100
AcDbEntity
  8
002
100
AcDbLine
 10
8148.764637213444
 20
-1873.612042485718
 30
0.0
 11
8144.370941244179
 21
-1877.068259895971
 31
0.0
  0
LINE
  5
AD07
330
1E
100
AcDbEntity
  8
002
100
AcDbLine
 10
8143.792114043172
 20
-1880.350952077744
 30
0.0
 11
8146.738741749446
 21
-1885.101466599129
 31
0.0
  0
LINE
  5
AD08
330
1E
100
AcDbEntity
  8
003
100
AcDbLine
 10
8166.787705073998
 20
-1948.098122395344
 30
0.0
 11
8166.532068862919
 21
-1950.88978729582
 31
0.0
  0
LINE
  5
AD09
330
1E
100
AcDbEntity
  8
003
100
AcDbLine
 10
8166.032954011566
 20
-1945.034656315436
 30
0.0
 11
8166.787705073998
 21
-1948.098122395344
 31
0.0
  0
LINE
  5
AD0A
330
1E
100
AcDbEntity
  8
003
100
AcDbLine
 10
8161.105860834011
 20
-1968.557365369734
 30
0.0
 11
8162.120927475577
 21
-1971.379419180761
 31
0.0
  0
LINE
  5
AD0B
330
1E
100
AcDbEntity
  8
003
100
AcDbLine
 10
8159.731461527389
 20
-1965.658158975136
 30
0.0
 11
8161.105860834011
 21
-1968.557365369734
 31
0.0
  0
LINE
  5
AD0C
330
1E
100
AcDbEntity
  8
003
100
AcDbLine
 10
8158.653818924779
 20
-1962.833791817574
 30
0.0
 11
8159.731461527389
 21
-1965.658158975136
 31
0.0
  0
LINE
  5
AD0D
330
1E
100
AcDbEntity
  8
003
100
AcDbLine
 10
8158.52902587062
 20
-1960.236253284176
 30
0.0
 11
8158.653818924779
 21
-1962.833791817574
 31
0.0
  0
LINE
  5
AD0E
330
1E
100
AcDbEntity
  8
003
100
AcDbLine
 10
8159.550946275841
 20
-1958.250674496912
 30
0.0
 11
8158.52902587062
 21
-1960.236253284176
 31
0.0
  0
LINE
  5
AD0F
330
1E
100
AcDbEntity
  8
003
100
AcDbLine
 10
8161.321771873094
 20
-1956.436432725759
 30
0.0
 11
8159.550946275841
 21
-1958.250674496912
 31
0.0
  0
LINE
  5
AD10
330
1E
100
AcDbEntity
  8
003
100
AcDbLine
 10
8163.381942916677
 20
-1954.68033358122
 30
0.0
 11
8161.321771873094
 21
-1956.436432725759
 31
0.0
  0
LINE
  5
AD11
330
1E
100
AcDbEntity
  8
003
100
AcDbLine
 10
8165.271895721653
 20
-1952.869181979211
 30
0.0
 11
8163.381942916677
 21
-1954.68033358122
 31
0.0
  0
LINE
  5
AD12
330
1E
100
AcDbEntity
  8
003
100
AcDbLine
 10
8166.532068862919
 20
-1950.88978729582
 30
0.0
 11
8165.271895721653
 21
-1952.869181979211
 31
0.0
  0
LINE
  5
AD13
330
1E
100
AcDbEntity
  8
001
 62
     3
100
AcDbLine
 10
8154.400189387365
 20
-1985.63479324519
 30
0.0
 11
8155.548000728147
 21
-1988.270832959227
 31
0.0
  0
LINE
  5
AD14
330
1E
100
AcDbEntity
  8
001
 62
     3
100
AcDbLine
 10
8155.21031508951
 20
-1981.241213752231
 30
0.0
 11
8154.203216791717
 21
-1983.196530624958
 31
0.0
  0
LINE
  5
AD15
330
1E
100
AcDbEntity
  8
001
 62
     3
100
AcDbLine
 10
8154.203216791717
 20
-1983.196530624958
 30
0.0
 11
8154.400189387365
 21
-1985.63479324519
 31
0.0
  0
LINE
  5
AD16
330
1E
100
AcDbEntity
  8
003
100
AcDbLine
 10
8157.010103565882
 20
-1979.452679893207
 30
0.0
 11
8155.21031508951
 21
-1981.241213752231
 31
0.0
  0
LINE
  5
AD17
330
1E
100
AcDbEntity
  8
003
100
AcDbLine
 10
8159.098079210336
 20
-1977.719384405731
 30
0.0
 11
8157.010103565882
 21
-1979.452679893207
 31
0.0
  0
LINE
  5
AD18
330
1E
100
AcDbEntity
  8
003
100
AcDbLine
 10
8160.969734899488
 20
-1975.929782937862
 30
0.0
 11
8159.098079210336
 21
-1977.719384405731
 31
0.0
  0
LINE
  5
AD19
330
1E
100
AcDbEntity
  8
003
100
AcDbLine
 10
8162.120568433993
 20
-1973.972332005902
 30
0.0
 11
8160.969734899488
 21
-1975.929782937862
 31
0.0
  0
LINE
  5
AD1A
330
1E
100
AcDbEntity
  8
003
100
AcDbLine
 10
8162.120927475577
 20
-1971.379419180761
 30
0.0
 11
8162.120568433993
 21
-1973.972332005902
 31
0.0
  0
LINE
  5
AD1B
330
1E
100
AcDbEntity
  8
003
100
AcDbLine
 10
8164.928431633642
 20
-1941.859300223292
 30
0.0
 11
8166.032954011566
 21
-1945.034656315436
 31
0.0
  0
LINE
  5
AD1C
330
1E
100
AcDbEntity
  8
002
100
AcDbLine
 10
8143.713562049063
 20
-1653.496905319251
 30
0.0
 11
8142.949012000022
 21
-1657.832884112571
 31
0.0
  0
LINE
  5
AD1D
330
1E
100
AcDbEntity
  8
002
  6
Continuous
100
AcDbLine
 10
8077.15010310518
 20
-1690.9005104207
 30
0.0
 11
8205.962957199174
 21
-1713.613692059536
 31
0.0
  0
LINE
  5
AD1E
330
1E
100
AcDbEntity
  8
002
  6
ByBlock
100
AcDbLine
 10
8098.663932291447
 20
-1694.693978964593
 30
0.0
 11
8184.449128012907
 21
-1709.820223515644
 31
0.0
  0
LINE
  5
AD1F
330
1E
100
AcDbEntity
  8
002
100
AcDbLine
 10
8164.292370586885
 20
-1760.422128966603
 30
0.0
 11
8098.977505308591
 21
-1756.521055565845
 31
0.0
  0
LINE
  5
AD20
330
1E
100
AcDbEntity
  8
002
100
AcDbLine
 10
8092.751105211027
 20
-1763.038872825102
 30
0.0
 11
8167.914048019445
 21
-1768.676428002529
 31
0.0
  0
LINE
  5
AD21
330
1E
100
AcDbEntity
  8
002
100
AcDbLine
 10
8087.541659881019
 20
-1792.583105415467
 30
0.0
 11
8162.704602689437
 21
-1798.220660592895
 31
0.0
  0
LINE
  5
AD22
330
1E
100
AcDbEntity
  8
002
100
AcDbLine
 10
8161.687647921883
 20
-1775.194245261787
 30
0.0
 11
8096.372782643586
 21
-1771.293171861027
 31
0.0
  0
LINE
  5
AD23
330
1E
100
AcDbEntity
  8
002
100
AcDbLine
 10
8090.146382546024
 20
-1777.810989120285
 30
0.0
 11
8165.30932535444
 21
-1783.448544297713
 31
0.0
  0
LINE
  5
AD24
330
1E
100
AcDbEntity
  8
002
100
AcDbLine
 10
8159.082925256878
 20
-1789.966361556969
 30
0.0
 11
8093.768059978582
 21
-1786.065288156211
 31
0.0
  0
LINE
  5
AD25
330
1E
100
AcDbEntity
  8
002
100
AcDbLine
 10
8156.478202591875
 20
-1804.738477852153
 30
0.0
 11
8091.163337313579
 21
-1800.837404451394
 31
0.0
  0
LINE
  5
AD26
330
1E
100
AcDbEntity
  8
002
100
AcDbLine
 10
8084.936937216017
 20
-1807.355221710651
 30
0.0
 11
8160.099880024432
 21
-1812.992776888079
 31
0.0
  0
LINE
  5
AD27
330
1E
100
AcDbEntity
  8
002
100
AcDbLine
 10
8153.87347992687
 20
-1819.510594147335
 30
0.0
 11
8088.558614648574
 21
-1815.609520746576
 31
0.0
  0
LINE
  5
AD28
330
1E
100
AcDbEntity
  8
002
100
AcDbLine
 10
8151.268757261865
 20
-1834.282710442519
 30
0.0
 11
8085.953891983569
 21
-1830.38163704176
 31
0.0
  0
LINE
  5
AD29
330
1E
100
AcDbEntity
  8
002
100
AcDbLine
 10
8082.332214551012
 20
-1822.127338005834
 30
0.0
 11
8157.495157359431
 21
-1827.764893183262
 31
0.0
  0
LINE
  5
AD2A
330
1E
100
AcDbEntity
  8
002
100
AcDbLine
 10
8148.664034596862
 20
-1849.054826737702
 30
0.0
 11
8083.349169318566
 21
-1845.153753336942
 31
0.0
  0
LINE
  5
AD2B
330
1E
100
AcDbEntity
  8
002
100
AcDbLine
 10
8079.727491886009
 20
-1836.899454301017
 30
0.0
 11
8154.890434694426
 21
-1842.537009478444
 31
0.0
  0
LINE
  5
AD2C
330
1E
100
AcDbEntity
  8
002
100
AcDbLine
 10
8077.122769221004
 20
-1851.671570596201
 30
0.0
 11
8152.285712029422
 21
-1857.309125773628
 31
0.0
  0
LINE
  5
AD2D
330
1E
100
AcDbEntity
  8
002
100
AcDbLine
 10
8146.059311931859
 20
-1863.826943032887
 30
0.0
 11
8080.744446653561
 21
-1859.925869632126
 31
0.0
  0
LINE
  5
AD2E
330
1E
100
AcDbEntity
  8
002
100
AcDbLine
 10
8100.56527320604
 20
-1718.722523939552
 30
0.0
 11
8175.728216014457
 21
-1724.360079116981
 31
0.0
  0
LINE
  5
AD2F
330
1E
100
AcDbEntity
  8
002
100
AcDbLine
 10
8169.501815916893
 20
-1730.877896376237
 30
0.0
 11
8104.186950638597
 21
-1726.976822975479
 31
0.0
  0
LINE
  5
AD30
330
1E
100
AcDbEntity
  8
002
100
AcDbLine
 10
8166.89709325189
 20
-1745.65001267142
 30
0.0
 11
8101.582227973596
 21
-1741.748939270661
 31
0.0
  0
LINE
  5
AD31
330
1E
100
AcDbEntity
  8
002
100
AcDbLine
 10
8095.355827876032
 20
-1748.266756529918
 30
0.0
 11
8170.518770684449
 21
-1753.904311707347
 31
0.0
  0
LINE
  5
AD32
330
1E
100
AcDbEntity
  8
002
100
AcDbLine
 10
8097.960550541035
 20
-1733.494640234735
 30
0.0
 11
8173.123493349452
 21
-1739.132195412163
 31
0.0
  0
LINE
  5
AD33
330
1E
100
AcDbEntity
  8
002
100
AcDbLine
 10
8157.592123470612
 20
-1715.238875112683
 30
0.0
 11
8106.791673303602
 21
-1712.204706680295
 31
0.0
  0
LINE
  5
AD34
330
1E
100
AcDbEntity
  8
002
100
AcDbLine
 10
8102.471621068122
 20
-1705.51964334892
 30
0.0
 11
8173.91494759792
 21
-1718.117029407687
 31
0.0
  0
LINE
  5
AD35
330
1E
100
AcDbEntity
  8
002
100
AcDbLine
 10
8095.693352652348
 20
-1750.018649279593
 30
0.0
 11
8098.639980358624
 21
-1754.769163800978
 31
0.0
  0
LINE
  5
AD36
330
1E
100
AcDbEntity
  8
002
100
AcDbLine
 10
8094.657453073111
 20
-1749.835992234467
 30
0.0
 11
8097.604080779385
 21
-1754.586506755853
 31
0.0
  0
LINE
  5
AD37
330
1E
100
AcDbEntity
  8
002
100
AcDbLine
 10
8103.170642588766
 20
-1674.00542675972
 30
0.0
 11
8079.796282907834
 21
-1809.003143848689
 31
0.0
  0
LINE
  5
AD38
330
1E
100
AcDbEntity
  8
002
  6
ByBlock
100
AcDbLine
 10
8092.052730486852
 20
-1764.608108208504
 30
0.0
 11
8094.999358209284
 21
-1769.358622387379
 31
0.0
  0
LINE
  5
AD39
330
1E
100
AcDbEntity
  8
002
  6
ByBlock
100
AcDbLine
 10
8093.088630066089
 20
-1764.790765253628
 30
0.0
 11
8096.035257788525
 21
-1769.541279432502
 31
0.0
  0
LINE
  5
AD3A
330
1E
100
AcDbEntity
  8
002
100
AcDbLine
 10
8098.061153157617
 20
-1758.05185598275
 30
0.0
 11
8093.667457188352
 21
-1761.508073393004
 31
0.0
  0
LINE
  5
AD3B
330
1E
100
AcDbEntity
  8
002
100
AcDbLine
 10
8097.025253578378
 20
-1757.869198937625
 30
0.0
 11
8092.631557609113
 21
-1761.325416347879
 31
0.0
  0
ARC
  5
AD3C
330
1E
100
AcDbEntity
  8
002
100
AcDbCircle
 10
8094.177225014318
 20
-1763.290336224144
 30
0.0
 40
2.5
100
AcDbArc
 50
128.1896849999879
 51
211.8103150000168
  0
ARC
  5
AD3D
330
1E
100
AcDbEntity
  8
002
100
AcDbCircle
 10
8095.213124593557
 20
-1763.47299326927
 30
0.0
 40
2.5
100
AcDbArc
 50
128.1896849999879
 51
211.8103150000168
  0
ARC
  5
AD3E
330
1E
100
AcDbEntity
  8
002
100
AcDbCircle
 10
8096.51548592606
 20
-1756.086935121676
 30
0.0
 40
2.5
100
AcDbArc
 50
308.1896849999879
 51
31.81031500001687
  0
ARC
  5
AD3F
330
1E
100
AcDbEntity
  8
002
100
AcDbCircle
 10
8095.47958634682
 20
-1755.904278076554
 30
0.0
 40
2.5
100
AcDbArc
 50
308.1896849999879
 51
31.81031500001687
  0
ARC
  5
AD40
330
1E
100
AcDbEntity
  8
002
100
AcDbCircle
 10
8091.306040596052
 20
-1785.631167712043
 30
0.0
 40
2.5
100
AcDbArc
 50
308.1896849999879
 51
31.81031500001687
  0
LINE
  5
AD41
330
1E
100
AcDbEntity
  8
002
100
AcDbLine
 10
8095.456430492614
 20
-1772.823972277932
 30
0.0
 11
8091.062734523347
 21
-1776.280189688188
 31
0.0
  0
LINE
  5
AD42
330
1E
100
AcDbEntity
  8
002
100
AcDbLine
 10
8094.420530913373
 20
-1772.641315232809
 30
0.0
 11
8090.02683494411
 21
-1776.097532643063
 31
0.0
  0
LINE
  5
AD43
330
1E
100
AcDbEntity
  8
002
100
AcDbLine
 10
8092.851707827609
 20
-1787.596088573116
 30
0.0
 11
8088.458011858344
 21
-1791.05230598337
 31
0.0
  0
LINE
  5
AD44
330
1E
100
AcDbEntity
  8
002
100
AcDbLine
 10
8091.815808248371
 20
-1787.413431527991
 30
0.0
 11
8087.422112279105
 21
-1790.869648938245
 31
0.0
  0
ARC
  5
AD45
330
1E
100
AcDbEntity
  8
002
100
AcDbCircle
 10
8092.608401928554
 20
-1778.245109564451
 30
0.0
 40
2.5
100
AcDbArc
 50
128.1896849999879
 51
211.8103150000168
  0
LINE
  5
AD46
330
1E
100
AcDbEntity
  8
002
100
AcDbLine
 10
8090.483907322342
 20
-1779.56288186996
 30
0.0
 11
8093.430535028616
 21
-1784.313396391344
 31
0.0
  0
ARC
  5
AD47
330
1E
100
AcDbEntity
  8
002
100
AcDbCircle
 10
8090.270141016814
 20
-1785.44851066692
 30
0.0
 40
2.5
100
AcDbArc
 50
308.1896849999879
 51
31.81031500001687
  0
ARC
  5
AD48
330
1E
100
AcDbEntity
  8
002
100
AcDbCircle
 10
8091.572502349317
 20
-1778.062452519328
 30
0.0
 40
2.5
100
AcDbArc
 50
128.1896849999879
 51
211.8103150000168
  0
LINE
  5
AD49
330
1E
100
AcDbEntity
  8
002
100
AcDbLine
 10
8089.448007743101
 20
-1779.380224824835
 30
0.0
 11
8092.394635449378
 21
-1784.130739346221
 31
0.0
  0
ARC
  5
AD4A
330
1E
100
AcDbEntity
  8
002
100
AcDbCircle
 10
8090.003679263549
 20
-1793.017225859635
 30
0.0
 40
2.5
100
AcDbArc
 50
128.1896849999879
 51
211.8103150000168
  0
ARC
  5
AD4B
330
1E
100
AcDbEntity
  8
002
100
AcDbCircle
 10
8088.967779684312
 20
-1792.834568814511
 30
0.0
 40
2.5
100
AcDbArc
 50
128.1896849999879
 51
211.8103150000168
  0
LINE
  5
AD4C
330
1E
100
AcDbEntity
  8
002
100
AcDbLine
 10
8087.879184657337
 20
-1794.334998165142
 30
0.0
 11
8090.825812363611
 21
-1799.085512686528
 31
0.0
  0
LINE
  5
AD4D
330
1E
100
AcDbEntity
  8
002
100
AcDbLine
 10
8086.843285078098
 20
-1794.152341120017
 30
0.0
 11
8089.789912784373
 21
-1798.902855641403
 31
0.0
  0
LINE
  5
AD4E
330
1E
100
AcDbEntity
  8
002
100
AcDbLine
 10
8090.246985162606
 20
-1802.368204868298
 30
0.0
 11
8085.853289193339
 21
-1805.824422278554
 31
0.0
  0
LINE
  5
AD4F
330
1E
100
AcDbEntity
  8
002
100
AcDbLine
 10
8089.211085583368
 20
-1802.185547823175
 30
0.0
 11
8084.817389614102
 21
-1805.641765233429
 31
0.0
  0
ARC
  5
AD50
330
1E
100
AcDbEntity
  8
002
100
AcDbCircle
 10
8087.398956598546
 20
-1807.789342154817
 30
0.0
 40
2.5
100
AcDbArc
 50
128.1896849999879
 51
211.8103150000168
  0
ARC
  5
AD51
330
1E
100
AcDbEntity
  8
002
100
AcDbCircle
 10
8086.096595266045
 20
-1815.17540030241
 30
0.0
 40
2.5
100
AcDbArc
 50
308.1896849999879
 51
31.81031500001687
  0
ARC
  5
AD52
330
1E
100
AcDbEntity
  8
002
100
AcDbCircle
 10
8085.060695686804
 20
-1814.992743257286
 30
0.0
 40
2.5
100
AcDbArc
 50
308.1896849999879
 51
31.81031500001687
  0
LINE
  5
AD53
330
1E
100
AcDbEntity
  8
002
100
AcDbLine
 10
8085.274461992332
 20
-1809.107114460326
 30
0.0
 11
8088.22108969861
 21
-1813.85762898171
 31
0.0
  0
LINE
  5
AD54
330
1E
100
AcDbEntity
  8
002
100
AcDbLine
 10
8081.633839748091
 20
-1823.696573710383
 30
0.0
 11
8082.341030214527
 21
-1824.836697082002
 31
0.0
  0
ARC
  5
AD55
330
1E
100
AcDbEntity
  8
002
100
AcDbCircle
 10
8084.794233933541
 20
-1822.561458450001
 30
0.0
 40
2.5
100
AcDbArc
 50
128.1896849999879
 51
211.8103150000168
  0
ARC
  5
AD56
330
1E
100
AcDbEntity
  8
002
100
AcDbCircle
 10
8083.758334354303
 20
-1822.378801404877
 30
0.0
 40
2.5
100
AcDbArc
 50
128.1896849999879
 51
211.8103150000168
  0
LINE
  5
AD57
330
1E
100
AcDbEntity
  8
002
100
AcDbLine
 10
8087.642262497601
 20
-1817.140321163482
 30
0.0
 11
8083.248566528338
 21
-1820.596538573736
 31
0.0
  0
LINE
  5
AD58
330
1E
100
AcDbEntity
  8
002
100
AcDbLine
 10
8086.606362918363
 20
-1816.957664118359
 30
0.0
 11
8082.212666949097
 21
-1820.413881528611
 31
0.0
  0
ARC
  5
AD59
330
1E
100
AcDbEntity
  8
002
100
AcDbCircle
 10
8086.363057019308
 20
-1807.606685109695
 30
0.0
 40
2.5
100
AcDbArc
 50
128.1896849999879
 51
211.8103150000168
  0
LINE
  5
AD5A
330
1E
100
AcDbEntity
  8
002
100
AcDbLine
 10
8084.238562413096
 20
-1808.924457415201
 30
0.0
 11
8087.185190119368
 21
-1813.674971936586
 31
0.0
  0
LINE
  5
AD5B
330
1E
100
AcDbEntity
  8
002
100
AcDbLine
 10
8084.838885723153
 20
-1809.892290778027
 30
0.0
 11
8079.796282907834
 21
-1809.003143848691
 31
0.0
  0
ARC
  5
AD5C
330
1E
100
AcDbEntity
  8
002
100
AcDbCircle
 10
8088.701317931048
 20
-1800.403284007227
 30
0.0
 40
2.5
100
AcDbArc
 50
308.1896849999879
 51
31.81031500001687
  0
ARC
  5
AD5D
330
1E
100
AcDbEntity
  8
002
100
AcDbCircle
 10
8087.665418351809
 20
-1800.220626962102
 30
0.0
 40
2.5
100
AcDbArc
 50
308.1896849999879
 51
31.81031500001687
  0
ARC
  5
AD5E
330
1E
100
AcDbEntity
  8
002
100
AcDbCircle
 10
8093.910763261055
 20
-1770.85905141686
 30
0.0
 40
2.5
100
AcDbArc
 50
308.1896849999879
 51
31.81031500001687
  0
ARC
  5
AD5F
330
1E
100
AcDbEntity
  8
002
100
AcDbCircle
 10
8092.874863681819
 20
-1770.676394371736
 30
0.0
 40
2.5
100
AcDbArc
 50
308.1896849999879
 51
31.81031500001687
  0
ARC
  5
AD60
330
1E
100
AcDbEntity
  8
002
100
AcDbCircle
 10
8083.49187260104
 20
-1829.947516597592
 30
0.0
 40
2.5
100
AcDbArc
 50
308.1896849999879
 51
31.81031500001687
  0
ARC
  5
AD61
330
1E
100
AcDbEntity
  8
002
100
AcDbCircle
 10
8080.887149936037
 20
-1844.719632892776
 30
0.0
 40
2.5
100
AcDbArc
 50
308.1896849999879
 51
31.81031500001687
  0
LINE
  5
AD62
330
1E
100
AcDbEntity
  8
002
100
AcDbLine
 10
8082.432817167592
 20
-1846.684553753848
 30
0.0
 11
8078.039121198328
 21
-1850.140771164103
 31
0.0
  0
ARC
  5
AD63
330
1E
100
AcDbEntity
  8
002
100
AcDbCircle
 10
8082.189511268538
 20
-1837.333574745183
 30
0.0
 40
2.5
100
AcDbArc
 50
128.1896849999879
 51
211.8103150000168
  0
LINE
  5
AD64
330
1E
100
AcDbEntity
  8
002
100
AcDbLine
 10
8080.065016662326
 20
-1838.651347050692
 30
0.0
 11
8083.011644368601
 21
-1843.401861572075
 31
0.0
  0
ARC
  5
AD65
330
1E
100
AcDbEntity
  8
002
100
AcDbCircle
 10
8079.584788603533
 20
-1852.105691040367
 30
0.0
 40
2.5
100
AcDbArc
 50
128.1896849999879
 51
211.8103150000168
  0
LINE
  5
AD66
330
1E
100
AcDbEntity
  8
002
100
AcDbLine
 10
8085.037539832597
 20
-1831.912437458666
 30
0.0
 11
8080.643843863333
 21
-1835.36865486892
 31
0.0
  0
ARC
  5
AD67
330
1E
100
AcDbEntity
  8
002
100
AcDbCircle
 10
8076.980065938531
 20
-1866.877807335551
 30
0.0
 40
2.5
100
AcDbArc
 50
128.1896849999879
 51
211.8103150000168
  0
ARC
  5
AD68
330
1E
100
AcDbEntity
  8
002
100
AcDbCircle
 10
8078.282427271032
 20
-1859.491749187959
 30
0.0
 40
2.5
100
AcDbArc
 50
308.1896849999879
 51
31.81031500001687
  0
LINE
  5
AD69
330
1E
100
AcDbEntity
  8
002
100
AcDbLine
 10
8079.828094502589
 20
-1861.456670049032
 30
0.0
 11
8075.434398533323
 21
-1864.912887459286
 31
0.0
  0
LINE
  5
AD6A
330
1E
100
AcDbEntity
  8
002
100
AcDbLine
 10
8077.460293997321
 20
-1853.423463345874
 30
0.0
 11
8080.406921703596
 21
-1858.173977867259
 31
0.0
  0
LINE
  5
AD6B
330
1E
100
AcDbEntity
  8
002
100
AcDbLine
 10
8082.669739327327
 20
-1823.879230755508
 30
0.0
 11
8085.616367033605
 21
-1828.629745276894
 31
0.0
  0
LINE
  5
AD6C
330
1E
100
AcDbEntity
  8
002
100
AcDbLine
 10
8102.471621068122
 20
-1705.51964334892
 30
0.0
 11
8105.418248774398
 21
-1710.270157870305
 31
0.0
  0
LINE
  5
AD6D
330
1E
100
AcDbEntity
  8
002
100
AcDbLine
 10
8100.571429336051
 20
-1654.654377542781
 30
0.0
 11
8117.228748866571
 21
-1657.591512402294
 31
0.0
  0
LINE
  5
AD6E
330
1E
100
AcDbEntity
  8
002
100
AcDbLine
 10
8103.270598487624
 20
-1728.507623392382
 30
0.0
 11
8098.876902518361
 21
-1731.963840802638
 31
0.0
  0
LINE
  5
AD6F
330
1E
100
AcDbEntity
  8
002
100
AcDbLine
 10
8100.902797982357
 20
-1720.474416689226
 30
0.0
 11
8103.849425688633
 21
-1725.224931210612
 31
0.0
  0
ARC
  5
AD70
330
1E
100
AcDbEntity
  8
002
100
AcDbCircle
 10
8100.689031676829
 20
-1726.360045486187
 30
0.0
 40
2.5
100
AcDbArc
 50
308.1896849999879
 51
31.81031500001687
  0
LINE
  5
AD71
330
1E
100
AcDbEntity
  8
002
100
AcDbLine
 10
8099.866898403117
 20
-1720.291759644102
 30
0.0
 11
8102.813526109393
 21
-1725.042274165487
 31
0.0
  0
LINE
  5
AD72
330
1E
100
AcDbEntity
  8
002
100
AcDbLine
 10
8104.839421573389
 20
-1713.552850052075
 30
0.0
 11
8100.445725604124
 21
-1717.009067462329
 31
0.0
  0
LINE
  5
AD73
330
1E
100
AcDbEntity
  8
002
100
AcDbLine
 10
8105.875321152629
 20
-1713.7355070972
 30
0.0
 11
8101.481625183364
 21
-1717.191724507454
 31
0.0
  0
LINE
  5
AD74
330
1E
100
AcDbEntity
  8
002
100
AcDbLine
 10
8097.130632217737
 20
-1644.94645957308
 30
0.0
 11
8097.963497776444
 21
-1645.093316242382
 31
0.0
  0
LINE
  5
AD75
330
1E
100
AcDbEntity
  8
002
100
AcDbLine
 10
8097.130632217737
 20
-1644.94645957308
 30
0.0
 11
8095.499788132284
 21
-1646.890023957588
 31
0.0
  0
LINE
  5
AD76
330
1E
100
AcDbEntity
  8
002
100
AcDbLine
 10
8096.553956245511
 20
-1653.087227572832
 30
0.0
 11
8096.260242087751
 21
-1654.752959263823
 31
0.0
  0
LINE
  5
AD77
330
1E
100
AcDbEntity
  8
002
100
AcDbLine
 10
8096.553956245511
 20
-1653.087227572832
 30
0.0
 11
8097.533678473521
 21
-1652.401218683428
 31
0.0
  0
LINE
  5
AD78
330
1E
100
AcDbEntity
  8
002
100
AcDbLine
 10
8097.533678473521
 20
-1652.401218683428
 30
0.0
 11
8099.779910782647
 21
-1652.79728932645
 31
0.0
  0
LINE
  5
AD79
330
1E
100
AcDbEntity
  8
002
100
AcDbLine
 10
8100.571429336051
 20
-1654.654377542781
 30
0.0
 11
8099.779910782647
 21
-1652.79728932645
 31
0.0
  0
LINE
  5
AD7A
330
1E
100
AcDbEntity
  8
002
100
AcDbLine
 10
8096.260242087751
 20
-1654.752959263823
 30
0.0
 11
8093.923714086338
 21
-1655.828384040733
 31
0.0
  0
LINE
  5
AD7B
330
1E
100
AcDbEntity
  8
002
100
AcDbLine
 10
8092.470566642974
 20
-1671.375004745454
 30
0.0
 11
8091.094085843016
 21
-1671.876003253371
 31
0.0
  0
LINE
  5
AD7C
330
1E
100
AcDbEntity
  8
002
100
AcDbLine
 10
8092.335625290711
 20
-1672.094920155614
 30
0.0
 11
8091.213508021819
 21
-1671.153351394212
 31
0.0
  0
LINE
  5
AD7D
330
1E
100
AcDbEntity
  8
002
100
AcDbLine
 10
8083.059139661937
 20
-1668.741703313471
 30
0.0
 11
8084.431158587898
 21
-1670.701149407797
 31
0.0
  0
LINE
  5
AD7E
330
1E
100
AcDbEntity
  8
003
100
AcDbLine
 10
8077.15010310518
 20
-1690.9005104207
 30
0.0
 11
8073.329843196507
 21
-1712.56628098697
 31
0.0
  0
LINE
  5
AD7F
330
1E
100
AcDbEntity
  8
003
100
AcDbLine
 10
8077.15010310518
 20
-1690.9005104207
 30
0.0
 11
8073.329843196507
 21
-1712.56628098697
 31
0.0
  0
LINE
  5
AD80
330
1E
100
AcDbEntity
  8
003
100
AcDbLine
 10
8077.15010310518
 20
-1690.9005104207
 30
0.0
 11
8073.329843196507
 21
-1712.56628098697
 31
0.0
  0
LINE
  5
AD81
330
1E
100
AcDbEntity
  8
002
100
AcDbLine
 10
8102.337776456481
 20
-1673.858569271263
 30
0.0
 11
8098.666358578453
 21
-1694.680218807205
 31
0.0
  0
LINE
  5
AD82
330
1E
100
AcDbEntity
  8
002
100
AcDbLine
 10
8102.337776456481
 20
-1673.858569271263
 30
0.0
 11
8098.666358578453
 21
-1694.680218807205
 31
0.0
  0
LINE
  5
AD83
330
1E
100
AcDbEntity
  8
002
100
AcDbLine
 10
8095.499788132284
 20
-1646.890023957588
 30
0.0
 11
8091.094085843016
 21
-1671.876003253371
 31
0.0
  0
LINE
  5
AD84
330
1E
100
AcDbEntity
  8
002
100
AcDbLine
 10
8097.130632217737
 20
-1644.94645957308
 30
0.0
 11
8092.343385573803
 21
-1672.096288502902
 31
0.0
  0
LINE
  5
AD85
330
1E
100
AcDbEntity
  8
002
100
AcDbLine
 10
8102.234698908388
 20
-1728.324966347259
 30
0.0
 11
8097.841002939121
 21
-1731.781183757513
 31
0.0
  0
ARC
  5
AD86
330
1E
100
AcDbEntity
  8
002
100
AcDbCircle
 10
8103.027292588569
 20
-1719.15664438372
 30
0.0
 40
2.5
100
AcDbArc
 50
128.1896849999879
 51
211.8103150000168
  0
ARC
  5
AD87
330
1E
100
AcDbEntity
  8
002
100
AcDbCircle
 10
8101.991393009333
 20
-1718.973987338595
 30
0.0
 40
2.5
100
AcDbArc
 50
128.1896849999879
 51
211.8103150000168
  0
LINE
  5
AD88
330
1E
100
AcDbEntity
  8
002
100
AcDbLine
 10
8098.298075317352
 20
-1735.24653298441
 30
0.0
 11
8101.244703023629
 21
-1739.997047505794
 31
0.0
  0
LINE
  5
AD89
330
1E
100
AcDbEntity
  8
002
100
AcDbLine
 10
8097.262175738114
 20
-1735.063875939286
 30
0.0
 11
8100.20880344439
 21
-1739.814390460671
 31
0.0
  0
ARC
  5
AD8A
330
1E
100
AcDbEntity
  8
002
100
AcDbCircle
 10
8100.422569923567
 20
-1733.928760678902
 30
0.0
 40
2.5
100
AcDbArc
 50
128.1896849999879
 51
211.8103150000168
  0
ARC
  5
AD8B
330
1E
100
AcDbEntity
  8
002
100
AcDbCircle
 10
8099.386670344328
 20
-1733.746103633779
 30
0.0
 40
2.5
100
AcDbArc
 50
128.1896849999879
 51
211.8103150000168
  0
ARC
  5
AD8C
330
1E
100
AcDbEntity
  8
002
100
AcDbCircle
 10
8097.817847258562
 20
-1748.700876974086
 30
0.0
 40
2.5
100
AcDbArc
 50
128.1896849999879
 51
211.8103150000168
  0
LINE
  5
AD8D
330
1E
100
AcDbEntity
  8
002
100
AcDbLine
 10
8100.66587582262
 20
-1743.279739687566
 30
0.0
 11
8096.272179853356
 21
-1746.735957097822
 31
0.0
  0
ARC
  5
AD8E
330
1E
100
AcDbEntity
  8
002
100
AcDbCircle
 10
8096.781947679323
 20
-1748.518219928961
 30
0.0
 40
2.5
100
AcDbArc
 50
128.1896849999879
 51
211.8103150000168
  0
LINE
  5
AD8F
330
1E
100
AcDbEntity
  8
002
100
AcDbLine
 10
8099.629976243383
 20
-1743.097082642443
 30
0.0
 11
8095.236280274118
 21
-1746.553300052697
 31
0.0
  0
ARC
  5
AD90
330
1E
100
AcDbEntity
  8
002
100
AcDbCircle
 10
8099.120208591065
 20
-1741.314818826495
 30
0.0
 40
2.5
100
AcDbArc
 50
308.1896849999879
 51
31.81031500001687
  0
ARC
  5
AD91
330
1E
100
AcDbEntity
  8
002
100
AcDbCircle
 10
8098.084309011825
 20
-1741.13216178137
 30
0.0
 40
2.5
100
AcDbArc
 50
308.1896849999879
 51
31.81031500001687
  0
ARC
  5
AD92
330
1E
100
AcDbEntity
  8
002
100
AcDbCircle
 10
8132.659136730046
 20
-1644.122407418466
 30
0.0
 40
0.7210800000000001
100
AcDbArc
 50
200.0000000000471
 51
343.0000000000192
  0
LINE
  5
AD93
330
1E
100
AcDbEntity
  8
002
100
AcDbLine
 10
8131.98154314294
 20
-1644.369031615277
 30
0.0
 11
8131.626208772296
 21
-1643.392759159451
 31
0.0
  0
LINE
  5
AD94
330
1E
100
AcDbEntity
  8
002
100
AcDbLine
 10
8131.220573097534
 20
-1651.294054297403
 30
0.0
 11
8130.45602222934
 21
-1655.630033664299
 31
0.0
  0
LINE
  5
AD95
330
1E
100
AcDbEntity
  8
002
100
AcDbLine
 10
8118.72758275328
 20
-1649.09120302998
 30
0.0
 11
8117.963032704237
 21
-1653.427181823301
 31
0.0
  0
LINE
  5
AD96
330
1E
100
AcDbEntity
  8
002
100
AcDbLine
 10
8120.381001493674
 20
-1642.323542413663
 30
0.0
 11
8121.048810605795
 21
-1641.527678476999
 31
0.0
  0
ARC
  5
AD97
330
1E
100
AcDbEntity
  8
002
100
AcDbCircle
 10
8119.828621423966
 20
-1641.860041393611
 30
0.0
 40
0.7210800000000001
100
AcDbArc
 50
176.9999999999938
 51
319.9999999999706
  0
LINE
  5
AD98
330
1E
100
AcDbEntity
  8
002
100
AcDbLine
 10
8102.800450721275
 20
-1654.188653083756
 30
0.0
 11
8103.486460184255
 21
-1655.168376130917
 31
0.0
  0
LINE
  5
AD99
330
1E
100
AcDbEntity
  8
002
100
AcDbLine
 10
8129.72173863725
 20
-1659.794362850565
 30
0.0
 11
8142.214728162356
 21
-1661.997214691564
 31
0.0
  0
ARC
  5
AD9A
330
1E
100
AcDbEntity
  8
002
100
AcDbCircle
 10
8200.645766296936
 20
-1677.138360295662
 30
0.0
 40
73.83085699999999
100
AcDbArc
 50
169.9999999999961
 51
175.0000000000276
  0
LINE
  5
AD9B
330
1E
100
AcDbEntity
  8
002
100
AcDbLine
 10
8142.949012000022
 20
-1657.832884112571
 30
0.0
 11
8141.703412969802
 21
-1661.907056027472
 31
0.0
  0
LINE
  5
AD9C
330
1E
100
AcDbEntity
  8
002
100
AcDbLine
 10
8113.480851886082
 20
-1656.930656325705
 30
0.0
 11
8114.602969154974
 21
-1657.872225087107
 31
0.0
  0
LINE
  5
AD9D
330
1E
100
AcDbEntity
  8
002
100
AcDbLine
 10
8114.289580544236
 20
-1659.649540217662
 30
0.0
 11
8112.913099989851
 21
-1660.150537332851
 31
0.0
  0
LINE
  5
AD9E
330
1E
100
AcDbEntity
  8
002
100
AcDbLine
 10
8114.602969154974
 20
-1657.872225087107
 30
0.0
 11
8111.499303173181
 21
-1675.4739936159
 31
0.0
  0
LINE
  5
AD9F
330
1E
100
AcDbEntity
  8
002
100
AcDbLine
 10
8110.250003442388
 20
-1675.25370836637
 30
0.0
 11
8111.626484242348
 21
-1674.752709858452
 31
0.0
  0
LINE
  5
ADA0
330
1E
100
AcDbEntity
  8
002
100
AcDbLine
 10
8113.480851886082
 20
-1656.930656325705
 30
0.0
 11
8110.250003442388
 21
-1675.25370836637
 31
0.0
  0
ARC
  5
ADA1
330
1E
100
AcDbEntity
  8
002
100
AcDbCircle
 10
8200.645766296936
 20
-1677.138360295662
 30
0.0
 40
84.571429
100
AcDbArc
 50
169.9999999999961
 51
175.0000000000276
  0
LINE
  5
ADA2
330
1E
100
AcDbEntity
  8
002
100
AcDbLine
 10
8117.204611392441
 20
-1660.163538805798
 30
0.0
 11
8114.289580544236
 21
-1659.649540217662
 31
0.0
  0
ARC
  5
ADA3
330
1E
100
AcDbEntity
  8
002
100
AcDbCircle
 10
8104.329653921071
 20
-1711.770586236127
 30
0.0
 40
2.5
100
AcDbArc
 50
308.1896849999879
 51
31.81031500001687
  0
LINE
  5
ADA4
330
1E
100
AcDbEntity
  8
002
100
AcDbLine
 10
8116.39615770566
 20
-1669.767475021873
 30
0.0
 11
8113.104222851074
 21
-1707.394457918384
 31
0.0
  0
LINE
  5
ADA5
330
1E
100
AcDbEntity
  8
002
100
AcDbLine
 10
8117.204611392441
 20
-1660.163538805798
 30
0.0
 11
8109.004006686951
 21
-1706.671479181912
 31
0.0
  0
LINE
  5
ADA6
330
1E
100
AcDbEntity
  8
002
100
AcDbLine
 10
8127.095857834202
 20
-1670.703577343283
 30
0.0
 11
8123.722024837524
 21
-1709.266662884414
 31
0.0
  0
LINE
  5
ADA7
330
1E
100
AcDbEntity
  8
002
100
AcDbLine
 10
8140.032049695284
 20
-1712.142560322863
 30
0.0
 11
8140.03204984144
 21
-1679.976615409285
 31
0.0
  0
LINE
  5
ADA8
330
1E
100
AcDbEntity
  8
002
100
AcDbLine
 10
8103.50752064736
 20
-1705.702300394045
 30
0.0
 11
8106.454148353636
 21
-1710.452814915428
 31
0.0
  0
ARC
  5
ADA9
330
1E
100
AcDbEntity
  8
002
100
AcDbCircle
 10
8103.293754341834
 20
-1711.587929191004
 30
0.0
 40
2.5
100
AcDbArc
 50
308.1896849999879
 51
31.81031500001687
  0
LINE
  5
ADAA
330
1E
100
AcDbEntity
  8
002
100
AcDbLine
 10
8117.963032704237
 20
-1653.427181823301
 30
0.0
 11
8116.717433674017
 21
-1657.501353738202
 31
0.0
  0
LINE
  5
ADAB
330
1E
100
AcDbEntity
  8
002
100
AcDbLine
 10
8130.45602222934
 20
-1655.630033664299
 30
0.0
 11
8130.233054403381
 21
-1659.884522333812
 31
0.0
  0
LINE
  5
ADAC
330
1E
100
AcDbEntity
  8
002
100
AcDbLine
 10
8119.032050164177
 20
-1708.439693810664
 30
0.0
 11
8119.032049412373
 21
-1652.965299567753
 31
0.0
  0
ARC
  5
ADAD
330
1E
100
AcDbEntity
  8
002
100
AcDbCircle
 10
8101.724931256068
 20
-1726.542702531311
 30
0.0
 40
2.5
100
AcDbArc
 50
308.1896849999879
 51
31.81031500001687
  0
LINE
  5
ADAE
330
1E
100
AcDbEntity
  8
002
100
AcDbLine
 10
8168.705502267913
 20
-1747.661261998053
 30
0.0
 11
8171.652129974189
 21
-1752.411776519438
 31
0.0
  0
ARC
  5
ADAF
330
1E
100
AcDbEntity
  8
002
100
AcDbCircle
 10
8168.056751301918
 20
-1753.470191263181
 30
0.0
 40
2.5
100
AcDbArc
 50
308.1896849999879
 51
31.81031500001687
  0
LINE
  5
ADB0
330
1E
100
AcDbEntity
  8
002
100
AcDbLine
 10
8187.290106619235
 20
-1688.837957153011
 30
0.0
 11
8163.082881953171
 21
-1823.688818391831
 31
0.0
  0
ARC
  5
ADB1
330
1E
100
AcDbEntity
  8
002
100
AcDbCircle
 10
8165.452028636915
 20
-1768.242307558362
 30
0.0
 40
2.5
100
AcDbArc
 50
308.1896849999879
 51
31.81031500001687
  0
ARC
  5
ADB2
330
1E
100
AcDbEntity
  8
002
100
AcDbCircle
 10
8166.92291287662
 20
-1768.501664135321
 30
0.0
 40
2.5
100
AcDbArc
 50
308.1896849999879
 51
31.81031500001687
  0
LINE
  5
ADB3
330
1E
100
AcDbEntity
  8
002
100
AcDbLine
 10
8166.100779602908
 20
-1762.433378293237
 30
0.0
 11
8169.047407309184
 21
-1767.183892814622
 31
0.0
  0
LINE
  5
ADB4
330
1E
100
AcDbEntity
  8
002
100
AcDbLine
 10
8171.073302773182
 20
-1755.694468701211
 30
0.0
 11
8166.679606803915
 21
-1759.150686111464
 31
0.0
  0
ARC
  5
ADB5
330
1E
100
AcDbEntity
  8
002
100
AcDbCircle
 10
8169.527635541623
 20
-1753.729547840139
 30
0.0
 40
2.5
100
AcDbArc
 50
308.1896849999879
 51
31.81031500001687
  0
ARC
  5
ADB6
330
1E
100
AcDbEntity
  8
002
100
AcDbCircle
 10
8166.754389969417
 20
-1760.856249410772
 30
0.0
 40
2.5
100
AcDbArc
 50
128.1896849999879
 51
211.8103150000168
  0
ARC
  5
ADB7
330
1E
100
AcDbEntity
  8
002
100
AcDbCircle
 10
8168.22527420912
 20
-1761.11560598773
 30
0.0
 40
2.5
100
AcDbArc
 50
128.1896849999879
 51
211.8103150000168
  0
LINE
  5
ADB8
330
1E
100
AcDbEntity
  8
002
100
AcDbLine
 10
8164.629895363203
 20
-1762.174021716278
 30
0.0
 11
8167.576523069477
 21
-1766.924536237664
 31
0.0
  0
LINE
  5
ADB9
330
1E
100
AcDbEntity
  8
002
100
AcDbLine
 10
8169.602418533475
 20
-1755.435112124252
 30
0.0
 11
8165.20872256421
 21
-1758.891329534506
 31
0.0
  0
ARC
  5
ADBA
330
1E
100
AcDbEntity
  8
002
100
AcDbCircle
 10
8164.318190211615
 20
-1783.273780430505
 30
0.0
 40
2.5
100
AcDbArc
 50
308.1896849999879
 51
31.81031500001687
  0
LINE
  5
ADBB
330
1E
100
AcDbEntity
  8
002
100
AcDbLine
 10
8162.025172698198
 20
-1776.946138011461
 30
0.0
 11
8164.971800404476
 21
-1781.696652532846
 31
0.0
  0
LINE
  5
ADBC
330
1E
100
AcDbEntity
  8
002
100
AcDbLine
 10
8164.392973203469
 20
-1784.979344714618
 30
0.0
 11
8159.999277234204
 21
-1788.435562124872
 31
0.0
  0
ARC
  5
ADBD
330
1E
100
AcDbEntity
  8
002
100
AcDbCircle
 10
8161.544944639409
 20
-1790.400482001137
 30
0.0
 40
2.5
100
AcDbArc
 50
128.1896849999879
 51
211.8103150000168
  0
ARC
  5
ADBE
330
1E
100
AcDbEntity
  8
002
100
AcDbCircle
 10
8163.015828879114
 20
-1790.659838578096
 30
0.0
 40
2.5
100
AcDbArc
 50
128.1896849999879
 51
211.8103150000168
  0
ARC
  5
ADBF
330
1E
100
AcDbEntity
  8
002
100
AcDbCircle
 10
8164.149667304412
 20
-1775.628365705955
 30
0.0
 40
2.5
100
AcDbArc
 50
128.1896849999879
 51
211.8103150000168
  0
ARC
  5
ADC0
330
1E
100
AcDbEntity
  8
002
100
AcDbCircle
 10
8165.620551544119
 20
-1775.887722282914
 30
0.0
 40
2.5
100
AcDbArc
 50
128.1896849999879
 51
211.8103150000168
  0
ARC
  5
ADC1
330
1E
100
AcDbEntity
  8
002
100
AcDbCircle
 10
8160.242583306906
 20
-1797.786540148728
 30
0.0
 40
2.5
100
AcDbArc
 50
308.1896849999879
 51
31.81031500001687
  0
LINE
  5
ADC2
330
1E
100
AcDbEntity
  8
002
100
AcDbLine
 10
8159.420450033193
 20
-1791.718254306644
 30
0.0
 11
8162.367077739471
 21
-1796.46876882803
 31
0.0
  0
LINE
  5
ADC3
330
1E
100
AcDbEntity
  8
002
100
AcDbLine
 10
8160.891334272902
 20
-1791.977610883603
 30
0.0
 11
8163.837961979176
 21
-1796.728125404988
 31
0.0
  0
LINE
  5
ADC4
330
1E
100
AcDbEntity
  8
002
100
AcDbLine
 10
8163.496056937903
 20
-1777.205494588419
 30
0.0
 11
8166.442684644179
 21
-1781.956009109804
 31
0.0
  0
LINE
  5
ADC5
330
1E
100
AcDbEntity
  8
002
100
AcDbLine
 10
8165.863857443174
 20
-1785.238701291577
 30
0.0
 11
8161.470161473907
 21
-1788.694918701831
 31
0.0
  0
ARC
  5
ADC6
330
1E
100
AcDbEntity
  8
002
100
AcDbCircle
 10
8162.847305971911
 20
-1783.014423853546
 30
0.0
 40
2.5
100
AcDbArc
 50
308.1896849999879
 51
31.81031500001687
  0
LINE
  5
ADC7
330
1E
100
AcDbEntity
  8
002
100
AcDbLine
 10
8156.282212252952
 20
-1822.489676836796
 30
0.0
 11
8163.082881953171
 21
-1823.688818391831
 31
0.0
  0
ARC
  5
ADC8
330
1E
100
AcDbEntity
  8
002
100
AcDbCircle
 10
8156.335499309399
 20
-1819.944714591503
 30
0.0
 40
2.5
100
AcDbArc
 50
128.1896849999879
 51
211.8103150000168
  0
LINE
  5
ADC9
330
1E
100
AcDbEntity
  8
002
100
AcDbLine
 10
8154.211004703187
 20
-1821.26248689701
 30
0.0
 11
8157.157632409463
 21
-1826.013001418396
 31
0.0
  0
LINE
  5
ADCA
330
1E
100
AcDbEntity
  8
002
100
AcDbLine
 10
8163.25913477817
 20
-1800.010817586761
 30
0.0
 11
8158.865438808904
 21
-1803.467034997014
 31
0.0
  0
LINE
  5
ADCB
330
1E
100
AcDbEntity
  8
002
100
AcDbLine
 10
8156.815727368192
 20
-1806.490370601828
 30
0.0
 11
8159.762355074468
 21
-1811.240885123213
 31
0.0
  0
LINE
  5
ADCC
330
1E
100
AcDbEntity
  8
002
100
AcDbLine
 10
8158.286611607897
 20
-1806.749727178787
 30
0.0
 11
8161.233239314173
 21
-1811.500241700172
 31
0.0
  0
ARC
  5
ADCD
330
1E
100
AcDbEntity
  8
002
100
AcDbCircle
 10
8157.637860641903
 20
-1812.558656443912
 30
0.0
 40
2.5
100
AcDbArc
 50
308.1896849999879
 51
31.81031500001687
  0
ARC
  5
ADCE
330
1E
100
AcDbEntity
  8
002
100
AcDbCircle
 10
8159.108744881606
 20
-1812.818013020871
 30
0.0
 40
2.5
100
AcDbArc
 50
308.1896849999879
 51
31.81031500001687
  0
ARC
  5
ADCF
330
1E
100
AcDbEntity
  8
002
100
AcDbCircle
 10
8158.940221974404
 20
-1805.172598296321
 30
0.0
 40
2.5
100
AcDbArc
 50
128.1896849999879
 51
211.8103150000168
  0
ARC
  5
ADD0
330
1E
100
AcDbEntity
  8
002
100
AcDbCircle
 10
8160.411106214109
 20
-1805.43195487328
 30
0.0
 40
2.5
100
AcDbArc
 50
128.1896849999879
 51
211.8103150000168
  0
LINE
  5
ADD1
330
1E
100
AcDbEntity
  8
002
100
AcDbLine
 10
8159.183527873459
 20
-1814.523577304984
 30
0.0
 11
8154.789831904194
 21
-1817.979794715238
 31
0.0
  0
LINE
  5
ADD2
330
1E
100
AcDbEntity
  8
002
100
AcDbLine
 10
8160.654412113165
 20
-1814.782933881943
 30
0.0
 11
8156.260716143899
 21
-1818.239151292196
 31
0.0
  0
ARC
  5
ADD3
330
1E
100
AcDbEntity
  8
002
100
AcDbCircle
 10
8157.806383549106
 20
-1820.204071168462
 30
0.0
 40
2.5
100
AcDbArc
 50
128.1896849999879
 51
211.8103150000168
  0
LINE
  5
ADD4
330
1E
100
AcDbEntity
  8
002
100
AcDbLine
 10
8155.681888942892
 20
-1821.521843473968
 30
0.0
 11
8158.628516649169
 21
-1826.272357995354
 31
0.0
  0
LINE
  5
ADD5
330
1E
100
AcDbEntity
  8
002
100
AcDbLine
 10
8161.788250538464
 20
-1799.751461009802
 30
0.0
 11
8157.394554569199
 21
-1803.207678420056
 31
0.0
  0
ARC
  5
ADD6
330
1E
100
AcDbEntity
  8
002
100
AcDbCircle
 10
8161.713467546611
 20
-1798.045896725687
 30
0.0
 40
2.5
100
AcDbArc
 50
308.1896849999879
 51
31.81031500001687
  0
LINE
  5
ADD7
330
1E
100
AcDbEntity
  8
002
100
AcDbLine
 10
8166.997695868472
 20
-1770.207228419436
 30
0.0
 11
8162.603999899205
 21
-1773.66344582969
 31
0.0
  0
LINE
  5
ADD8
330
1E
100
AcDbEntity
  8
002
100
AcDbLine
 10
8168.468580108179
 20
-1770.466584996395
 30
0.0
 11
8164.074884138912
 21
-1773.922802406648
 31
0.0
  0
LINE
  5
ADD9
330
1E
100
AcDbEntity
  8
002
100
AcDbLine
 10
8156.578805208456
 20
-1829.295693600168
 30
0.0
 11
8152.185109239189
 21
-1832.751911010422
 31
0.0
  0
LINE
  5
ADDA
330
1E
100
AcDbEntity
  8
002
100
AcDbLine
 10
8158.049689448162
 20
-1829.555050177126
 30
0.0
 11
8153.655993478897
 21
-1833.01126758738
 31
0.0
  0
LINE
  5
ADDB
330
1E
100
AcDbEntity
  8
002
100
AcDbLine
 10
8151.606282038184
 20
-1836.034603192194
 30
0.0
 11
8154.55290974446
 21
-1840.78511771358
 31
0.0
  0
ARC
  5
ADDC
330
1E
100
AcDbEntity
  8
002
100
AcDbCircle
 10
8152.428415311895
 20
-1842.102889034278
 30
0.0
 40
2.5
100
AcDbArc
 50
308.1896849999879
 51
31.81031500001687
  0
ARC
  5
ADDD
330
1E
100
AcDbEntity
  8
002
100
AcDbCircle
 10
8153.730776644398
 20
-1834.716830886687
 30
0.0
 40
2.5
100
AcDbArc
 50
128.1896849999879
 51
211.8103150000168
  0
LINE
  5
ADDE
330
1E
100
AcDbEntity
  8
002
100
AcDbLine
 10
8153.077166277887
 20
-1836.293959769152
 30
0.0
 11
8153.784356744324
 21
-1837.434083140771
 31
0.0
  0
ARC
  5
ADDF
330
1E
100
AcDbEntity
  8
002
100
AcDbCircle
 10
8155.201660884102
 20
-1834.976187463646
 30
0.0
 40
2.5
100
AcDbArc
 50
128.1896849999879
 51
211.8103150000168
  0
ARC
  5
ADE0
330
1E
100
AcDbEntity
  8
002
100
AcDbCircle
 10
8151.126053979394
 20
-1849.488947181869
 30
0.0
 40
2.5
100
AcDbArc
 50
128.1896849999879
 51
211.8103150000168
  0
LINE
  5
ADE1
330
1E
100
AcDbEntity
  8
002
100
AcDbLine
 10
8153.974082543451
 20
-1844.067809895352
 30
0.0
 11
8149.580386574186
 21
-1847.524027305606
 31
0.0
  0
LINE
  5
ADE2
330
1E
100
AcDbEntity
  8
002
100
AcDbLine
 10
8149.001559373179
 20
-1850.806719487376
 30
0.0
 11
8151.948187079455
 21
-1855.557234008761
 31
0.0
  0
LINE
  5
ADE3
330
1E
100
AcDbEntity
  8
002
100
AcDbLine
 10
8151.369359878449
 20
-1858.839926190534
 30
0.0
 11
8146.975663909183
 21
-1862.296143600788
 31
0.0
  0
LINE
  5
ADE4
330
1E
100
AcDbEntity
  8
002
100
AcDbLine
 10
8146.396836708175
 20
-1865.57883578256
 30
0.0
 11
8149.343464414451
 21
-1870.329350303945
 31
0.0
  0
ARC
  5
ADE5
330
1E
100
AcDbEntity
  8
002
100
AcDbCircle
 10
8148.521331314389
 20
-1864.261063477053
 30
0.0
 40
2.5
100
AcDbArc
 50
128.1896849999879
 51
211.8103150000168
  0
ARC
  5
ADE6
330
1E
100
AcDbEntity
  8
002
100
AcDbCircle
 10
8149.82369264689
 20
-1856.875005329462
 30
0.0
 40
2.5
100
AcDbArc
 50
308.1896849999879
 51
31.81031500001687
  0
ARC
  5
ADE7
330
1E
100
AcDbEntity
  8
002
100
AcDbCircle
 10
8155.033137976898
 20
-1827.330772739096
 30
0.0
 40
2.5
100
AcDbArc
 50
308.1896849999879
 51
31.81031500001687
  0
ARC
  5
ADE8
330
1E
100
AcDbEntity
  8
002
100
AcDbCircle
 10
8156.504022216603
 20
-1827.590129316055
 30
0.0
 40
2.5
100
AcDbArc
 50
308.1896849999879
 51
31.81031500001687
  0
LINE
  5
ADE9
330
1E
100
AcDbEntity
  8
002
100
AcDbLine
 10
8179.693697802393
 20
-1668.605768248257
 30
0.0
 11
8196.351017332913
 21
-1671.542903107771
 31
0.0
  0
LINE
  5
ADEA
330
1E
100
AcDbEntity
  8
002
100
AcDbLine
 10
8170.352960658815
 20
-1651.134947811353
 30
0.0
 11
8171.020770590088
 21
-1650.339083301114
 31
0.0
  0
ARC
  5
ADEB
330
1E
100
AcDbEntity
  8
002
100
AcDbCircle
 10
8169.800581408258
 20
-1650.671446217726
 30
0.0
 40
0.7210800000000001
100
AcDbArc
 50
176.9999999999938
 51
319.9999999999706
  0
ARC
  5
ADEC
330
1E
100
AcDbEntity
  8
002
100
AcDbCircle
 10
8182.63109671434
 20
-1652.933812242581
 30
0.0
 40
0.7210800000000001
100
AcDbArc
 50
200.0000000000471
 51
343.0000000000192
  0
LINE
  5
ADED
330
1E
100
AcDbEntity
  8
002
100
AcDbLine
 10
8181.953502553657
 20
-1653.180435620239
 30
0.0
 11
8181.598168756588
 21
-1652.204163983564
 31
0.0
  0
LINE
  5
ADEE
330
1E
100
AcDbEntity
  8
002
100
AcDbLine
 10
8145.36698136303
 20
-1646.729245522084
 30
0.0
 11
8146.03479072073
 21
-1645.933380192693
 31
0.0
  0
LINE
  5
ADEF
330
1E
100
AcDbEntity
  8
002
100
AcDbLine
 10
8156.967522438721
 20
-1648.774733904545
 30
0.0
 11
8156.612188068077
 21
-1647.798461448719
 31
0.0
  0
ARC
  5
ADF0
330
1E
100
AcDbEntity
  8
002
100
AcDbCircle
 10
8157.645116844982
 20
-1648.52810913416
 30
0.0
 40
0.7210800000000001
100
AcDbArc
 50
200.0000000000471
 51
343.0000000000192
  0
LINE
  5
ADF1
330
1E
100
AcDbEntity
  8
002
100
AcDbLine
 10
8167.93499186938
 20
-1662.238587220992
 30
0.0
 11
8166.689392265583
 21
-1666.31275831674
 31
0.0
  0
ARC
  5
ADF2
330
1E
100
AcDbEntity
  8
002
100
AcDbCircle
 10
8094.621926357055
 20
-1658.443496715946
 30
0.0
 40
73.83085699999999
100
AcDbArc
 50
345.0000000000055
 51
349.999999999996
  0
LINE
  5
ADF3
330
1E
100
AcDbEntity
  8
002
100
AcDbLine
 10
8168.699541344846
 20
-1657.90260760852
 30
0.0
 11
8167.93499186938
 21
-1662.238587220992
 31
0.0
  0
LINE
  5
ADF4
330
1E
100
AcDbEntity
  8
002
100
AcDbLine
 10
8183.441595028458
 20
-1669.26662293212
 30
0.0
 11
8182.065114228498
 21
-1669.767621440038
 31
0.0
  0
LINE
  5
ADF5
330
1E
100
AcDbEntity
  8
002
100
AcDbLine
 10
8178.836694769554
 20
-1671.030937982457
 30
0.0
 11
8181.751725617759
 21
-1671.544936570593
 31
0.0
  0
LINE
  5
ADF6
330
1E
100
AcDbEntity
  8
002
100
AcDbLine
 10
8181.1925316891
 20
-1660.105458875943
 30
0.0
 11
8180.427981640058
 21
-1664.441437669261
 31
0.0
  0
LINE
  5
ADF7
330
1E
100
AcDbEntity
  8
002
100
AcDbLine
 10
8180.427981640058
 20
-1664.441437669261
 30
0.0
 11
8180.205012994948
 21
-1668.69592691235
 31
0.0
  0
LINE
  5
ADF8
330
1E
100
AcDbEntity
  8
002
100
AcDbLine
 10
8181.751725617759
 20
-1671.544936570593
 30
0.0
 11
8182.873843132227
 21
-1672.486503939266
 31
0.0
  0
ARC
  5
ADF9
330
1E
100
AcDbEntity
  8
002
100
AcDbCircle
 10
8094.621926357055
 20
-1658.443496715946
 30
0.0
 40
84.571429
100
AcDbArc
 50
345.0000000000055
 51
349.999999999996
  0
LINE
  5
ADFA
330
1E
100
AcDbEntity
  8
002
100
AcDbLine
 10
8155.442002344276
 20
-1660.035735379993
 30
0.0
 11
8155.219033699165
 21
-1664.29022462308
 31
0.0
  0
LINE
  5
ADFB
330
1E
100
AcDbEntity
  8
002
100
AcDbLine
 10
8154.70771850661
 20
-1664.200065958986
 30
0.0
 11
8167.20070827729
 21
-1666.402916407258
 31
0.0
  0
LINE
  5
ADFC
330
1E
100
AcDbEntity
  8
002
100
AcDbLine
 10
8180.210746584764
 20
-1687.589674972785
 30
0.0
 11
8179.088628496719
 21
-1686.648106784959
 31
0.0
  0
LINE
  5
ADFD
330
1E
100
AcDbEntity
  8
002
100
AcDbLine
 10
8168.032049436682
 20
-1711.232093794316
 30
0.0
 11
8168.032049544795
 21
-1667.288958557128
 31
0.0
  0
LINE
  5
ADFE
330
1E
100
AcDbEntity
  8
002
100
AcDbLine
 10
8183.441595028458
 20
-1669.26662293212
 30
0.0
 11
8180.210746584764
 21
-1687.589674972785
 31
0.0
  0
LINE
  5
ADFF
330
1E
100
AcDbEntity
  8
002
100
AcDbLine
 10
8182.065114228498
 20
-1669.767621440038
 30
0.0
 11
8178.961446853973
 21
-1687.369389723255
 31
0.0
  0
LINE
  5
AE00
330
1E
100
AcDbEntity
  8
002
100
AcDbLine
 10
8147.032049323289
 20
-1702.130128141457
 30
0.0
 11
8147.032049934882
 21
-1640.27764214202
 31
0.0
  0
LINE
  5
AE01
330
1E
100
AcDbEntity
  8
002
100
AcDbLine
 10
8156.206552393319
 20
-1655.699756586673
 30
0.0
 11
8155.442002344276
 21
-1660.035735379993
 31
0.0
  0
ARC
  5
AE02
330
1E
100
AcDbEntity
  8
002
100
AcDbCircle
 10
8144.8146015389
 20
-1646.265743109305
 30
0.0
 40
0.7210800000000001
100
AcDbArc
 50
176.9999999999938
 51
319.9999999999706
  0
LINE
  5
AE03
330
1E
100
AcDbEntity
  8
002
100
AcDbLine
 10
8172.444063358215
 20
-1717.857672830728
 30
0.0
 11
8175.390691064491
 21
-1722.608187352114
 31
0.0
  0
LINE
  5
AE04
330
1E
100
AcDbEntity
  8
002
100
AcDbLine
 10
8173.91494759792
 20
-1718.117029407687
 30
0.0
 11
8176.861575304195
 21
-1722.867543929073
 31
0.0
  0
LINE
  5
AE05
330
1E
100
AcDbEntity
  8
002
100
AcDbLine
 10
8174.811863863485
 20
-1725.890879533886
 30
0.0
 11
8170.418167894219
 21
-1729.34709694414
 31
0.0
  0
LINE
  5
AE06
330
1E
100
AcDbEntity
  8
002
100
AcDbLine
 10
8176.282748103188
 20
-1726.150236110845
 30
0.0
 11
8171.889052133924
 21
-1729.606453521099
 31
0.0
  0
ARC
  5
AE07
330
1E
100
AcDbEntity
  8
002
100
AcDbCircle
 10
8172.132358206628
 20
-1738.957431544955
 30
0.0
 40
2.5
100
AcDbArc
 50
308.1896849999879
 51
31.81031500001687
  0
ARC
  5
AE08
330
1E
100
AcDbEntity
  8
002
100
AcDbCircle
 10
8171.963835299424
 20
-1731.312016820405
 30
0.0
 40
2.5
100
AcDbArc
 50
128.1896849999879
 51
211.8103150000168
  0
ARC
  5
AE09
330
1E
100
AcDbEntity
  8
002
100
AcDbCircle
 10
8173.434719539129
 20
-1731.571373397364
 30
0.0
 40
2.5
100
AcDbArc
 50
128.1896849999879
 51
211.8103150000168
  0
ARC
  5
AE0A
330
1E
100
AcDbEntity
  8
002
100
AcDbCircle
 10
8170.661473966921
 20
-1738.698074967997
 30
0.0
 40
2.5
100
AcDbArc
 50
308.1896849999879
 51
31.81031500001687
  0
LINE
  5
AE0B
330
1E
100
AcDbEntity
  8
002
100
AcDbLine
 10
8169.83934069321
 20
-1732.629789125912
 30
0.0
 11
8172.785968399486
 21
-1737.380303647298
 31
0.0
  0
LINE
  5
AE0C
330
1E
100
AcDbEntity
  8
002
100
AcDbLine
 10
8171.310224932916
 20
-1732.889145702871
 30
0.0
 11
8174.256852639194
 21
-1737.639660224257
 31
0.0
  0
ARC
  5
AE0D
330
1E
100
AcDbEntity
  8
002
100
AcDbCircle
 10
8173.266196631926
 20
-1723.925958672813
 30
0.0
 40
2.5
100
AcDbArc
 50
308.1896849999879
 51
31.81031500001687
  0
ARC
  5
AE0E
330
1E
100
AcDbEntity
  8
002
100
AcDbCircle
 10
8174.737080871631
 20
-1724.185315249771
 30
0.0
 40
2.5
100
AcDbArc
 50
308.1896849999879
 51
31.81031500001687
  0
LINE
  5
AE0F
330
1E
100
AcDbEntity
  8
002
100
AcDbLine
 10
8167.234618028208
 20
-1747.401905421094
 30
0.0
 11
8170.181245734482
 21
-1752.15241994248
 31
0.0
  0
ARC
  5
AE10
330
1E
100
AcDbEntity
  8
002
100
AcDbCircle
 10
8169.35911263442
 20
-1746.084133115588
 30
0.0
 40
2.5
100
AcDbArc
 50
128.1896849999879
 51
211.8103150000168
  0
ARC
  5
AE11
330
1E
100
AcDbEntity
  8
002
100
AcDbCircle
 10
8170.829996874124
 20
-1746.343489692546
 30
0.0
 40
2.5
100
AcDbArc
 50
128.1896849999879
 51
211.8103150000168
  0
LINE
  5
AE12
330
1E
100
AcDbEntity
  8
002
100
AcDbLine
 10
8172.20714119848
 20
-1740.662995829068
 30
0.0
 11
8167.813445229214
 21
-1744.119213239322
 31
0.0
  0
LINE
  5
AE13
330
1E
100
AcDbEntity
  8
002
100
AcDbLine
 10
8173.678025438185
 20
-1740.922352406027
 30
0.0
 11
8169.28432946892
 21
-1744.378569816281
 31
0.0
  0
LINE
  5
AE14
330
1E
100
AcDbEntity
  8
002
100
AcDbLine
 10
8161.032049808001
 20
-1715.845426937616
 30
0.0
 11
8161.032050158906
 21
-1695.85806836449
 31
0.0
  0
LINE
  5
AE15
330
1E
100
AcDbEntity
  8
002
100
AcDbLine
 10
8165.93705798661
 20
-1677.55232889325
 30
0.0
 11
8155.918071913493
 21
-1714.943694656067
 31
0.0
  0
LINE
  5
AE16
330
1E
100
AcDbEntity
  8
002
100
AcDbLine
 10
8176.311653092158
 20
-1680.332193421027
 30
0.0
 11
8166.535873899942
 21
-1716.815899622099
 31
0.0
  0
LINE
  5
AE17
330
1E
100
AcDbEntity
  8
002
100
AcDbLine
 10
8178.836694769554
 20
-1671.030937982457
 30
0.0
 11
8170.636090064064
 21
-1717.538878358571
 31
0.0
  0
LINE
  5
AE18
330
1E
100
AcDbEntity
  8
002
100
AcDbLine
 10
8202.904612490007
 20
-1663.597266152006
 30
0.0
 11
8202.071746931299
 21
-1663.450409482702
 31
0.0
  0
LINE
  5
AE19
330
1E
100
AcDbEntity
  8
002
100
AcDbLine
 10
8194.415709531872
 20
-1670.342895056654
 30
0.0
 11
8193.435986484711
 21
-1671.028904519633
 31
0.0
  0
LINE
  5
AE1A
330
1E
100
AcDbEntity
  8
002
100
AcDbLine
 10
8200.368491242606
 20
-1673.110052504143
 30
0.0
 11
8202.196292427458
 21
-1674.919760873144
 31
0.0
  0
LINE
  5
AE1B
330
1E
100
AcDbEntity
  8
002
100
AcDbLine
 10
8200.662204007636
 20
-1671.444320567576
 30
0.0
 11
8200.368491242606
 21
-1673.110052504143
 31
0.0
  0
LINE
  5
AE1C
330
1E
100
AcDbEntity
  8
002
100
AcDbLine
 10
8197.729963054682
 20
-1670.068526303813
 30
0.0
 11
8199.976194544655
 21
-1670.464597520414
 31
0.0
  0
LINE
  5
AE1D
330
1E
100
AcDbEntity
  8
002
100
AcDbLine
 10
8196.351017332913
 20
-1671.542903107771
 30
0.0
 11
8197.729963054682
 21
-1670.068526303813
 31
0.0
  0
LINE
  5
AE1E
330
1E
100
AcDbEntity
  8
002
100
AcDbLine
 10
8200.662204007636
 20
-1671.444320567576
 30
0.0
 11
8199.976194544655
 21
-1670.464597520414
 31
0.0
  0
LINE
  5
AE1F
330
1E
100
AcDbEntity
  8
002
100
AcDbLine
 10
8202.904612490007
 20
-1663.597266152006
 30
0.0
 11
8203.772366473407
 21
-1665.98140079
 31
0.0
  0
LINE
  5
AE20
330
1E
100
AcDbEntity
  8
002
100
AcDbLine
 10
8198.244546915246
 20
-1690.02581132438
 30
0.0
 11
8199.366664184136
 21
-1690.967380085783
 31
0.0
  0
LINE
  5
AE21
330
1E
100
AcDbEntity
  8
002
100
AcDbLine
 10
8198.117364453343
 20
-1690.747094836253
 30
0.0
 11
8199.493845826884
 21
-1690.246097147486
 31
0.0
  0
LINE
  5
AE22
330
1E
100
AcDbEntity
  8
002
100
AcDbLine
 10
8207.989037533577
 20
-1690.770215005395
 30
0.0
 11
8206.029591439254
 21
-1692.142233931357
 31
0.0
  0
LINE
  5
AE23
330
1E
100
AcDbEntity
  8
002
100
AcDbLine
 10
8203.772366473407
 20
-1665.98140079
 30
0.0
 11
8199.366664184136
 21
-1690.967380085783
 31
0.0
  0
LINE
  5
AE24
330
1E
100
AcDbEntity
  8
002
100
AcDbLine
 10
8202.904612490007
 20
-1663.597266152006
 30
0.0
 11
8198.117364453343
 21
-1690.747094836253
 31
0.0
  0
LINE
  5
AE25
330
1E
100
AcDbEntity
  8
002
100
AcDbLine
 10
8188.122973570669
 20
-1688.984814067889
 30
0.0
 11
8184.449128012907
 21
-1709.820223515644
 31
0.0
  0
LINE
  5
AE26
330
1E
100
AcDbEntity
  8
002
100
AcDbLine
 10
8188.122973570669
 20
-1688.984814067889
 30
0.0
 11
8184.449128012907
 21
-1709.820223515644
 31
0.0
  0
LINE
  5
AE27
330
1E
100
AcDbEntity
  8
002
100
AcDbLine
 10
8207.989037533577
 20
-1690.770215005395
 30
0.0
 11
8215.038161098178
 21
-1650.792648689233
 31
0.0
  0
LINE
  5
AE28
330
1E
100
AcDbEntity
  8
003
100
AcDbLine
 10
8205.962957199174
 20
-1713.613692059534
 30
0.0
 11
8202.142697290502
 21
-1735.279462625803
 31
0.0
  0
LINE
  5
AE29
330
1E
100
AcDbEntity
  8
003
  6
Continuous
100
AcDbLine
 10
8098.163639932433
 20
-1582.908836616025
 30
0.0
 11
7973.743631828327
 21
-1560.970232247306
 31
0.0
  0
LINE
  5
AE2A
330
1E
100
AcDbEntity
  8
001
100
AcDbLine
 10
7902.872948856999
 20
-1345.016572411863
 30
0.0
 11
8127.092869095578
 21
-1345.016572411863
 31
0.0
  0
TEXT
  5
AE2B
330
1E
100
AcDbEntity
  8
001
100
AcDbText
 10
7902.872948856999
 20
-1341.375023752256
 30
0.0
 40
18.0
  1
10°振りアンカー頭部構造図
 41
0.787037
100
AcDbText
  0
LINE
  5
AE2C
330
1E
100
AcDbEntity
  8
003
  6
Continuous
100
AcDbLine
 10
7983.392434153341
 20
-1562.671576428727
 30
0.0
 11
7982.377286319932
 21
-1551.066925505305
 31
0.0
  0
LINE
  5
AE2D
330
1E
100
AcDbEntity
  8
002
100
AcDbLine
 10
8145.294653011101
 20
-1615.308444779297
 30
0.0
 11
8142.79605494225
 21
-1614.867874525811
 31
0.0
  0
LINE
  5
AE2E
330
1E
100
AcDbEntity
  8
002
100
AcDbLine
 10
8113.528637647617
 20
-1581.902164099754
 30
0.0
 11
8144.67148047637
 21
-1441.055027585918
 31
0.0
  0
LINE
  5
AE2F
330
1E
100
AcDbEntity
  8
002
100
AcDbLine
 10
8109.359976478506
 20
-1581.169298709925
 30
0.0
 11
8140.542634132611
 21
-1440.142094470366
 31
0.0
  0
LINE
  5
AE30
330
1E
100
AcDbEntity
  8
002
100
AcDbLine
 10
8102.94525720419
 20
-1590.466758045649
 30
0.0
 11
8090.108263226538
 21
-1628.764136997311
 31
0.0
  0
ARC
  5
AE31
330
1E
100
AcDbEntity
  8
002
100
AcDbCircle
 10
8115.658511505731
 20
-1593.442654791917
 30
0.0
 40
8.457142999999998
100
AcDbArc
 50
130.1682749999926
 51
169.9999999999961
  0
ARC
  5
AE32
330
1E
100
AcDbEntity
  8
002
100
AcDbCircle
 10
8105.270945533673
 20
-1580.076298687798
 30
0.0
 40
8.457142999999998
100
AcDbArc
 50
310.1682749999926
 51
347.531881999994
  0
LINE
  5
AE33
330
1E
100
AcDbEntity
  8
002
100
AcDbLine
 10
8110.726095407885
 20
-1586.538851778272
 30
0.0
 11
8110.203361057944
 21
-1586.98010088229
 31
0.0
  0
ARC
  5
AE34
330
1E
100
AcDbEntity
  8
002
100
AcDbCircle
 10
8101.102285183715
 20
-1579.343432724392
 30
0.0
 40
8.457142999999998
100
AcDbArc
 50
310.1944290000103
 51
347.531881999994
  0
LINE
  5
AE35
330
1E
100
AcDbEntity
  8
002
100
AcDbLine
 10
8106.560384273786
 20
-1585.803495922133
 30
0.0
 11
8105.505824020447
 21
-1586.69449279764
 31
0.0
  0
ARC
  5
AE36
330
1E
100
AcDbEntity
  8
002
100
AcDbCircle
 10
8110.96392392967
 20
-1593.154555421806
 30
0.0
 40
8.457142999999998
100
AcDbArc
 50
130.1944290000103
 51
161.4692339999878
  0
LINE
  5
AE37
330
1E
100
AcDbEntity
  8
002
100
AcDbLine
 10
8140.032050228262
 20
-1595.720867403701
 30
0.0
 11
8140.032049447126
 21
-1533.868381158687
 31
0.0
  0
LINE
  5
AE38
330
1E
100
AcDbEntity
  8
002
100
AcDbLine
 10
8126.28780341603
 20
-1609.380741885979
 30
0.0
 11
8126.661842232609
 21
-1609.694598330972
 31
0.0
  0
ARC
  5
AE39
330
1E
100
AcDbEntity
  8
002
100
AcDbCircle
 10
8142.582862223212
 20
-1612.683380581818
 30
0.0
 40
0.422857
100
AcDbArc
 50
343.0000000000192
 51
79.9999999999961
  0
LINE
  5
AE3A
330
1E
100
AcDbEntity
  8
002
100
AcDbLine
 10
8142.255990764018
 20
-1615.198826622729
 30
0.0
 11
8142.79605494225
 21
-1614.867874525811
 31
0.0
  0
LINE
  5
AE3B
330
1E
100
AcDbEntity
  8
002
100
AcDbLine
 10
8142.656290557864
 20
-1612.266947802465
 30
0.0
 11
8137.698067141236
 21
-1611.392679237733
 31
0.0
  0
LINE
  5
AE3C
330
1E
100
AcDbEntity
  8
002
100
AcDbLine
 10
8137.698067141236
 20
-1611.392679237733
 30
0.0
 11
8137.239239825532
 21
-1611.559678194269
 31
0.0
  0
LINE
  5
AE3D
330
1E
100
AcDbEntity
  8
002
100
AcDbLine
 10
8120.308673715319
 20
-1610.902742490027
 30
0.0
 11
8111.563581170704
 21
-1609.360746725618
 31
0.0
  0
LINE
  5
AE3E
330
1E
100
AcDbEntity
  8
002
100
AcDbLine
 10
8111.563581170704
 20
-1609.360746725618
 30
0.0
 11
8110.58385812354
 21
-1610.0467561886
 31
0.0
  0
ARC
  5
AE3F
330
1E
100
AcDbEntity
  8
002
100
AcDbCircle
 10
8121.25615166475
 20
-1608.9229061006
 30
0.0
 40
0.422857
100
AcDbArc
 50
79.9999999999961
 51
176.9999999999938
  0
LINE
  5
AE40
330
1E
100
AcDbEntity
  8
002
100
AcDbLine
 10
8120.702976573886
 20
-1611.398447987401
 30
0.0
 11
8120.308673715319
 21
-1610.902742490027
 31
0.0
  0
LINE
  5
AE41
330
1E
100
AcDbEntity
  8
002
100
AcDbLine
 10
8121.3295799994
 20
-1608.506473321247
 30
0.0
 11
8126.28780341603
 21
-1609.380741885979
 31
0.0
  0
LINE
  5
AE42
330
1E
100
AcDbEntity
  8
002
100
AcDbLine
 10
8203.032049728415
 20
-1530.646580432123
 30
0.0
 11
8203.032050037782
 21
-1492.381182212122
 31
0.0
  0
LINE
  5
AE43
330
1E
100
AcDbEntity
  8
002
100
AcDbLine
 10
8196.032050454126
 20
-1570.345553125811
 30
0.0
 11
8196.032050246568
 21
-1508.49306769995
 31
0.0
  0
LINE
  5
AE44
330
1E
100
AcDbEntity
  8
002
100
AcDbLine
 10
8175.032050025059
 20
-1543.334237284279
 30
0.0
 11
8175.032049505153
 21
-1487.444027376384
 31
0.0
  0
LINE
  5
AE45
330
1E
100
AcDbEntity
  8
002
100
AcDbLine
 10
8147.032050321703
 20
-1556.021894136436
 30
0.0
 11
8147.032050114146
 21
-1494.169408710573
 31
0.0
  0
LINE
  5
AE46
330
1E
100
AcDbEntity
  8
002
100
AcDbLine
 10
8154.032049595995
 20
-1516.322921442748
 30
0.0
 11
8154.032049371862
 21
-1483.741160758003
 31
0.0
  0
LINE
  5
AE47
330
1E
100
AcDbEntity
  8
002
100
AcDbLine
 10
8168.032049931616
 20
-1583.033210551544
 30
0.0
 11
8168.032050543212
 21
-1521.180724552106
 31
0.0
  0
LINE
  5
AE48
330
1E
100
AcDbEntity
  8
002
100
AcDbLine
 10
8171.301538590965
 20
-1617.317877899786
 30
0.0
 11
8176.259762007596
 21
-1618.192146464518
 31
0.0
  0
LINE
  5
AE49
330
1E
100
AcDbEntity
  8
002
100
AcDbLine
 10
8170.280633126036
 20
-1619.714146494989
 30
0.0
 11
8167.782035630761
 21
-1619.273577060656
 31
0.0
  0
ARC
  5
AE4A
330
1E
100
AcDbEntity
  8
002
100
AcDbCircle
 10
8167.568841518997
 20
-1617.089082871087
 30
0.0
 40
0.422857
100
AcDbArc
 50
343.0000000000192
 51
79.9999999999961
  0
LINE
  5
AE4B
330
1E
100
AcDbEntity
  8
002
100
AcDbLine
 10
8167.241970878952
 20
-1619.604528338423
 30
0.0
 11
8167.782035630761
 21
-1619.273577060656
 31
0.0
  0
ARC
  5
AE4C
330
1E
100
AcDbEntity
  8
002
100
AcDbCircle
 10
8171.228110256315
 20
-1617.734310679139
 30
0.0
 40
0.422857
100
AcDbArc
 50
79.9999999999961
 51
176.9999999999938
  0
LINE
  5
AE4D
330
1E
100
AcDbEntity
  8
002
100
AcDbLine
 10
8170.674935739027
 20
-1620.209853385093
 30
0.0
 11
8170.280633126036
 21
-1619.714146494989
 31
0.0
  0
LINE
  5
AE4E
330
1E
100
AcDbEntity
  8
002
100
AcDbLine
 10
8176.259762007596
 20
-1618.192146464518
 30
0.0
 11
8176.633801643328
 21
-1618.506002335935
 31
0.0
  0
LINE
  5
AE4F
330
1E
100
AcDbEntity
  8
002
100
AcDbLine
 10
8146.315559295185
 20
-1612.912175610516
 30
0.0
 11
8151.273782711813
 21
-1613.786444175249
 31
0.0
  0
ARC
  5
AE50
330
1E
100
AcDbEntity
  8
002
100
AcDbCircle
 10
8146.242130960533
 20
-1613.328608389871
 30
0.0
 40
0.422857
100
AcDbArc
 50
79.9999999999961
 51
176.9999999999938
  0
LINE
  5
AE51
330
1E
100
AcDbEntity
  8
002
100
AcDbLine
 10
8151.273782711813
 20
-1613.786444175249
 30
0.0
 11
8151.64782152839
 21
-1614.100300620241
 31
0.0
  0
LINE
  5
AE52
330
1E
100
AcDbEntity
  8
002
100
AcDbLine
 10
8162.68404643702
 20
-1615.798381527003
 30
0.0
 11
8162.225219694892
 21
-1615.965381302692
 31
0.0
  0
LINE
  5
AE53
330
1E
100
AcDbEntity
  8
002
100
AcDbLine
 10
8167.642269853649
 20
-1616.672650091733
 30
0.0
 11
8162.68404643702
 21
-1615.798381527003
 31
0.0
  0
LINE
  5
AE54
330
1E
100
AcDbEntity
  8
002
100
AcDbLine
 10
8161.03205008375
 20
-1622.732182426081
 30
0.0
 11
8161.032049876192
 21
-1560.879697000218
 31
0.0
  0
LINE
  5
AE55
330
1E
100
AcDbEntity
  8
002
100
AcDbLine
 10
8145.688955869667
 20
-1615.804150276671
 30
0.0
 11
8145.294653011101
 21
-1615.308444779297
 31
0.0
  0
ARC
  5
AE56
330
1E
100
AcDbEntity
  8
002
100
AcDbCircle
 10
8207.619444828052
 20
-1610.19753159062
 30
0.0
 40
8.457142999999998
100
AcDbArc
 50
358.5307660000094
 51
29.80557099999419
  0
ARC
  5
AE57
330
1E
100
AcDbEntity
  8
002
100
AcDbCircle
 10
8203.109439737337
 20
-1608.862612927149
 30
0.0
 40
8.457142999999998
100
AcDbArc
 50
349.999999999996
 51
29.83172499999564
  0
LINE
  5
AE58
330
1E
100
AcDbEntity
  8
002
100
AcDbLine
 10
8210.105633624197
 20
-1604.062146414171
 30
0.0
 11
8210.445927972822
 21
-1604.655570044857
 31
0.0
  0
LINE
  5
AE59
330
1E
100
AcDbEntity
  8
002
100
AcDbLine
 10
8214.271628971697
 20
-1604.795894488066
 30
0.0
 11
8214.957852580871
 21
-1605.993838526115
 31
0.0
  0
LINE
  5
AE5A
330
1E
100
AcDbEntity
  8
002
100
AcDbLine
 10
8201.513107471159
 20
-1625.221275114334
 30
0.0
 11
8192.768014926544
 21
-1623.679279349926
 31
0.0
  0
ARC
  5
AE5B
330
1E
100
AcDbEntity
  8
002
100
AcDbCircle
 10
8192.554820814779
 20
-1621.494785160357
 30
0.0
 40
0.422857
100
AcDbArc
 50
343.0000000000192
 51
79.9999999999961
  0
LINE
  5
AE5C
330
1E
100
AcDbEntity
  8
002
100
AcDbLine
 10
8192.227950174734
 20
-1624.010230627693
 30
0.0
 11
8192.768014926544
 21
-1623.679279349926
 31
0.0
  0
LINE
  5
AE5D
330
1E
100
AcDbEntity
  8
002
100
AcDbLine
 10
8201.513107471159
 20
-1625.221275114334
 30
0.0
 11
8202.19911693414
 21
-1626.200998161497
 31
0.0
  0
LINE
  5
AE5E
330
1E
100
AcDbEntity
  8
002
100
AcDbLine
 10
8187.670025732801
 20
-1620.204083816272
 30
0.0
 11
8187.211198990675
 21
-1620.371083591963
 31
0.0
  0
LINE
  5
AE5F
330
1E
100
AcDbEntity
  8
002
100
AcDbLine
 10
8192.628249149432
 20
-1621.078352381004
 30
0.0
 11
8187.670025732801
 21
-1620.204083816272
 31
0.0
  0
LINE
  5
AE60
330
1E
100
AcDbEntity
  8
002
100
AcDbLine
 10
8189.032049787106
 20
-1610.044525573925
 30
0.0
 11
8189.032049579548
 21
-1548.192040148061
 31
0.0
  0
ARC
  5
AE61
330
1E
100
AcDbEntity
  8
002
100
AcDbCircle
 10
8221.61003615094
 20
-1600.592200604411
 30
0.0
 40
8.457142999999998
100
AcDbArc
 50
172.4681180000192
 51
209.8055709999941
  0
ARC
  5
AE62
330
1E
100
AcDbEntity
  8
002
100
AcDbCircle
 10
8217.442121859681
 20
-1599.855103531879
 30
0.0
 40
8.457142999999998
100
AcDbArc
 50
172.4681180000192
 51
209.8317249999956
  0
LINE
  5
AE63
330
1E
100
AcDbEntity
  8
002
100
AcDbLine
 10
8174.012440767272
 20
-1487.264242128114
 30
0.0
 11
8184.589838114618
 21
-1489.12932338414
 31
0.0
  0
LINE
  5
AE64
330
1E
100
AcDbEntity
  8
002
100
AcDbLine
 10
8149.026460652336
 20
-1482.85854041242
 30
0.0
 11
8159.603858818837
 21
-1484.723621094872
 31
0.0
  0
LINE
  5
AE65
330
1E
100
AcDbEntity
  8
002
100
AcDbLine
 10
8182.032049299349
 20
-1503.635264590591
 30
0.0
 11
8182.032050478069
 21
-1488.678316412895
 31
0.0
  0
LINE
  5
AE66
330
1E
100
AcDbEntity
  8
002
100
AcDbLine
 10
8192.830763690913
 20
-1432.238405453592
 30
0.0
 11
8191.988927221077
 21
-1436.376164232308
 31
0.0
  0
LINE
  5
AE67
330
1E
100
AcDbEntity
  8
002
100
AcDbLine
 10
8192.416573661896
 20
-1432.153951829061
 30
0.0
 11
8191.574464902233
 21
-1436.293051236827
 31
0.0
  0
LINE
  5
AE68
330
1E
100
AcDbEntity
  8
002
100
AcDbLine
 10
8185.726344292891
 20
-1430.985704631452
 30
0.0
 11
8185.102214960961
 21
-1435.161851052473
 31
0.0
  0
LINE
  5
AE69
330
1E
100
AcDbEntity
  8
002
100
AcDbLine
 10
8186.144440447533
 20
-1431.048005516771
 30
0.0
 11
8185.520108462201
 21
-1435.225504845622
 31
0.0
  0
LINE
  5
AE6A
330
1E
100
AcDbEntity
  8
002
100
AcDbLine
 10
8198.99842063663
 20
-1491.669945236535
 30
0.0
 11
8209.575818803131
 21
-1493.535025918985
 31
0.0
  0
LINE
  5
AE6B
330
1E
100
AcDbEntity
  8
004
  6
CENTER
 62
     6
100
AcDbLine
 10
8596.326710222928
 20
-2382.692893347202
 30
0.0
 11
8475.013955222928
 21
-2382.692893347202
 31
0.0
  0
TEXT
  5
AE6C
330
1E
100
AcDbEntity
  8
001
100
AcDbText
 10
8426.80380922293
 20
-2270.441873347203
 30
0.0
 40
17.0
  1
両ネジジョイントプレート
 41
0.6862750000000001
100
AcDbText
  0
LINE
  5
AE6D
330
1E
100
AcDbEntity
  8
001
100
AcDbLine
 10
8426.80380922293
 20
-2270.441873347203
 30
0.0
 11
8595.803809222928
 21
-2270.441873347203
 31
0.0
  0
LINE
  5
AE6E
330
1E
100
AcDbEntity
  8
004
  6
CENTER
 62
     6
100
AcDbLine
 10
8610.891853222929
 20
-2382.692893347202
 30
0.0
 11
8460.415737222929
 21
-2382.692893347202
 31
0.0
  0
CIRCLE
  5
AE6F
330
1E
100
AcDbEntity
  8
002
100
AcDbCircle
 10
8536.066277222927
 20
-2382.692893347202
 30
0.0
 40
58.80300899999999
  0
CIRCLE
  5
AE70
330
1E
100
AcDbEntity
  8
002
100
AcDbCircle
 10
8536.066277222927
 20
-2382.692893347202
 30
0.0
 40
61.5
  0
CIRCLE
  5
AE71
330
1E
100
AcDbEntity
  8
002
100
AcDbCircle
 10
8536.066277222927
 20
-2382.692893347202
 30
0.0
 40
57.5
  0
CIRCLE
  5
AE72
330
1E
100
AcDbEntity
  8
002
100
AcDbCircle
 10
8536.066277222927
 20
-2382.692893347202
 30
0.0
 40
62.5
  0
CIRCLE
  5
AE73
330
1E
100
AcDbEntity
  8
002
100
AcDbCircle
 10
8536.066277222927
 20
-2382.692893347202
 30
0.0
 40
63.5
  0
CIRCLE
  5
AE74
330
1E
100
AcDbEntity
  8
002
100
AcDbCircle
 10
8536.066277222927
 20
-2382.692893347202
 30
0.0
 40
65.0
  0
CIRCLE
  5
AE75
330
1E
100
AcDbEntity
  8
002
100
AcDbCircle
 10
8536.066277222927
 20
-2382.692893347202
 30
0.0
 40
40.49999999999999
  0
CIRCLE
  5
AE76
330
1E
100
AcDbEntity
  8
002
100
AcDbCircle
 10
8536.066277222927
 20
-2382.692893347202
 30
0.0
 40
42.0
  0
ARC
  5
AE77
330
1E
100
AcDbEntity
  8
002
100
AcDbCircle
 10
8295.154725511807
 20
-2382.692893347202
 30
0.0
 40
73.0
100
AcDbArc
 50
270.0
 51
90.0
  0
ARC
  5
AE78
330
1E
100
AcDbEntity
  8
002
100
AcDbCircle
 10
8295.154725511807
 20
-2382.692893347202
 30
0.0
 40
75.0
100
AcDbArc
 50
270.0
 51
90.0
  0
ARC
  5
AE79
330
1E
100
AcDbEntity
  8
002
100
AcDbCircle
 10
8295.154725511807
 20
-2382.692893347202
 30
0.0
 40
65.0
100
AcDbArc
 50
270.0
 51
90.0
  0
ARC
  5
AE7A
330
1E
100
AcDbEntity
  8
002
100
AcDbCircle
 10
8295.154725511807
 20
-2382.692893347202
 30
0.0
 40
63.5
100
AcDbArc
 50
270.0
 51
90.0
  0
ARC
  5
AE7B
330
1E
100
AcDbEntity
  8
002
100
AcDbCircle
 10
8295.154725511807
 20
-2382.692893347202
 30
0.0
 40
62.5
100
AcDbArc
 50
270.0
 51
90.0
  0
LINE
  5
AE7C
330
1E
100
AcDbEntity
  8
004
  6
CENTER
 62
     6
100
AcDbLine
 10
8295.154725511807
 20
-2299.771753347204
 30
0.0
 11
8295.154725511807
 21
-2465.345534347203
 31
0.0
  0
LINE
  5
AE7D
330
1E
100
AcDbEntity
  8
004
  6
CENTER
 62
     6
100
AcDbLine
 10
8283.149422511808
 20
-2382.692893347202
 30
0.0
 11
8374.996735511807
 21
-2382.692893347202
 31
0.0
  0
ARC
  5
AE7E
330
1E
100
AcDbEntity
  8
002
100
AcDbCircle
 10
8295.154725511807
 20
-2382.692893347202
 30
0.0
 40
3.635691
100
AcDbArc
 50
270.0
 51
90.0
  0
ARC
  5
AE7F
330
1E
100
AcDbEntity
  8
002
100
AcDbCircle
 10
8295.154725511807
 20
-2382.692893347202
 30
0.0
 40
4.135691
100
AcDbArc
 50
270.0
 51
90.0
  0
LINE
  5
AE80
330
1E
100
AcDbEntity
  8
004
  6
CENTER
 62
     6
100
AcDbLine
 10
8536.066277222927
 20
-2324.857625347203
 30
0.0
 11
8536.066277222927
 21
-2442.709086347204
 31
0.0
  0
LINE
  5
AE81
330
1E
100
AcDbEntity
  8
004
  6
CENTER
 62
     6
100
AcDbLine
 10
8536.066277222927
 20
-2308.401154347202
 30
0.0
 11
8536.066277222927
 21
-2455.073098347204
 31
0.0
  0
LINE
  5
AE82
330
1E
100
AcDbEntity
  8
004
  6
CENTER
 62
     6
100
AcDbLine
 10
8704.648495222929
 20
-2382.692893347202
 30
0.0
 11
8770.322703222928
 21
-2382.692893347202
 31
0.0
  0
DIMENSION
  5
AE83
330
1E
100
AcDbEntity
  8
001
100
AcDbDimension
  2
*D5
 10
8748.68136022293
 20
-2289.610848504256
 30
0.0
 11
8788.056360222929
 21
-2276.485848504257
 31
0.0
 70
    32
 71
     5
 42
22.0
  3
ISO-25
100
AcDbAlignedDimension
 13
8726.681360222929
 23
-2325.192893347202
 33
0.0
 14
8748.68136022293
 24
-2319.192893347203
 34
0.0
100
AcDbRotatedDimension
  0
DIMENSION
  5
AE84
330
1E
100
AcDbEntity
  8
001
100
AcDbDimension
  2
*D6
 10
8678.731040310918
 20
-2447.692893347202
 30
0.0
 11
8665.606040310917
 21
-2382.692893347201
 31
0.0
 70
    32
  1
M130
 71
     5
 42
130.0
  3
ISO-25
100
AcDbAlignedDimension
 13
8729.41341022293
 23
-2317.692893347202
 33
0.0
 14
8729.41341022293
 24
-2447.692893347202
 34
0.0
 50
90.0
100
AcDbRotatedDimension
  0
LINE
  5
AE85
330
1E
100
AcDbEntity
  8
002
100
AcDbLine
 10
8747.815334222929
 20
-2342.192893347202
 30
0.0
 11
8747.815334222929
 21
-2360.589539347203
 31
0.0
  0
LINE
  5
AE86
330
1E
100
AcDbEntity
  8
002
100
AcDbLine
 10
8727.547385222928
 20
-2342.192893347202
 30
0.0
 11
8727.547385222928
 21
-2360.589539347203
 31
0.0
  0
LINE
  5
AE87
330
1E
100
AcDbEntity
  8
002
100
AcDbLine
 10
8726.681360222929
 20
-2382.692893347202
 30
0.0
 11
8726.681360222929
 21
-2325.192893347202
 31
0.0
  0
INSERT
  5
AE88
330
1E
100
AcDbEntity
  8
001
100
AcDbBlockReference
  2
_Open
 10
8792.825237107894
 20
-2341.876719001289
 30
0.0
 41
11.25
 42
11.25
 43
11.25
 50
90.0
  0
LINE
  5
AE89
330
1E
100
AcDbEntity
  8
002
100
AcDbLine
 10
8724.681360222929
 20
-2444.192893347203
 30
0.0
 11
8724.681360222929
 21
-2321.192893347202
 31
0.0
  0
LINE
  5
AE8A
330
1E
100
AcDbEntity
  8
002
100
AcDbLine
 10
8748.68136022293
 20
-2446.192893347202
 30
0.0
 11
8748.68136022293
 21
-2319.192893347203
 31
0.0
  0
LINE
  5
AE8B
330
1E
100
AcDbEntity
  8
002
100
AcDbLine
 10
8748.68136022293
 20
-2446.202210347202
 30
0.0
 11
8747.815334222929
 21
-2447.702210347202
 31
0.0
  0
LINE
  5
AE8C
330
1E
100
AcDbEntity
  8
002
100
AcDbLine
 10
8727.681360222929
 20
-2445.192893347202
 30
0.0
 11
8729.41341022293
 21
-2447.692893347202
 31
0.0
  0
LINE
  5
AE8D
330
1E
100
AcDbEntity
  8
002
100
AcDbLine
 10
8725.681360222928
 20
-2445.192893347202
 30
0.0
 11
8727.681360222929
 21
-2445.192893347202
 31
0.0
  0
LINE
  5
AE8E
330
1E
100
AcDbEntity
  8
002
100
AcDbLine
 10
8725.681360222928
 20
-2445.192893347202
 30
0.0
 11
8724.681360222929
 21
-2444.192893347203
 31
0.0
  0
LINE
  5
AE8F
330
1E
100
AcDbEntity
  8
002
100
AcDbLine
 10
8728.374180222928
 20
-2446.192893347202
 30
0.0
 11
8748.68136022293
 21
-2446.192893347202
 31
0.0
  0
LINE
  5
AE90
330
1E
100
AcDbEntity
  8
002
100
AcDbLine
 10
8729.41341022293
 20
-2447.692893347202
 30
0.0
 11
8747.820713222928
 21
-2447.692893347202
 31
0.0
  0
LINE
  5
AE91
330
1E
100
AcDbEntity
  8
002
100
AcDbLine
 10
8747.820713222928
 20
-2447.692893347202
 30
0.0
 11
8747.820713222928
 21
-2413.665485347202
 31
0.0
  0
LINE
  5
AE92
330
1E
100
AcDbEntity
  8
002
100
AcDbLine
 10
8729.41341022293
 20
-2447.692893347202
 30
0.0
 11
8729.41341022293
 21
-2413.665485347202
 31
0.0
  0
LINE
  5
AE93
330
1E
100
AcDbEntity
  8
002
100
AcDbLine
 10
8727.681360222929
 20
-2445.192893347202
 30
0.0
 11
8727.681360222929
 21
-2382.692893347202
 31
0.0
  0
LINE
  5
AE94
330
1E
100
AcDbEntity
  8
002
100
AcDbLine
 10
8725.681360222928
 20
-2445.192893347202
 30
0.0
 11
8725.681360222928
 21
-2382.692893347202
 31
0.0
  0
MTEXT
  5
AE95
330
1E
100
AcDbEntity
  8
001
100
AcDbMText
 10
8779.700237107894
 20
-2376.287493332272
 30
0.0
 40
11.25
 41
0.0
 71
     5
 72
     1
  1
M84
 11
0.0000000000000001
 21
1.0
 31
0.0
 73
     1
 44
1.0
  0
LINE
  5
AE96
330
1E
100
AcDbEntity
  8
001
100
AcDbLine
 10
8792.825237107894
 20
-2353.126719001289
 30
0.0
 11
8792.825237107894
 21
-2397.861548705519
 31
0.0
  0
LINE
  5
AE97
330
1E
100
AcDbEntity
  8
002
100
AcDbLine
 10
8736.074577222929
 20
-2340.692893347202
 30
0.0
 11
8748.68136022293
 21
-2328.086110347203
 31
0.0
  0
LINE
  5
AE98
330
1E
100
AcDbEntity
  8
002
100
AcDbLine
 10
8745.97407122293
 20
-2340.692893347202
 30
0.0
 11
8748.68136022293
 21
-2337.985605347203
 31
0.0
  0
LINE
  5
AE99
330
1E
100
AcDbEntity
  8
002
100
AcDbLine
 10
8748.68136022293
 20
-2340.692893347202
 30
0.0
 11
8747.815334222929
 21
-2342.192893347202
 31
0.0
  0
LINE
  5
AE9A
330
1E
100
AcDbEntity
  8
002
100
AcDbLine
 10
8748.68136022293
 20
-2319.192893347203
 30
0.0
 11
8747.815334222929
 21
-2317.692893347202
 31
0.0
  0
LINE
  5
AE9B
330
1E
100
AcDbEntity
  8
002
100
AcDbLine
 10
8726.681360222929
 20
-2340.692893347202
 30
0.0
 11
8727.547385222928
 21
-2342.192893347202
 31
0.0
  0
LINE
  5
AE9C
330
1E
100
AcDbEntity
  8
002
100
AcDbLine
 10
8724.681360222929
 20
-2322.387625347202
 30
0.0
 11
8726.876092222928
 21
-2320.192893347202
 31
0.0
  0
LINE
  5
AE9D
330
1E
100
AcDbEntity
  8
002
100
AcDbLine
 10
8727.681360222929
 20
-2320.192893347202
 30
0.0
 11
8729.41341022293
 21
-2317.692893347202
 31
0.0
  0
LINE
  5
AE9E
330
1E
100
AcDbEntity
  8
002
100
AcDbLine
 10
8725.681360222928
 20
-2320.192893347202
 30
0.0
 11
8727.681360222929
 21
-2320.192893347202
 31
0.0
  0
LINE
  5
AE9F
330
1E
100
AcDbEntity
  8
002
100
AcDbLine
 10
8725.681360222928
 20
-2320.192893347202
 30
0.0
 11
8724.681360222929
 21
-2321.192893347202
 31
0.0
  0
LINE
  5
AEA0
330
1E
100
AcDbEntity
  8
002
100
AcDbLine
 10
8726.681360222929
 20
-2325.192893347202
 30
0.0
 11
8724.681360222929
 21
-2323.889884347203
 31
0.0
  0
LINE
  5
AEA1
330
1E
100
AcDbEntity
  8
002
100
AcDbLine
 10
8726.681360222929
 20
-2340.186615347203
 30
0.0
 11
8747.675082222928
 21
-2319.192893347203
 31
0.0
  0
LINE
  5
AEA2
330
1E
100
AcDbEntity
  8
002
100
AcDbLine
 10
8727.547385222928
 20
-2342.192893347202
 30
0.0
 11
8747.815334222929
 21
-2342.192893347202
 31
0.0
  0
LINE
  5
AEA3
330
1E
100
AcDbEntity
  8
002
100
AcDbLine
 10
8726.681360222929
 20
-2340.692893347202
 30
0.0
 11
8748.68136022293
 21
-2340.692893347202
 31
0.0
  0
LINE
  5
AEA4
330
1E
100
AcDbEntity
  8
002
100
AcDbLine
 10
8726.681360222929
 20
-2330.287120347203
 30
0.0
 11
8737.775587222929
 21
-2319.192893347203
 31
0.0
  0
LINE
  5
AEA5
330
1E
100
AcDbEntity
  8
002
100
AcDbLine
 10
8729.41341022293
 20
-2317.692893347202
 30
0.0
 11
8747.815334222929
 21
-2317.692893347202
 31
0.0
  0
LINE
  5
AEA6
330
1E
100
AcDbEntity
  8
002
100
AcDbLine
 10
8728.374180222928
 20
-2319.192893347203
 30
0.0
 11
8748.68136022293
 21
-2319.192893347203
 31
0.0
  0
LINE
  5
AEA7
330
1E
100
AcDbEntity
  8
001
100
AcDbLine
 10
8758.922385222929
 20
-2341.876719001289
 30
0.0
 11
8792.825237107894
 21
-2341.876719001289
 31
0.0
  0
LINE
  5
AEA8
330
1E
100
AcDbEntity
  8
003
100
AcDbLine
 10
8508.790727588097
 20
-1759.124833233727
 30
0.0
 11
8508.790727588097
 21
-1532.104299569189
 31
0.0
  0
DIMENSION
  5
AEA9
330
1E
100
AcDbEntity
  8
001
  6
Continuous
100
AcDbDimension
  2
*D7
 10
8344.639164471812
 20
-1738.066048984021
 30
0.0
 11
8341.264212485208
 21
-1681.622490236471
 31
0.0
 70
    33
 71
     5
 42
110.0000000000015
  3
ISO-25
100
AcDbAlignedDimension
 13
8253.81869837569
 23
-1610.355023103322
 33
0.0
 14
8234.717398832327
 24
-1718.683875934666
 34
0.0
  0
LINE
  5
AEAA
330
1E
100
AcDbEntity
  8
003
100
AcDbLine
 10
8244.527476779991
 20
-1720.413657359693
 30
0.0
 11
8326.525834693015
 21
-1623.175252926115
 31
0.0
  0
LINE
  5
AEAB
330
1E
100
AcDbEntity
  8
003
100
AcDbLine
 10
8248.625622691568
 20
-1743.475656516269
 30
0.0
 11
8347.02365274505
 21
-1626.789571294342
 31
0.0
  0
LINE
  5
AEAC
330
1E
100
AcDbEntity
  8
002
100
AcDbLine
 10
8230.599137955683
 20
-1696.474507885976
 30
0.0
 11
8226.92529379065
 21
-1717.309917579305
 31
0.0
  0
LINE
  5
AEAD
330
1E
100
AcDbEntity
  8
003
100
AcDbLine
 10
8508.790727588097
 20
-1805.726870233727
 30
0.0
 11
8508.790727588097
 21
-1944.763645604814
 31
0.0
  0
LINE
  5
AEAE
330
1E
100
AcDbEntity
  8
003
100
AcDbLine
 10
8508.790727588097
 20
-1759.124833233727
 30
0.0
 11
8528.514610588098
 21
-1759.124833233727
 31
0.0
  0
LINE
  5
AEAF
330
1E
100
AcDbEntity
  8
003
100
AcDbLine
 10
8528.514610588098
 20
-1759.124833233727
 30
0.0
 11
8490.390329588098
 21
-1805.726870233727
 31
0.0
  0
LINE
  5
AEB0
330
1E
100
AcDbEntity
  8
003
100
AcDbLine
 10
8490.390329588098
 20
-1805.726870233727
 30
0.0
 11
8508.790727588097
 21
-1805.726870233727
 31
0.0
  0
LINE
  5
AEB1
330
1E
100
AcDbEntity
  8
003
100
AcDbLine
 10
8435.26405137992
 20
-1551.066925505305
 30
0.0
 11
8229.257648184033
 21
-1551.066925505305
 31
0.0
  0
LINE
  5
AEB2
330
1E
100
AcDbEntity
  8
003
  6
Continuous
100
AcDbLine
 10
8337.923225237737
 20
-1625.184920388821
 30
0.0
 11
8372.484029476987
 21
-1551.066925505305
 31
0.0
  0
LINE
  5
AEB3
330
1E
100
AcDbEntity
  8
003
 48
0.25
100
AcDbLine
 10
8508.790727588097
 20
-1566.360474156606
 30
0.0
 11
8435.26405137992
 21
-1551.066925505305
 31
0.0
  0
LINE
  5
AEB4
330
1E
100
AcDbEntity
  8
003
 62
     3
100
AcDbLine
 10
8763.624817465174
 20
-1760.665743078989
 30
0.0
 11
8763.624817465174
 21
-1532.074612134081
 31
0.0
  0
LINE
  5
AEB5
330
1E
100
AcDbEntity
  8
003
 62
     3
100
AcDbLine
 10
8763.624817465174
 20
-1807.267780078987
 30
0.0
 11
8763.624817465174
 21
-1944.763645604813
 31
0.0
  0
LINE
  5
AEB6
330
1E
100
AcDbEntity
  8
003
 62
     3
100
AcDbLine
 10
8745.224419465174
 20
-1807.267780078987
 30
0.0
 11
8763.624817465174
 21
-1807.267780078987
 31
0.0
  0
LINE
  5
AEB7
330
1E
100
AcDbEntity
  8
003
 62
     3
100
AcDbLine
 10
8783.348700465174
 20
-1760.665743078989
 30
0.0
 11
8745.224419465174
 21
-1807.267780078987
 31
0.0
  0
LINE
  5
AEB8
330
1E
100
AcDbEntity
  8
003
 62
     3
100
AcDbLine
 10
8763.624817465174
 20
-1760.665743078989
 30
0.0
 11
8783.348700465174
 21
-1760.665743078989
 31
0.0
  0
LINE
  5
AEB9
330
1E
100
AcDbEntity
  8
003
 48
0.25
100
AcDbLine
 10
8765.351985925979
 20
-1566.330786721497
 30
0.0
 11
8838.735934080752
 21
-1551.066925505305
 31
0.0
  0
TEXT
  5
AEBA
330
1E
100
AcDbEntity
  8
001
100
AcDbText
 10
8799.599479619947
 20
-1629.072023505305
 30
0.0
 40
12.8
  1
テーパーコーン
 41
0.716146
100
AcDbText
  0
TEXT
  5
AEBB
330
1E
100
AcDbEntity
  8
001
100
AcDbText
 10
9310.598913722904
 20
-2565.197732249147
 30
0.0
 40
22.0
  1
ＰＵＣ受圧板　アンカー頭部図面
 41
0.681818
100
AcDbText
  0
LINE
  5
AEBC
330
1E
100
AcDbEntity
  8
001
 62
     3
100
AcDbLine
 10
9625.519555722906
 20
-2579.678823249147
 30
0.0
 11
9240.519555722904
 21
-2579.678823249147
 31
0.0
  0
LINE
  5
AEBD
330
1E
100
AcDbEntity
  8
001
 62
     3
100
AcDbLine
 10
9625.519555722906
 20
-2579.678823249147
 30
0.0
 11
9240.519555722904
 21
-2579.678823249147
 31
0.0
  0
LINE
  5
AEBE
330
1E
100
AcDbEntity
  8
001
 62
     3
100
AcDbLine
 10
9625.519555722906
 20
-2509.678823249147
 30
0.0
 11
9240.519555722904
 21
-2509.678823249147
 31
0.0
  0
LINE
  5
AEBF
330
1E
100
AcDbEntity
  8
004
  6
CENTER
 62
     6
100
AcDbLine
 10
9246.023831405022
 20
-2382.692893347202
 30
0.0
 11
9005.657086405021
 21
-2382.692893347202
 31
0.0
  0
CIRCLE
  5
AEC0
330
1E
100
AcDbEntity
  8
002
100
AcDbCircle
 10
9127.508305405021
 20
-2382.692893347202
 30
0.0
 40
102.4999999999999
  0
TEXT
  5
AEC1
330
1E
100
AcDbEntity
  8
001
100
AcDbText
 10
8954.836771405021
 20
-2239.416327347204
 30
0.0
 40
17.0
  1
メッキ付　円形プレート
 41
0.6862750000000001
100
AcDbText
  0
LINE
  5
AEC2
330
1E
100
AcDbEntity
  8
001
100
AcDbLine
 10
8954.836771405021
 20
-2239.416327347204
 30
0.0
 11
9109.836771405023
 21
-2239.416327347204
 31
0.0
  0
LINE
  5
AEC3
330
1E
100
AcDbEntity
  8
004
  6
CENTER
 62
     6
100
AcDbLine
 10
9127.508305405021
 20
-2268.207767347203
 30
0.0
 11
9127.508305405021
 21
-2500.550035347203
 31
0.0
  0
CIRCLE
  5
AEC4
330
1E
100
AcDbEntity
  8
002
100
AcDbCircle
 10
9127.508305405021
 20
-2382.692893347202
 30
0.0
 40
51.5
  0
LINE
  5
AEC5
330
1E
100
AcDbEntity
  8
001
 62
     3
100
AcDbLine
 10
9240.519555722904
 20
-2632.178823249147
 30
0.0
 11
9240.519555722904
 21
-2509.678823249147
 31
0.0
  0
LINE
  5
AEC6
330
1E
100
AcDbEntity
  8
001
 62
     3
100
AcDbLine
 10
9275.519555722906
 20
-2632.178823249147
 30
0.0
 11
9275.519555722906
 21
-2509.678823249147
 31
0.0
  0
TEXT
  5
AEC7
330
1E
100
AcDbEntity
  8
001
100
AcDbText
 10
9360.569072722904
 20
-2618.248668249147
 30
0.0
 40
21.0
  1
ＶＳＬ協会
 41
0.9920629999999999
100
AcDbText
  0
LINE
  5
AEC8
330
1E
100
AcDbEntity
  8
002
100
AcDbLine
 10
9370.722590405021
 20
-2280.192893347202
 30
0.0
 11
9395.722590405021
 21
-2280.192893347202
 31
0.0
  0
LINE
  5
AEC9
330
1E
100
AcDbEntity
  8
002
100
AcDbLine
 10
9370.722590405021
 20
-2331.192893347203
 30
0.0
 11
9395.722590405021
 21
-2331.192893347203
 31
0.0
  0
LINE
  5
AECA
330
1E
100
AcDbEntity
  8
002
100
AcDbLine
 10
9370.722590405021
 20
-2321.363675347203
 30
0.0
 11
9395.722590405021
 21
-2296.363675347203
 31
0.0
  0
LINE
  5
AECB
330
1E
100
AcDbEntity
  8
002
100
AcDbLine
 10
9370.79286840502
 20
-2331.192893347203
 30
0.0
 11
9395.722590405021
 21
-2306.263170347203
 31
0.0
  0
LINE
  5
AECC
330
1E
100
AcDbEntity
  8
004
  6
CENTER
 62
     6
100
AcDbLine
 10
9352.11544640502
 20
-2382.692893347202
 30
0.0
 11
9413.826761405022
 21
-2382.692893347202
 31
0.0
  0
LINE
  5
AECD
330
1E
100
AcDbEntity
  8
002
100
AcDbLine
 10
9370.722590405021
 20
-2301.564685347202
 30
0.0
 11
9392.094383405021
 21
-2280.192893347202
 31
0.0
  0
LINE
  5
AECE
330
1E
100
AcDbEntity
  8
002
100
AcDbLine
 10
9370.722590405021
 20
-2311.464180347204
 30
0.0
 11
9395.722590405021
 21
-2286.464180347203
 31
0.0
  0
LINE
  5
AECF
330
1E
100
AcDbEntity
  8
002
100
AcDbLine
 10
9370.722590405021
 20
-2291.665191347203
 30
0.0
 11
9382.194888405022
 21
-2280.192893347202
 31
0.0
  0
DIMENSION
  5
AED0
330
1E
100
AcDbEntity
  8
001
100
AcDbDimension
  2
*D8
 10
9395.722590405021
 20
-2252.830587622356
 30
0.0
 11
9435.097590405021
 21
-2239.705587622356
 31
0.0
 70
    32
 71
     5
 42
25.0
  3
ISO-25
100
AcDbAlignedDimension
 13
9370.722590405021
 23
-2280.192893347202
 33
0.0
 14
9395.722590405021
 24
-2280.192893347202
 34
0.0
100
AcDbRotatedDimension
  0
LINE
  5
AED1
330
1E
100
AcDbEntity
  8
002
100
AcDbLine
 10
9370.722590405021
 20
-2485.192893347202
 30
0.0
 11
9395.722590405021
 21
-2485.192893347202
 31
0.0
  0
TEXT
  5
AED2
330
1E
100
AcDbEntity
  8
001
100
AcDbText
 10
9282.086869722906
 20
-2532.874190249147
 30
0.0
 40
16.0
  1
ＶＳＬ工法　Ｅ５－７用
 41
0.729167
100
AcDbText
  0
DIMENSION
  5
AED3
330
1E
100
AcDbEntity
  8
001
100
AcDbDimension
  2
*D9
 10
9314.560846010328
 20
-2485.192893347202
 30
0.0
 11
9301.435846010326
 21
-2382.6928933472
 31
0.0
 70
    32
  1
φ205
 71
     5
 42
205.0
  3
ISO-25
100
AcDbAlignedDimension
 13
9370.722590405021
 23
-2280.192893347202
 33
0.0
 14
9370.722590405021
 24
-2485.192893347202
 34
0.0
 50
90.0
100
AcDbRotatedDimension
  0
LINE
  5
AED4
330
1E
100
AcDbEntity
  8
002
100
AcDbLine
 10
9370.722590405021
 20
-2485.192893347202
 30
0.0
 11
9370.722590405021
 21
-2280.192893347202
 31
0.0
  0
LINE
  5
AED5
330
1E
100
AcDbEntity
  8
002
100
AcDbLine
 10
9370.722590405021
 20
-2281.765696347203
 30
0.0
 11
9372.295393405023
 21
-2280.192893347202
 31
0.0
  0
LINE
  5
AED6
330
1E
100
AcDbEntity
  8
001
100
AcDbLine
 10
9434.946888595337
 20
-2342.442893347202
 30
0.0
 11
9434.946888595337
 21
-2412.375105982748
 31
0.0
  0
LINE
  5
AED7
330
1E
100
AcDbEntity
  8
002
100
AcDbLine
 10
9395.722590405021
 20
-2280.192893347202
 30
0.0
 11
9395.722590405021
 21
-2485.192893347202
 31
0.0
  0
MTEXT
  5
AED8
330
1E
100
AcDbEntity
  8
001
100
AcDbMText
 10
9421.821888595337
 20
-2390.801050609501
 30
0.0
 40
11.25
 41
0.0
 71
     5
 72
     1
  1
φ103
 11
0.0000000000000001
 21
1.0
 31
0.0
 73
     1
 44
1.0
  0
LINE
  5
AED9
330
1E
100
AcDbEntity
  8
001
100
AcDbLine
 10
9401.044036710372
 20
-2331.192893347203
 30
0.0
 11
9434.946888595337
 21
-2331.192893347203
 31
0.0
  0
LINE
  5
AEDA
330
1E
100
AcDbEntity
  8
002
100
AcDbLine
 10
9380.692363405023
 20
-2331.192893347203
 30
0.0
 11
9395.722590405021
 21
-2316.162665347202
 31
0.0
  0
LINE
  5
AEDB
330
1E
100
AcDbEntity
  8
002
100
AcDbLine
 10
9390.591858405022
 20
-2331.192893347203
 30
0.0
 11
9395.722590405021
 21
-2326.062160347202
 31
0.0
  0
INSERT
  5
AEDC
330
1E
100
AcDbEntity
  8
001
100
AcDbBlockReference
  2
_Open
 10
9434.946888595337
 20
-2331.192893347203
 30
0.0
 41
11.25
 42
11.25
 43
11.25
 50
90.0
  0
LINE
  5
AEDD
330
1E
100
AcDbEntity
  8
003
100
AcDbLine
 10
9181.506015066224
 20
-1701.066925505305
 30
0.0
 11
9239.841036619948
 21
-1701.066925505305
 31
0.0
  0
LWPOLYLINE
  5
AEDE
330
1E
100
AcDbEntity
  8
002
100
AcDbPolyline
 90
        4
 70
     1
 43
0.0
 10
9180.563051647753
 20
-1679.910096157839
 10
9223.694480042238
 20
-1679.910096157839
 10
9223.694480042238
 20
-1701.066925505305
 10
9180.563051647753
 20
-1701.066925505305
  0
LINE
  5
AEDF
330
1E
100
AcDbEntity
  8
003
 62
     3
100
AcDbLine
 10
9180.563050940646
 20
-1701.066925505305
 30
0.0
 11
9223.694480042238
 21
-1701.066925505305
 31
0.0
  0
LINE
  5
AEE0
330
1E
100
AcDbEntity
  8
002
100
AcDbLine
 10
9171.260193614118
 20
-1679.910096157839
 30
0.0
 11
9223.694479335129
 21
-1679.910096157839
 31
0.0
  0
LINE
  5
AEE1
330
1E
100
AcDbEntity
  8
003
100
AcDbLine
 10
9181.506015066224
 20
-1723.066925505305
 30
0.0
 11
9247.881596619947
 21
-1723.066925505305
 31
0.0
  0
LINE
  5
AEE2
330
1E
100
AcDbEntity
  8
001
100
AcDbLine
 10
9167.750480419407
 20
-1520.450004059823
 30
0.0
 11
9238.624511619947
 21
-1483.036564505304
 31
0.0
  0
LINE
  5
AEE3
330
1E
100
AcDbEntity
  8
001
100
AcDbLine
 10
9191.980194312478
 20
-1667.865707451523
 30
0.0
 11
9311.766212831841
 21
-1536.74155258668
 31
0.0
  0
LINE
  5
AEE4
330
1E
100
AcDbEntity
  8
003
100
AcDbLine
 10
9195.338904815635
 20
-1576.066925505305
 30
0.0
 11
9334.958765619948
 21
-1576.066925505305
 31
0.0
  0
LINE
  5
AEE5
330
1E
100
AcDbEntity
  8
003
  6
Continuous
100
AcDbLine
 10
9386.991314881873
 20
-1551.066925505305
 30
0.0
 11
9194.456099179195
 21
-1551.066925505305
 31
0.0
  0
LWPOLYLINE
  5
AEE6
330
1E
100
AcDbEntity
  8
003
100
AcDbPolyline
 90
       64
 70
     0
 43
0.0
 10
9508.665545313917
 20
-1901.180485505305
 10
9202.130194266469
 20
-1901.180485505305
 10
9204.013107619948
 20
-1903.375678046235
 10
9205.062917619947
 20
-1905.738270046236
 10
9204.616944619948
 20
-1907.901417046236
 10
9203.20965061995
 20
-1910.097946046237
 10
9201.423105619948
 20
-1912.319472046236
 10
9199.839382619948
 20
-1914.557610046236
 10
9199.040549619947
 20
-1916.803973046235
 10
9199.38210561995
 20
-1918.945522046234
 10
9200.507899619948
 20
-1921.096725046236
 10
9201.963061619947
 20
-1923.267379046236
 10
9203.292719619946
 20
-1925.467283046235
 10
9204.041999619947
 20
-1927.706236046235
 10
9203.710128619949
 20
-1930.612154046235
 10
9202.385450619948
 20
-1933.554155046236
 10
9200.746313619948
 20
-1936.489472046236
 10
9199.471063619949
 20
-1939.375336046236
 10
9199.238048619948
 20
-1942.168980046235
 10
9200.135358619947
 20
-1944.337130046236
 10
9201.682095619949
 20
-1946.448953046236
 10
9203.406024619948
 20
-1948.536118046235
 10
9204.834907619948
 20
-1950.630298046235
 10
9205.49651061995
 20
-1952.763166046235
 10
9204.922555619948
 20
-1955.299572046237
 10
9203.370838619949
 20
-1957.893900046236
 10
9201.513877619948
 20
-1960.510399046235
 10
9200.02418761995
 20
-1963.113315046235
 10
9199.574286619947
 20
-1965.666898046236
 10
9200.367728619948
 20
-1967.794451046236
 10
9201.900188619948
 20
-1969.881874046235
 10
9203.655459619948
 20
-1971.951410046236
 10
9205.11732961995
 20
-1974.025302046235
 10
9205.769590619949
 20
-1976.125794046236
 10
9205.152210619948
 20
-1978.492810046236
 10
9203.564093619947
 20
-1980.889487046235
 10
9201.651001619948
 20
-1983.285933046236
 10
9200.058691619949
 20
-1985.652257046236
 10
9199.432924619948
 20
-1987.958568046235
 10
9200.044982619948
 20
-1989.921766046236
 10
9201.454146619948
 20
-1991.850280046235
 10
9203.211767619949
 20
-1993.778891046236
 10
9204.869195619947
 20
-1995.742379046236
 10
9205.977782619948
 20
-1997.775527046236
 10
9205.835600619948
 20
-2001.589862046235
 10
9203.810715619948
 20
-2005.591442046235
 10
9201.134603619948
 20
-2009.641449046235
 10
9199.038743619947
 20
-2013.601065046235
 10
9198.754615619948
 20
-2017.331472046236
 10
9199.922523619948
 20
-2019.512615046236
 10
9201.793999619948
 20
-2021.600115046236
 10
9203.868534619948
 20
-2023.645941046236
 10
9205.645617619948
 20
-2025.702062046235
 10
9206.624741619947
 20
-2027.820449046235
 10
9206.225397619949
 20
-2030.678194046235
 10
9204.508088619949
 20
-2033.674977046235
 10
9202.280247619949
 20
-2036.762852046237
 10
9200.349304619948
 20
-2039.893872046235
 10
9199.522692619948
 20
-2043.020092046235
 10
9200.112952619948
 20
-2045.617889046236
 10
9201.56385561995
 20
-2048.185201046235
 10
9203.382195619949
 20
-2050.728899046236
 10
9205.074764619947
 20
-2053.255850046236
 10
9206.148357619948
 20
-2055.772926046236
  0
LINE
  5
AEE7
330
1E
100
AcDbEntity
  8
001
100
AcDbLine
 10
9165.112423395774
 20
-1937.887985956636
 30
0.0
 11
9230.791500395772
 21
-1989.959960956637
 31
0.0
  0
LINE
  5
AEE8
330
1E
100
AcDbEntity
  8
002
100
AcDbLine
 10
9168.173337345626
 20
-1645.553657149808
 30
0.0
 11
9168.173336638517
 21
-1612.252953314828
 31
0.0
  0
LINE
  5
AEE9
330
1E
100
AcDbEntity
  8
002
100
AcDbLine
 10
9173.627753994731
 20
-1612.727343476151
 30
0.0
 11
9168.723051349706
 21
-1652.672941865976
 31
0.0
  0
LINE
  5
AEEA
330
1E
100
AcDbEntity
  8
002
100
AcDbLine
 10
9148.256325693767
 20
-1612.727343476151
 30
0.0
 11
9143.351623048744
 21
-1652.672941865976
 31
0.0
  0
LINE
  5
AEEB
330
1E
100
AcDbEntity
  8
002
100
AcDbLine
 10
9117.430479329483
 20
-1645.553657149808
 30
0.0
 11
9117.43048003659
 21
-1612.252953314828
 31
0.0
  0
LINE
  5
AEEC
330
1E
100
AcDbEntity
  8
002
100
AcDbLine
 10
9122.884896685697
 20
-1612.727344183258
 30
0.0
 11
9117.980194747779
 21
-1652.672941865976
 31
0.0
  0
LINE
  5
AEED
330
1E
100
AcDbEntity
  8
002
100
AcDbLine
 10
9131.215622195238
 20
-1645.553657149808
 30
0.0
 11
9131.215622902344
 21
-1612.252953314828
 31
0.0
  0
LINE
  5
AEEE
330
1E
100
AcDbEntity
  8
002
100
AcDbLine
 10
9125.761205546131
 20
-1612.727343476151
 30
0.0
 11
9130.665908191154
 21
-1652.672941865976
 31
0.0
  0
LINE
  5
AEEF
330
1E
100
AcDbEntity
  8
002
100
AcDbLine
 10
9142.801909044662
 20
-1645.553657149808
 30
0.0
 11
9142.801908337554
 21
-1612.252953314828
 31
0.0
  0
LINE
  5
AEF0
330
1E
100
AcDbEntity
  8
002
100
AcDbLine
 10
9156.587051910415
 20
-1645.553657149808
 30
0.0
 11
9156.587051203308
 21
-1612.252953314828
 31
0.0
  0
LINE
  5
AEF1
330
1E
100
AcDbEntity
  8
002
100
AcDbLine
 10
9151.132634554201
 20
-1612.727344183258
 30
0.0
 11
9156.03733649212
 21
-1652.672941865976
 31
0.0
  0
LINE
  5
AEF2
330
1E
100
AcDbEntity
  8
002
100
AcDbLine
 10
9183.52305154549
 20
-1660.458667652345
 30
0.0
 11
9183.52305154549
 21
-1615.635810845888
 31
0.0
  0
LINE
  5
AEF3
330
1E
100
AcDbEntity
  8
002
100
AcDbLine
 10
9166.997761008193
 20
-1678.365137137411
 30
0.0
 11
9157.009908129525
 21
-1621.721207867223
 31
0.0
  0
LINE
  5
AEF4
330
1E
100
AcDbEntity
  8
002
100
AcDbLine
 10
9142.379051411337
 20
-1659.679674274462
 30
0.0
 11
9131.638479828563
 21
-1598.766867120041
 31
0.0
  0
LINE
  5
AEF5
330
1E
100
AcDbEntity
  8
002
100
AcDbLine
 10
9167.750479712301
 20
-1642.322622515737
 30
0.0
 11
9157.009908836633
 21
-1581.409814654209
 31
0.0
  0
LINE
  5
AEF6
330
1E
100
AcDbEntity
  8
002
100
AcDbLine
 10
9189.865908267178
 20
-1598.402758746524
 30
0.0
 11
9189.865908974285
 21
-1652.341437479033
 31
0.0
  0
LINE
  5
AEF7
330
1E
100
AcDbEntity
  8
002
100
AcDbLine
 10
9194.445635949277
 20
-1597.679706000315
 30
0.0
 11
9200.437337079465
 21
-1637.624382322899
 31
0.0
  0
LWPOLYLINE
  5
AEF8
330
1E
100
AcDbEntity
  8
001
100
AcDbPolyline
 90
        3
 70
     0
 43
0.0
 10
9084.091330599896
 20
-1630.783343943803
 10
9090.494479694408
 20
-1636.036407128553
 10
9087.575720876252
 20
-1628.285546158063
  0
LINE
  5
AEF9
330
1E
100
AcDbEntity
  8
002
100
AcDbLine
 10
9105.844193894272
 20
-1645.553657149808
 30
0.0
 11
9105.844194601381
 21
-1612.252953314828
 31
0.0
  0
LINE
  5
AEFA
330
1E
100
AcDbEntity
  8
002
100
AcDbLine
 10
9100.389777245165
 20
-1612.727343476151
 30
0.0
 11
9105.29447989019
 21
-1652.672941865976
 31
0.0
  0
LINE
  5
AEFB
330
1E
100
AcDbEntity
  8
002
100
AcDbLine
 10
9090.49447969441
 20
-1660.458667652345
 30
0.0
 11
9090.494479694408
 21
-1615.635810845886
 31
0.0
  0
LINE
  5
AEFC
330
1E
100
AcDbEntity
  8
001
100
AcDbLine
 10
9090.494479694408
 20
-1636.036407128554
 30
0.0
 11
9013.362939619948
 21
-1529.650506505304
 31
0.0
  0
LINE
  5
AEFD
330
1E
100
AcDbEntity
  8
003
100
AcDbLine
 10
9031.582090619947
 20
-1699.573267505304
 30
0.0
 11
8959.872795619947
 21
-1576.066925505305
 31
0.0
  0
LINE
  5
AEFE
330
1E
100
AcDbEntity
  8
002
100
AcDbLine
 10
9084.15162297272
 20
-1598.402758746524
 30
0.0
 11
9084.151622265613
 21
-1652.341437479033
 31
0.0
  0
LINE
  5
AEFF
330
1E
100
AcDbEntity
  8
002
100
AcDbLine
 10
9079.571895290621
 20
-1597.679706000315
 30
0.0
 11
9073.580194160433
 21
-1637.624382322897
 31
0.0
  0
LINE
  5
AF00
330
1E
100
AcDbEntity
  8
002
100
AcDbLine
 10
9117.007622403265
 20
-1636.725332820173
 30
0.0
 11
9106.267051527597
 21
-1575.812524958644
 31
0.0
  0
LINE
  5
AF01
330
1E
100
AcDbEntity
  8
002
100
AcDbLine
 10
9118.35237969495
 20
-1684.663219857713
 30
0.0
 11
9106.267051527597
 21
-1616.123918878765
 31
0.0
  0
LINE
  5
AF02
330
1E
100
AcDbEntity
  8
003
100
AcDbLine
 10
9023.541529619947
 20
-1721.573267505304
 30
0.0
 11
8939.058765619948
 21
-1576.066925505305
 31
0.0
  0
LINE
  5
AF03
330
1E
100
AcDbEntity
  8
002
100
AcDbLine
 10
9131.638479828563
 20
-1709.510095842297
 30
0.0
 11
9131.638479828563
 21
-1483.704381276711
 31
0.0
  0
LINE
  5
AF04
330
1E
100
AcDbEntity
  8
002
100
AcDbLine
 10
9106.267050820489
 20
-1666.069056501032
 30
0.0
 11
9106.267050820489
 21
-1483.704381983818
 31
0.0
  0
LINE
  5
AF05
330
1E
100
AcDbEntity
  8
002
100
AcDbLine
 10
9142.379051411337
 20
-1709.510095842297
 30
0.0
 11
9142.379050704231
 21
-1483.704381983818
 31
0.0
  0
LINE
  5
AF06
330
1E
100
AcDbEntity
  8
002
100
AcDbLine
 10
9167.750480419407
 20
-1666.069056501032
 30
0.0
 11
9167.750480419407
 21
-1483.704381983818
 31
0.0
  0
LINE
  5
AF07
330
1E
100
AcDbEntity
  8
002
100
AcDbLine
 10
9117.007622403265
 20
-1666.069056501032
 30
0.0
 11
9117.007622403265
 21
-1483.704381983818
 31
0.0
  0
LINE
  5
AF08
330
1E
100
AcDbEntity
  8
002
100
AcDbLine
 10
9157.009908836633
 20
-1666.069056501032
 30
0.0
 11
9157.009908836633
 21
-1483.704381983818
 31
0.0
  0
LINE
  5
AF09
330
1E
100
AcDbEntity
  8
004
  6
CENTER
 62
     6
100
AcDbLine
 10
9137.008765619949
 20
-2010.865700862403
 30
0.0
 11
9137.008765619949
 21
-1401.542390972345
 31
0.0
  0
LINE
  5
AF0A
330
1E
100
AcDbEntity
  8
003
100
AcDbLine
 10
9034.176494619947
 20
-1701.066925505305
 30
0.0
 11
9091.995823515222
 21
-1701.066925505305
 31
0.0
  0
LINE
  5
AF0B
330
1E
100
AcDbEntity
  8
003
100
AcDbLine
 10
9026.135933619947
 20
-1723.066925505305
 30
0.0
 11
9091.995823515222
 21
-1723.066925505305
 31
0.0
  0
LINE
  5
AF0C
330
1E
100
AcDbEntity
  8
001
100
AcDbLine
 10
9093.419774619949
 20
-1811.412101505304
 30
0.0
 11
9037.207826619948
 21
-1868.889758505305
 31
0.0
  0
LINE
  5
AF0D
330
1E
100
AcDbEntity
  8
001
100
AcDbLine
 10
9037.207826619948
 20
-1868.889758505305
 30
0.0
 11
8931.332826619948
 21
-1868.889758505305
 31
0.0
  0
TEXT
  5
AF0E
330
1E
100
AcDbEntity
  8
001
100
AcDbText
 10
8941.832826619949
 20
-1865.389706505304
 30
0.0
 40
11.19999999999999
  1
ジョイントコネクタ
 41
0.716146
100
AcDbText
  0
ARC
  5
AF0F
330
1E
100
AcDbEntity
  8
003
 62
     3
100
AcDbCircle
 10
9034.176494619947
 20
-1698.066925505305
 30
0.0
 40
3.0
100
AcDbArc
 50
210.1399749999846
 51
270.0
  0
ARC
  5
AF10
330
1E
100
AcDbEntity
  8
003
 62
     3
100
AcDbCircle
 10
9034.17649361995
 20
-1698.066925505305
 30
0.0
 40
3.0
100
AcDbArc
 50
210.1399749999846
 51
270.0
  0
ARC
  5
AF11
330
1E
100
AcDbEntity
  8
003
 62
     3
100
AcDbCircle
 10
9034.17649361995
 20
-1698.066925505305
 30
0.0
 40
3.0
100
AcDbArc
 50
210.1399749999846
 51
270.0
  0
LINE
  5
AF12
330
1E
100
AcDbEntity
  8
004
  6
CENTER
100
AcDbLine
 10
9007.265641619948
 20
-1704.112058505305
 30
0.0
 11
9031.878501619949
 21
-1689.821530505305
 31
0.0
  0
LINE
  5
AF13
330
1E
100
AcDbEntity
  8
003
 62
     3
100
AcDbLine
 10
9009.596395619949
 20
-1697.555286505305
 30
0.0
 11
9025.162819619948
 21
-1688.517230505305
 31
0.0
  0
LINE
  5
AF14
330
1E
100
AcDbEntity
  8
003
 62
     3
100
AcDbLine
 10
9014.115423619946
 20
-1705.338498505305
 30
0.0
 11
9029.681847619947
 21
-1696.300442505304
 31
0.0
  0
ARC
  5
AF15
330
1E
100
AcDbEntity
  8
003
 62
     3
100
AcDbCircle
 10
9026.135933619947
 20
-1720.066925505305
 30
0.0
 40
3.0
100
AcDbArc
 50
210.1399749999846
 51
270.0
  0
LINE
  5
AF16
330
1E
100
AcDbEntity
  8
002
100
AcDbLine
 10
9168.184660953619
 20
-1868.081524491089
 30
0.0
 11
9165.032869655195
 21
-1871.605334566589
 31
0.0
  0
LINE
  5
AF17
330
1E
100
AcDbEntity
  8
002
100
AcDbLine
 10
9108.984660877595
 20
-1868.081525198197
 30
0.0
 11
9105.832870286279
 21
-1871.605334566591
 31
0.0
  0
LINE
  5
AF18
330
1E
100
AcDbEntity
  8
003
100
AcDbLine
 10
9064.008765619949
 20
-1723.066925505305
 30
0.0
 11
9064.008765619949
 21
-1901.180485505305
 31
0.0
  0
LINE
  5
AF19
330
1E
100
AcDbEntity
  8
003
100
AcDbLine
 10
9054.508765619948
 20
-1723.066925505305
 30
0.0
 11
9054.508765619948
 21
-1901.180485505305
 31
0.0
  0
LINE
  5
AF1A
330
1E
100
AcDbEntity
  8
002
100
AcDbLine
 10
9105.29447989019
 20
-1873.014857889684
 30
0.0
 11
9168.723051349706
 21
-1866.672001167995
 31
0.0
  0
LINE
  5
AF1B
330
1E
100
AcDbEntity
  8
002
100
AcDbLine
 10
9164.494479966213
 20
-1936.443430056307
 30
0.0
 11
9109.523051273685
 21
-1942.786286777995
 31
0.0
  0
LINE
  5
AF1C
330
1E
100
AcDbEntity
  8
002
100
AcDbLine
 10
9105.29447989019
 20
-1936.443429349199
 30
0.0
 11
9168.723051349706
 21
-1930.100572627512
 31
0.0
  0
LINE
  5
AF1D
330
1E
100
AcDbEntity
  8
002
100
AcDbLine
 10
9164.494479966213
 20
-1923.757715198719
 30
0.0
 11
9109.523051273685
 21
-1930.100571920405
 31
0.0
  0
LINE
  5
AF1E
330
1E
100
AcDbEntity
  8
002
100
AcDbLine
 10
9105.29447989019
 20
-1923.757715905825
 30
0.0
 11
9168.723051349706
 21
-1917.414857769923
 31
0.0
  0
LINE
  5
AF1F
330
1E
100
AcDbEntity
  8
002
100
AcDbLine
 10
9164.494479966213
 20
-1911.072000341129
 30
0.0
 11
9109.523051273685
 21
-1917.414858477031
 31
0.0
  0
LINE
  5
AF20
330
1E
100
AcDbEntity
  8
002
100
AcDbLine
 10
9105.29447989019
 20
-1911.072001048236
 30
0.0
 11
9168.723051349706
 21
-1904.729144326549
 31
0.0
  0
LINE
  5
AF21
330
1E
100
AcDbEntity
  8
002
100
AcDbLine
 10
9105.29447989019
 20
-1885.700572747273
 30
0.0
 11
9168.723051349706
 21
-1879.357714611371
 31
0.0
  0
LINE
  5
AF22
330
1E
100
AcDbEntity
  8
002
100
AcDbLine
 10
9164.494479966213
 20
-1873.014858596791
 30
0.0
 11
9109.523051273683
 21
-1879.357715318477
 31
0.0
  0
LINE
  5
AF23
330
1E
100
AcDbEntity
  8
002
100
AcDbLine
 10
9164.494479966213
 20
-1898.386286897755
 30
0.0
 11
9109.523051273685
 21
-1904.729143619442
 31
0.0
  0
LINE
  5
AF24
330
1E
100
AcDbEntity
  8
002
100
AcDbLine
 10
9105.29447989019
 20
-1898.386286190647
 30
0.0
 11
9168.723051349706
 21
-1892.04342946896
 31
0.0
  0
LINE
  5
AF25
330
1E
100
AcDbEntity
  8
002
100
AcDbLine
 10
9164.494479966213
 20
-1885.700572040166
 30
0.0
 11
9109.523051273683
 21
-1892.043430176067
 31
0.0
  0
LINE
  5
AF26
330
1E
100
AcDbEntity
  8
002
100
AcDbLine
 10
9105.294479183084
 20
-1987.186286658236
 30
0.0
 11
9151.15275656983
 21
-1982.600458766192
 31
0.0
  0
LINE
  5
AF27
330
1E
100
AcDbEntity
  8
002
100
AcDbLine
 10
9161.055729187983
 20
-1974.897350797842
 30
0.0
 11
9109.523051273685
 21
-1980.843429936549
 31
0.0
  0
LINE
  5
AF28
330
1E
100
AcDbEntity
  8
002
100
AcDbLine
 10
9105.29447989019
 20
-1974.500572507753
 30
0.0
 11
9166.925483225424
 21
-1968.33747258647
 31
0.0
  0
LWPOLYLINE
  5
AF29
330
1E
100
AcDbEntity
  8
002
100
AcDbPolyline
 90
       27
 70
     0
 43
0.0
 10
9172.735412823127
 20
-1959.631598088273
 10
9172.67277094049
 20
-1959.741099937302
 10
9172.609988343602
 20
-1959.850490770566
 10
9169.659904204257
 20
-1964.593601131311
 10
9166.401086637648
 20
-1969.055457648521
 10
9162.821892423512
 20
-1973.193797964095
 10
9158.910679048695
 20
-1976.966359012829
 10
9154.655800464514
 20
-1980.330878436625
 10
9152.318440614525
 20
-1981.899451995117
 10
9149.89988439996
 20
-1983.353897812019
 10
9147.414027176175
 20
-1984.700607425526
 10
9144.87476783406
 20
-1985.945973080941
 10
9142.296004557401
 20
-1987.096386316456
 10
9138.19617327713
 20
-1988.728390888755
 10
9134.039149079079
 20
-1990.186527095947
 10
9129.830763472865
 20
-1991.514885167164
 10
9125.576845846801
 20
-1992.757556038634
 10
9121.283224882077
 20
-1993.958627111062
 10
9116.868062868272
 20
-1995.196776741773
 10
9112.48254559916
 20
-1996.5278783873
 10
9108.191727605719
 20
-1998.042281202391
 10
9104.060663418923
 20
-1999.830332927589
 10
9100.154408276855
 20
-2001.982382010539
 10
9098.260477917776
 20
-2003.249558374618
 10
9096.433952512615
 20
-2004.622388512623
 10
9094.666322031256
 20
-2006.087531440911
 10
9092.949073615166
 20
-2007.631646175843
  0
LINE
  5
AF2A
330
1E
100
AcDbEntity
  8
002
100
AcDbLine
 10
9164.494479966213
 20
-1961.814858357271
 30
0.0
 11
9109.523051273683
 21
-1968.15771507896
 31
0.0
  0
LINE
  5
AF2B
330
1E
100
AcDbEntity
  8
002
100
AcDbLine
 10
9105.29447989019
 20
-1961.814857650164
 30
0.0
 11
9168.723051349706
 21
-1955.472000928477
 31
0.0
  0
LINE
  5
AF2C
330
1E
100
AcDbEntity
  8
002
100
AcDbLine
 10
9164.494479966213
 20
-1949.129143499682
 30
0.0
 11
9109.523051980792
 21
-1955.472000928477
 31
0.0
  0
LINE
  5
AF2D
330
1E
100
AcDbEntity
  8
002
100
AcDbLine
 10
9131.473316583113
 20
-1990.996420633359
 30
0.0
 11
9109.523051273685
 21
-1993.529143379922
 31
0.0
  0
LINE
  5
AF2E
330
1E
100
AcDbEntity
  8
002
100
AcDbLine
 10
9105.29447989019
 20
-1949.129144206788
 30
0.0
 11
9168.723051349706
 21
-1942.786286070888
 31
0.0
  0
LINE
  5
AF2F
330
1E
100
AcDbEntity
  8
002
100
AcDbLine
 10
9105.832870286279
 20
-1988.595810688435
 30
0.0
 11
9108.984660877597
 21
-1992.11962005683
 31
0.0
  0
ARC
  5
AF30
330
1E
100
AcDbEntity
  8
002
100
AcDbCircle
 10
9107.40876593549
 20
-1993.529144087029
 30
0.0
 40
2.114285999999999
100
AcDbArc
 50
318.1896850000205
 51
41.81031499997946
  0
LINE
  5
AF31
330
1E
100
AcDbEntity
  8
002
100
AcDbLine
 10
9108.984661584702
 20
-1994.938667410124
 30
0.0
 11
9105.832870286278
 21
-1998.462477485624
 31
0.0
  0
ARC
  5
AF32
330
1E
100
AcDbEntity
  8
002
100
AcDbCircle
 10
9107.40876593549
 20
-1873.014857889684
 30
0.0
 40
2.114285999999999
100
AcDbArc
 50
138.1896850000205
 51
221.8103149999794
  0
LINE
  5
AF33
330
1E
100
AcDbEntity
  8
002
100
AcDbLine
 10
9108.984660877597
 20
-1880.767238641572
 30
0.0
 11
9105.832869579172
 21
-1884.291048717072
 31
0.0
  0
LINE
  5
AF34
330
1E
100
AcDbEntity
  8
002
100
AcDbLine
 10
9105.832869579172
 20
-1874.424381919883
 30
0.0
 11
9108.984661584702
 21
-1877.948191288278
 31
0.0
  0
ARC
  5
AF35
330
1E
100
AcDbEntity
  8
002
100
AcDbCircle
 10
9107.408765228383
 20
-1879.357715318477
 30
0.0
 40
2.114285999999999
100
AcDbArc
 50
318.1896850000205
 51
41.81031499997946
  0
LINE
  5
AF36
330
1E
100
AcDbEntity
  8
002
100
AcDbLine
 10
9108.984661584702
 20
-1906.138667649642
 30
0.0
 11
9105.832869579172
 21
-1909.662477018036
 31
0.0
  0
ARC
  5
AF37
330
1E
100
AcDbEntity
  8
002
100
AcDbCircle
 10
9107.40876593549
 20
-1911.072001048236
 30
0.0
 40
2.114285999999999
100
AcDbArc
 50
138.1896850000205
 51
221.8103149999794
  0
ARC
  5
AF38
330
1E
100
AcDbEntity
  8
002
100
AcDbCircle
 10
9107.40876593549
 20
-1892.04342946896
 30
0.0
 40
2.114285999999999
100
AcDbArc
 50
318.1896850000205
 51
41.81031499997946
  0
LINE
  5
AF39
330
1E
100
AcDbEntity
  8
002
100
AcDbLine
 10
9105.832870286278
 20
-1887.110096070366
 30
0.0
 11
9108.984660877595
 21
-1890.633905438759
 31
0.0
  0
LINE
  5
AF3A
330
1E
100
AcDbEntity
  8
002
100
AcDbLine
 10
9108.984660877595
 20
-1893.452953499159
 30
0.0
 11
9105.832870286279
 21
-1896.976762867554
 31
0.0
  0
LINE
  5
AF3B
330
1E
100
AcDbEntity
  8
002
100
AcDbLine
 10
9105.832870286279
 20
-1899.795810927955
 30
0.0
 11
9108.984660877595
 21
-1903.319620296348
 31
0.0
  0
ARC
  5
AF3C
330
1E
100
AcDbEntity
  8
002
100
AcDbCircle
 10
9107.408765228383
 20
-1898.386286897753
 30
0.0
 40
2.114285999999999
100
AcDbArc
 50
138.1896850000205
 51
221.8103149999794
  0
ARC
  5
AF3D
330
1E
100
AcDbEntity
  8
002
100
AcDbCircle
 10
9107.408765228383
 20
-1904.729143619442
 30
0.0
 40
2.114285999999999
100
AcDbArc
 50
318.1896850000205
 51
41.81031499997946
  0
LINE
  5
AF3E
330
1E
100
AcDbEntity
  8
002
100
AcDbLine
 10
9105.832869579172
 20
-1937.8529533794
 30
0.0
 11
9108.984661584702
 21
-1941.376762747795
 31
0.0
  0
ARC
  5
AF3F
330
1E
100
AcDbEntity
  8
002
100
AcDbCircle
 10
9107.40876593549
 20
-1917.414857769925
 30
0.0
 40
2.114285999999999
100
AcDbArc
 50
318.1896850000205
 51
41.81031499997946
  0
LINE
  5
AF40
330
1E
100
AcDbEntity
  8
002
100
AcDbLine
 10
9108.984660877597
 20
-1918.824381800124
 30
0.0
 11
9105.832870286278
 21
-1922.348191168517
 31
0.0
  0
ARC
  5
AF41
330
1E
100
AcDbEntity
  8
002
100
AcDbCircle
 10
9107.40876593549
 20
-1930.100572627512
 30
0.0
 40
2.114285999999999
100
AcDbArc
 50
318.1896850000205
 51
41.81031499997946
  0
LINE
  5
AF42
330
1E
100
AcDbEntity
  8
002
100
AcDbLine
 10
9105.832870286279
 20
-1925.167239228918
 30
0.0
 11
9108.984660877597
 21
-1928.691048597313
 31
0.0
  0
ARC
  5
AF43
330
1E
100
AcDbEntity
  8
002
100
AcDbCircle
 10
9107.408765228383
 20
-1923.757715198719
 30
0.0
 40
2.114285999999999
100
AcDbArc
 50
138.1896850000205
 51
221.8103149999794
  0
LINE
  5
AF44
330
1E
100
AcDbEntity
  8
002
100
AcDbLine
 10
9108.984661584702
 20
-1931.510095950607
 30
0.0
 11
9105.832870286278
 21
-1935.033906026106
 31
0.0
  0
ARC
  5
AF45
330
1E
100
AcDbEntity
  8
002
100
AcDbCircle
 10
9107.40876593549
 20
-1936.443429349199
 30
0.0
 40
2.114285999999999
100
AcDbArc
 50
138.1896850000205
 51
221.8103149999794
  0
LINE
  5
AF46
330
1E
100
AcDbEntity
  8
002
100
AcDbLine
 10
9105.832870286279
 20
-1912.481524371331
 30
0.0
 11
9108.984661584702
 21
-1916.00533444683
 31
0.0
  0
ARC
  5
AF47
330
1E
100
AcDbEntity
  8
002
100
AcDbCircle
 10
9107.408765228383
 20
-1885.700572040166
 30
0.0
 40
2.114285999999999
100
AcDbArc
 50
138.1896850000205
 51
221.8103149999794
  0
ARC
  5
AF48
330
1E
100
AcDbEntity
  8
002
100
AcDbCircle
 10
9107.40876593549
 20
-1955.472000928477
 30
0.0
 40
2.114285999999999
100
AcDbArc
 50
318.1896850000205
 51
41.81031499997946
  0
LINE
  5
AF49
330
1E
100
AcDbEntity
  8
002
100
AcDbLine
 10
9108.984660877595
 20
-1944.195810101089
 30
0.0
 11
9105.832869579172
 21
-1947.719620176589
 31
0.0
  0
ARC
  5
AF4A
330
1E
100
AcDbEntity
  8
002
100
AcDbCircle
 10
9107.408765228383
 20
-1949.129143499682
 30
0.0
 40
2.114285999999999
100
AcDbArc
 50
138.1896850000205
 51
221.8103149999794
  0
LINE
  5
AF4B
330
1E
100
AcDbEntity
  8
002
100
AcDbLine
 10
9105.832870286278
 20
-1950.538667529883
 30
0.0
 11
9108.984660877595
 21
-1954.062476898276
 31
0.0
  0
ARC
  5
AF4C
330
1E
100
AcDbEntity
  8
002
100
AcDbCircle
 10
9107.408765228383
 20
-1961.814858357271
 30
0.0
 40
2.114285999999999
100
AcDbArc
 50
138.1896850000205
 51
221.8103149999794
  0
LINE
  5
AF4D
330
1E
100
AcDbEntity
  8
002
100
AcDbLine
 10
9105.832869579172
 20
-1963.224381680365
 30
0.0
 11
9108.984660877595
 21
-1966.748191755865
 31
0.0
  0
LINE
  5
AF4E
330
1E
100
AcDbEntity
  8
002
100
AcDbLine
 10
9108.984660877595
 20
-1956.881524958676
 30
0.0
 11
9105.832870286278
 21
-1960.405334327071
 31
0.0
  0
ARC
  5
AF4F
330
1E
100
AcDbEntity
  8
002
100
AcDbCircle
 10
9107.408765228383
 20
-1968.15771507896
 30
0.0
 40
2.114285999999999
100
AcDbArc
 50
318.1896850000205
 51
41.81031499997946
  0
LINE
  5
AF50
330
1E
100
AcDbEntity
  8
002
100
AcDbLine
 10
9105.832870286279
 20
-1975.910095830848
 30
0.0
 11
9108.984661584702
 21
-1979.433905906347
 31
0.0
  0
ARC
  5
AF51
330
1E
100
AcDbEntity
  8
002
100
AcDbCircle
 10
9107.40876593549
 20
-1974.500572507753
 30
0.0
 40
2.114285999999999
100
AcDbArc
 50
138.1896850000205
 51
221.8103149999794
  0
ARC
  5
AF52
330
1E
100
AcDbEntity
  8
002
100
AcDbCircle
 10
9107.40876593549
 20
-1980.843429229442
 30
0.0
 40
2.114285999999999
100
AcDbArc
 50
318.1896850000205
 51
41.81031499997946
  0
ARC
  5
AF53
330
1E
100
AcDbEntity
  8
002
100
AcDbCircle
 10
9107.408765228383
 20
-1987.186286658236
 30
0.0
 40
2.114285999999999
100
AcDbArc
 50
138.1896850000205
 51
221.8103149999794
  0
LINE
  5
AF54
330
1E
100
AcDbEntity
  8
002
100
AcDbLine
 10
9108.984660877595
 20
-1982.252953259641
 30
0.0
 11
9105.832870286279
 21
-1985.776762628036
 31
0.0
  0
LINE
  5
AF55
330
1E
100
AcDbEntity
  8
002
100
AcDbLine
 10
9108.984661584702
 20
-1969.567239109159
 30
0.0
 11
9105.832869579172
 21
-1973.091048477554
 31
0.0
  0
ARC
  5
AF56
330
1E
100
AcDbEntity
  8
002
100
AcDbCircle
 10
9107.408765228383
 20
-1942.786286777995
 30
0.0
 40
2.114285999999999
100
AcDbArc
 50
318.1896850000205
 51
41.81031499997946
  0
LINE
  5
AF57
330
1E
100
AcDbEntity
  8
002
100
AcDbLine
 10
9165.032870362301
 20
-1874.424381919883
 30
0.0
 11
9168.184660953619
 21
-1877.948191288278
 31
0.0
  0
LINE
  5
AF58
330
1E
100
AcDbEntity
  8
002
100
AcDbLine
 10
9168.184660953619
 20
-1880.767239348679
 30
0.0
 11
9165.032870362301
 21
-1884.291048717072
 31
0.0
  0
LINE
  5
AF59
330
1E
100
AcDbEntity
  8
002
100
AcDbLine
 10
9168.184660953619
 20
-1906.138667649642
 30
0.0
 11
9165.032870362301
 21
-1909.662477018036
 31
0.0
  0
LINE
  5
AF5A
330
1E
100
AcDbEntity
  8
002
100
AcDbLine
 10
9165.032870362301
 20
-1899.795810220848
 30
0.0
 11
9168.184660953619
 21
-1903.319619589241
 31
0.0
  0
LINE
  5
AF5B
330
1E
100
AcDbEntity
  8
002
100
AcDbLine
 10
9165.032869655195
 20
-1887.110096070366
 30
0.0
 11
9168.184660953619
 21
-1890.633906145867
 31
0.0
  0
LINE
  5
AF5C
330
1E
100
AcDbEntity
  8
002
100
AcDbLine
 10
9168.184660953619
 20
-1893.452952792053
 30
0.0
 11
9165.032869655195
 21
-1896.976762867554
 31
0.0
  0
LINE
  5
AF5D
330
1E
100
AcDbEntity
  8
002
100
AcDbLine
 10
9165.032870362301
 20
-1937.8529533794
 30
0.0
 11
9168.184660953619
 21
-1941.376762747795
 31
0.0
  0
LINE
  5
AF5E
330
1E
100
AcDbEntity
  8
002
100
AcDbLine
 10
9168.184660953619
 20
-1931.510095950607
 30
0.0
 11
9165.032870362301
 21
-1935.033905319
 31
0.0
  0
LINE
  5
AF5F
330
1E
100
AcDbEntity
  8
002
100
AcDbLine
 10
9168.184661660726
 20
-1918.824381800124
 30
0.0
 11
9165.032869655195
 21
-1922.348191168517
 31
0.0
  0
LINE
  5
AF60
330
1E
100
AcDbEntity
  8
002
100
AcDbLine
 10
9165.032869655195
 20
-1925.167239228918
 30
0.0
 11
9168.184661660726
 21
-1928.691048597313
 31
0.0
  0
LINE
  5
AF61
330
1E
100
AcDbEntity
  8
002
100
AcDbLine
 10
9165.032870362301
 20
-1912.481525078435
 30
0.0
 11
9168.184660953619
 21
-1916.00533444683
 31
0.0
  0
LINE
  5
AF62
330
1E
100
AcDbEntity
  8
002
100
AcDbLine
 10
9165.032870362301
 20
-1963.224381680365
 30
0.0
 11
9168.184660953619
 21
-1966.748191048758
 31
0.0
  0
LINE
  5
AF63
330
1E
100
AcDbEntity
  8
002
100
AcDbLine
 10
9168.184660953619
 20
-1956.88152425157
 30
0.0
 11
9165.032869655195
 21
-1960.405334327071
 31
0.0
  0
LINE
  5
AF64
330
1E
100
AcDbEntity
  8
002
100
AcDbLine
 10
9165.032869655195
 20
-1950.538667529883
 30
0.0
 11
9168.184660953619
 21
-1954.062477605384
 31
0.0
  0
LINE
  5
AF65
330
1E
100
AcDbEntity
  8
002
100
AcDbLine
 10
9168.184660953619
 20
-1944.195810808194
 30
0.0
 11
9165.032870362301
 21
-1947.719620176589
 31
0.0
  0
LWPOLYLINE
  5
AF66
330
1E
100
AcDbEntity
  8
001
100
AcDbPolyline
 90
        3
 70
     0
 43
0.0
 10
9172.818548468679
 20
-1940.922887521803
 10
9165.112423395774
 20
-1937.887985956636
 10
9170.268673370147
 20
-1944.369350398188
  0
ARC
  5
AF67
330
1E
100
AcDbEntity
  8
002
100
AcDbCircle
 10
9166.608765304408
 20
-1873.014857889684
 30
0.0
 40
2.114285999999999
100
AcDbArc
 50
138.1896850000205
 51
221.8103149999794
  0
ARC
  5
AF68
330
1E
100
AcDbEntity
  8
002
100
AcDbCircle
 10
9166.608765304408
 20
-1911.072001048236
 30
0.0
 40
2.114285999999999
100
AcDbArc
 50
138.1896850000205
 51
221.8103149999794
  0
ARC
  5
AF69
330
1E
100
AcDbEntity
  8
002
100
AcDbCircle
 10
9166.608766011513
 20
-1898.386286897753
 30
0.0
 40
2.114285999999999
100
AcDbArc
 50
138.1896850000205
 51
221.8103149999794
  0
ARC
  5
AF6A
330
1E
100
AcDbEntity
  8
002
100
AcDbCircle
 10
9166.608766011513
 20
-1923.757715198719
 30
0.0
 40
2.114285999999999
100
AcDbArc
 50
138.1896850000205
 51
221.8103149999794
  0
ARC
  5
AF6B
330
1E
100
AcDbEntity
  8
002
100
AcDbCircle
 10
9166.608765304408
 20
-1936.443429349201
 30
0.0
 40
2.114285999999999
100
AcDbArc
 50
138.1896850000205
 51
221.8103149999794
  0
ARC
  5
AF6C
330
1E
100
AcDbEntity
  8
002
100
AcDbCircle
 10
9166.608765304408
 20
-1885.700572747273
 30
0.0
 40
2.114285999999999
100
AcDbArc
 50
138.1896850000205
 51
221.8103149999794
  0
ARC
  5
AF6D
330
1E
100
AcDbEntity
  8
002
100
AcDbCircle
 10
9166.608766011513
 20
-1961.814858357272
 30
0.0
 40
2.114285999999999
100
AcDbArc
 50
138.1896850000205
 51
221.8103149999794
  0
ARC
  5
AF6E
330
1E
100
AcDbEntity
  8
002
100
AcDbCircle
 10
9166.608765304408
 20
-1949.12914420679
 30
0.0
 40
2.114285999999999
100
AcDbArc
 50
138.1896850000205
 51
221.8103149999794
  0
ARC
  5
AF6F
330
1E
100
AcDbEntity
  8
002
100
AcDbCircle
 10
9166.608766011513
 20
-1879.357715318477
 30
0.0
 40
2.114285999999999
100
AcDbArc
 50
318.1896850000205
 51
41.81031499997946
  0
ARC
  5
AF70
330
1E
100
AcDbEntity
  8
002
100
AcDbCircle
 10
9166.608765304408
 20
-1892.04342946896
 30
0.0
 40
2.114285999999999
100
AcDbArc
 50
318.1896850000205
 51
41.81031499997946
  0
ARC
  5
AF71
330
1E
100
AcDbEntity
  8
002
100
AcDbCircle
 10
9166.608766011513
 20
-1904.729143619442
 30
0.0
 40
2.114285999999999
100
AcDbArc
 50
318.1896850000205
 51
41.81031499997946
  0
ARC
  5
AF72
330
1E
100
AcDbEntity
  8
002
100
AcDbCircle
 10
9166.608765304408
 20
-1917.414857769923
 30
0.0
 40
2.114285999999999
100
AcDbArc
 50
318.1896850000205
 51
41.81031499997946
  0
ARC
  5
AF73
330
1E
100
AcDbEntity
  8
002
100
AcDbCircle
 10
9166.608765304408
 20
-1930.100572627512
 30
0.0
 40
2.114285999999999
100
AcDbArc
 50
318.1896850000205
 51
41.81031499997946
  0
ARC
  5
AF74
330
1E
100
AcDbEntity
  8
002
100
AcDbCircle
 10
9166.608765304408
 20
-1955.472000928477
 30
0.0
 40
2.114285999999999
100
AcDbArc
 50
318.1896850000205
 51
41.81031499997946
  0
ARC
  5
AF75
330
1E
100
AcDbEntity
  8
002
100
AcDbCircle
 10
9166.608766011513
 20
-1942.786286777995
 30
0.0
 40
2.114285999999999
100
AcDbArc
 50
318.1896850000205
 51
41.81031499997946
  0
LINE
  5
AF76
330
1E
100
AcDbEntity
  8
002
100
AcDbLine
 10
9117.980194040672
 20
-1661.30438150478
 30
0.0
 11
9130.665908191154
 21
-1661.304382211887
 31
0.0
  0
LINE
  5
AF77
330
1E
100
AcDbEntity
  8
002
100
AcDbLine
 10
9105.832870286279
 20
-1709.510096549404
 30
0.0
 11
9165.032870362301
 21
-1709.510095842297
 31
0.0
  0
LINE
  5
AF78
330
1E
100
AcDbEntity
  8
002
100
AcDbLine
 10
9105.29447989019
 20
-1733.472001527274
 30
0.0
 11
9168.723051349706
 21
-1727.129143391374
 31
0.0
  0
LINE
  5
AF79
330
1E
100
AcDbEntity
  8
002
100
AcDbLine
 10
9164.494479259108
 20
-1720.786286669684
 30
0.0
 11
9109.523051273685
 21
-1727.12914409848
 31
0.0
  0
LINE
  5
AF7A
330
1E
100
AcDbEntity
  8
002
100
AcDbLine
 10
9105.29447989019
 20
-1720.786286669684
 30
0.0
 11
9168.723051349706
 21
-1714.443429947998
 31
0.0
  0
LINE
  5
AF7B
330
1E
100
AcDbEntity
  8
002
100
AcDbLine
 10
9105.29447989019
 20
-1809.586286430167
 30
0.0
 11
9168.723051349706
 21
-1803.243429708478
 31
0.0
  0
LINE
  5
AF7C
330
1E
100
AcDbEntity
  8
002
100
AcDbLine
 10
9164.494479966213
 20
-1796.900572279684
 30
0.0
 11
9109.523051273685
 21
-1803.243429001373
 31
0.0
  0
LINE
  5
AF7D
330
1E
100
AcDbEntity
  8
002
100
AcDbLine
 10
9105.29447989019
 20
-1796.900572986791
 30
0.0
 11
9168.723051349706
 21
-1790.557714850891
 31
0.0
  0
LINE
  5
AF7E
330
1E
100
AcDbEntity
  8
002
100
AcDbLine
 10
9164.494479259108
 20
-1784.214858129202
 30
0.0
 11
9109.523051273683
 21
-1790.557715557997
 31
0.0
  0
LINE
  5
AF7F
330
1E
100
AcDbEntity
  8
002
100
AcDbLine
 10
9105.29447989019
 20
-1784.214858129202
 30
0.0
 11
9168.723051349706
 21
-1777.872001407515
 31
0.0
  0
LINE
  5
AF80
330
1E
100
AcDbEntity
  8
002
100
AcDbLine
 10
9164.494479966213
 20
-1771.529143978719
 30
0.0
 11
9109.523051273683
 21
-1777.872000700408
 31
0.0
  0
LINE
  5
AF81
330
1E
100
AcDbEntity
  8
002
100
AcDbLine
 10
9105.29447989019
 20
-1771.529143271613
 30
0.0
 11
9168.723051349706
 21
-1765.186286549926
 31
0.0
  0
LINE
  5
AF82
330
1E
100
AcDbEntity
  8
002
100
AcDbLine
 10
9164.494479966213
 20
-1758.843429121132
 30
0.0
 11
9109.523051273685
 21
-1765.186287257032
 31
0.0
  0
LINE
  5
AF83
330
1E
100
AcDbEntity
  8
002
100
AcDbLine
 10
9105.29447989019
 20
-1758.843429828239
 30
0.0
 11
9168.723050642601
 21
-1752.500572399443
 31
0.0
  0
LINE
  5
AF84
330
1E
100
AcDbEntity
  8
002
100
AcDbLine
 10
9164.494479966213
 20
-1746.157715677756
 30
0.0
 11
9109.523051273683
 21
-1752.500572399443
 31
0.0
  0
LINE
  5
AF85
330
1E
100
AcDbEntity
  8
002
100
AcDbLine
 10
9105.29447989019
 20
-1746.157714970649
 30
0.0
 11
9168.723051349706
 21
-1739.814858248962
 31
0.0
  0
LINE
  5
AF86
330
1E
100
AcDbEntity
  8
002
100
AcDbLine
 10
9164.494479966213
 20
-1733.472000820167
 30
0.0
 11
9109.523051273685
 21
-1739.814857541854
 31
0.0
  0
LINE
  5
AF87
330
1E
100
AcDbEntity
  8
002
100
AcDbLine
 10
9105.29447989019
 20
-1847.643429588719
 30
0.0
 11
9168.723051349706
 21
-1841.300572867032
 31
0.0
  0
LINE
  5
AF88
330
1E
100
AcDbEntity
  8
002
100
AcDbLine
 10
9164.494479966213
 20
-1834.957715438238
 30
0.0
 11
9109.523051273683
 21
-1841.300572159926
 31
0.0
  0
LINE
  5
AF89
330
1E
100
AcDbEntity
  8
002
100
AcDbLine
 10
9105.29447989019
 20
-1834.95771473113
 30
0.0
 11
9168.723051349706
 21
-1828.614858009443
 31
0.0
  0
LINE
  5
AF8A
330
1E
100
AcDbEntity
  8
002
100
AcDbLine
 10
9164.494479966213
 20
-1822.272000580649
 30
0.0
 11
9109.523051273683
 21
-1828.61485871655
 31
0.0
  0
LINE
  5
AF8B
330
1E
100
AcDbEntity
  8
002
100
AcDbLine
 10
9105.29447989019
 20
-1822.272001287756
 30
0.0
 11
9168.723051349706
 21
-1815.929143151853
 31
0.0
  0
LINE
  5
AF8C
330
1E
100
AcDbEntity
  8
002
100
AcDbLine
 10
9164.494479966213
 20
-1809.586287137273
 30
0.0
 11
9109.523051273683
 21
-1815.92914385896
 31
0.0
  0
LINE
  5
AF8D
330
1E
100
AcDbEntity
  8
002
100
AcDbLine
 10
9164.494479966213
 20
-1860.329143739201
 30
0.0
 11
9109.523051273685
 21
-1866.672000460888
 31
0.0
  0
LINE
  5
AF8E
330
1E
100
AcDbEntity
  8
002
100
AcDbLine
 10
9105.29447989019
 20
-1860.329144446308
 30
0.0
 11
9168.723051349706
 21
-1853.986286310406
 31
0.0
  0
LINE
  5
AF8F
330
1E
100
AcDbEntity
  8
002
100
AcDbLine
 10
9164.494479259108
 20
-1847.643429588719
 30
0.0
 11
9109.523051273683
 21
-1853.986287017514
 31
0.0
  0
LINE
  5
AF90
330
1E
100
AcDbEntity
  8
002
100
AcDbLine
 10
9152.278607159132
 20
-1709.510095842297
 30
0.0
 11
9109.523051273683
 21
-1714.443429240891
 31
0.0
  0
ARC
  5
AF91
330
1E
100
AcDbEntity
  8
002
100
AcDbCircle
 10
9106.519175400178
 20
-1752.500572399443
 30
0.0
 40
2.114285999999999
100
AcDbArc
 50
318.1896850000205
 51
41.81031499997946
  0
ARC
  5
AF92
330
1E
100
AcDbEntity
  8
002
100
AcDbCircle
 10
9107.408765228383
 20
-1752.500572399443
 30
0.0
 40
2.114285999999999
100
AcDbArc
 50
318.1896850000205
 51
41.81031499997946
  0
LINE
  5
AF93
330
1E
100
AcDbEntity
  8
002
100
AcDbLine
 10
9094.300194151685
 20
-1679.910096864945
 30
0.0
 11
9094.723051077901
 21
-1816.915810255837
 31
0.0
  0
ARC
  5
AF94
330
1E
100
AcDbEntity
  8
002
100
AcDbCircle
 10
9106.519176107282
 20
-1765.186286549926
 30
0.0
 40
2.114285999999999
100
AcDbArc
 50
318.1896850000205
 51
41.81031499997946
  0
LINE
  5
AF95
330
1E
100
AcDbEntity
  8
002
100
AcDbLine
 10
9105.832870286279
 20
-1760.252953151332
 30
0.0
 11
9108.984660877595
 21
-1763.776762519726
 31
0.0
  0
LINE
  5
AF96
330
1E
100
AcDbEntity
  8
002
100
AcDbLine
 10
9108.095071756496
 20
-1753.910096429645
 30
0.0
 11
9104.943279750965
 21
-1757.433905798037
 31
0.0
  0
LINE
  5
AF97
330
1E
100
AcDbEntity
  8
002
100
AcDbLine
 10
9108.984660877595
 20
-1753.910095722536
 30
0.0
 11
9105.832869579172
 21
-1757.433905798037
 31
0.0
  0
LINE
  5
AF98
330
1E
100
AcDbEntity
  8
002
100
AcDbLine
 10
9104.943280458071
 20
-1760.252953151332
 30
0.0
 11
9108.095071049389
 21
-1763.776762519726
 31
0.0
  0
ARC
  5
AF99
330
1E
100
AcDbEntity
  8
002
100
AcDbCircle
 10
9107.40876593549
 20
-1758.843429828239
 30
0.0
 40
2.114285999999999
100
AcDbArc
 50
138.1896850000205
 51
221.8103149999794
  0
ARC
  5
AF9A
330
1E
100
AcDbEntity
  8
002
100
AcDbCircle
 10
9106.519176107283
 20
-1758.843429828239
 30
0.0
 40
2.114285999999999
100
AcDbArc
 50
138.1896850000205
 51
221.8103149999794
  0
ARC
  5
AF9B
330
1E
100
AcDbEntity
  8
002
100
AcDbCircle
 10
9107.40876593549
 20
-1765.186286549926
 30
0.0
 40
2.114285999999999
100
AcDbArc
 50
318.1896850000205
 51
41.81031499997946
  0
LINE
  5
AF9C
330
1E
100
AcDbEntity
  8
002
100
AcDbLine
 10
9108.095071049389
 20
-1766.595810580125
 30
0.0
 11
9104.943280458071
 21
-1770.11961994852
 31
0.0
  0
LINE
  5
AF9D
330
1E
100
AcDbEntity
  8
002
100
AcDbLine
 10
9108.984660877595
 20
-1766.595810580125
 30
0.0
 11
9105.832870286279
 21
-1770.11961994852
 31
0.0
  0
LINE
  5
AF9E
330
1E
100
AcDbEntity
  8
002
100
AcDbLine
 10
9104.943280458071
 20
-1785.624381452296
 30
0.0
 11
9108.095071756496
 21
-1789.148191527796
 31
0.0
  0
ARC
  5
AF9F
330
1E
100
AcDbEntity
  8
002
100
AcDbCircle
 10
9106.519176107283
 20
-1784.214858129202
 30
0.0
 40
2.114285999999999
100
AcDbArc
 50
138.1896850000205
 51
221.8103149999794
  0
ARC
  5
AFA0
330
1E
100
AcDbEntity
  8
002
100
AcDbCircle
 10
9106.519176107283
 20
-1790.557714850891
 30
0.0
 40
2.114285999999999
100
AcDbArc
 50
318.1896850000205
 51
41.81031499997946
  0
ARC
  5
AFA1
330
1E
100
AcDbEntity
  8
002
100
AcDbCircle
 10
9107.408765228383
 20
-1790.557715557997
 30
0.0
 40
2.114285999999999
100
AcDbArc
 50
318.1896850000205
 51
41.81031499997946
  0
ARC
  5
AFA2
330
1E
100
AcDbEntity
  8
002
100
AcDbCircle
 10
9106.519175400178
 20
-1796.900572279684
 30
0.0
 40
2.114285999999999
100
AcDbArc
 50
138.1896850000205
 51
221.8103149999794
  0
ARC
  5
AFA3
330
1E
100
AcDbEntity
  8
002
100
AcDbCircle
 10
9107.408765228383
 20
-1796.900572279684
 30
0.0
 40
2.114285999999999
100
AcDbArc
 50
138.1896850000205
 51
221.8103149999794
  0
LINE
  5
AFA4
330
1E
100
AcDbEntity
  8
002
100
AcDbLine
 10
9108.095071049389
 20
-1791.96723888109
 30
0.0
 11
9104.943280458071
 21
-1795.491048249485
 31
0.0
  0
LINE
  5
AFA5
330
1E
100
AcDbEntity
  8
002
100
AcDbLine
 10
9108.984660877595
 20
-1791.96723888109
 30
0.0
 11
9105.832870286278
 21
-1795.491048249485
 31
0.0
  0
LINE
  5
AFA6
330
1E
100
AcDbEntity
  8
002
100
AcDbLine
 10
9105.832870286278
 20
-1785.624381452296
 30
0.0
 11
9108.984661584702
 21
-1789.148191527796
 31
0.0
  0
ARC
  5
AFA7
330
1E
100
AcDbEntity
  8
002
100
AcDbCircle
 10
9107.40876593549
 20
-1784.214858129202
 30
0.0
 40
2.114285999999999
100
AcDbArc
 50
138.1896850000205
 51
221.8103149999794
  0
LINE
  5
AFA8
330
1E
100
AcDbEntity
  8
002
100
AcDbLine
 10
9108.095071756496
 20
-1779.281524730608
 30
0.0
 11
9104.943280458071
 21
-1782.805334806109
 31
0.0
  0
LINE
  5
AFA9
330
1E
100
AcDbEntity
  8
002
100
AcDbLine
 10
9104.943280458071
 20
-1772.93866800892
 30
0.0
 11
9108.095071049389
 21
-1776.462477377314
 31
0.0
  0
ARC
  5
AFAA
330
1E
100
AcDbEntity
  8
002
100
AcDbCircle
 10
9106.519175400176
 20
-1777.872000700408
 30
0.0
 40
2.114285999999999
100
AcDbArc
 50
318.1896850000205
 51
41.81031499997946
  0
LINE
  5
AFAB
330
1E
100
AcDbEntity
  8
002
100
AcDbLine
 10
9105.832870286278
 20
-1772.93866800892
 30
0.0
 11
9108.984660877595
 21
-1776.462477377314
 31
0.0
  0
LINE
  5
AFAC
330
1E
100
AcDbEntity
  8
002
100
AcDbLine
 10
9108.984661584702
 20
-1779.281524730608
 30
0.0
 11
9105.832869579172
 21
-1782.805334099002
 31
0.0
  0
ARC
  5
AFAD
330
1E
100
AcDbEntity
  8
002
100
AcDbCircle
 10
9107.408765228383
 20
-1777.872000700408
 30
0.0
 40
2.114285999999999
100
AcDbArc
 50
318.1896850000205
 51
41.81031499997946
  0
ARC
  5
AFAE
330
1E
100
AcDbEntity
  8
002
100
AcDbCircle
 10
9106.519176107282
 20
-1809.586286430167
 30
0.0
 40
2.114285999999999
100
AcDbArc
 50
138.1896850000205
 51
221.8103149999794
  0
ARC
  5
AFAF
330
1E
100
AcDbEntity
  8
002
100
AcDbCircle
 10
9107.40876593549
 20
-1809.586286430167
 30
0.0
 40
2.114285999999999
100
AcDbArc
 50
138.1896850000205
 51
221.8103149999794
  0
LINE
  5
AFB0
330
1E
100
AcDbEntity
  8
002
100
AcDbLine
 10
9108.095071756496
 20
-1804.652953031573
 30
0.0
 11
9104.943280458071
 21
-1808.176763107072
 31
0.0
  0
ARC
  5
AFB1
330
1E
100
AcDbEntity
  8
002
100
AcDbCircle
 10
9106.519176107282
 20
-1803.243429708478
 30
0.0
 40
2.114285999999999
100
AcDbArc
 50
318.1896850000205
 51
41.81031499997946
  0
LINE
  5
AFB2
330
1E
100
AcDbEntity
  8
002
100
AcDbLine
 10
9108.984660877595
 20
-1804.652953738679
 30
0.0
 11
9105.832870286279
 21
-1808.176763107074
 31
0.0
  0
ARC
  5
AFB3
330
1E
100
AcDbEntity
  8
002
100
AcDbCircle
 10
9107.40876593549
 20
-1803.243429708478
 30
0.0
 40
2.114285999999999
100
AcDbArc
 50
318.1896850000205
 51
41.81031499997946
  0
LINE
  5
AFB4
330
1E
100
AcDbEntity
  8
002
100
AcDbLine
 10
9108.984660877595
 20
-1817.338667182055
 30
0.0
 11
9105.832869579172
 21
-1820.862477257555
 31
0.0
  0
LINE
  5
AFB5
330
1E
100
AcDbEntity
  8
002
100
AcDbLine
 10
9105.832870286279
 20
-1823.681524610849
 30
0.0
 11
9108.984660877595
 21
-1827.205333979243
 31
0.0
  0
ARC
  5
AFB6
330
1E
100
AcDbEntity
  8
002
100
AcDbCircle
 10
9107.40876593549
 20
-1822.272001287756
 30
0.0
 40
2.114285999999999
100
AcDbArc
 50
138.1896850000205
 51
221.8103149999794
  0
LINE
  5
AFB7
330
1E
100
AcDbEntity
  8
002
100
AcDbLine
 10
9104.943279750965
 20
-1810.995810460366
 30
0.0
 11
9108.095071756496
 21
-1814.519619828761
 31
0.0
  0
ARC
  5
AFB8
330
1E
100
AcDbEntity
  8
002
100
AcDbCircle
 10
9106.519175400178
 20
-1815.92914385896
 30
0.0
 40
2.114285999999999
100
AcDbArc
 50
332.1818609999535
 51
41.81031499997946
  0
LINE
  5
AFB9
330
1E
100
AcDbEntity
  8
002
100
AcDbLine
 10
9105.832869579172
 20
-1810.995810460366
 30
0.0
 11
9108.984661584702
 21
-1814.519619828761
 31
0.0
  0
ARC
  5
AFBA
330
1E
100
AcDbEntity
  8
002
100
AcDbCircle
 10
9107.408765228383
 20
-1815.92914385896
 30
0.0
 40
2.114285999999999
100
AcDbArc
 50
318.1896850000205
 51
41.81031499997946
  0
LWPOLYLINE
  5
AFBB
330
1E
100
AcDbEntity
  8
001
100
AcDbPolyline
 90
        3
 70
     0
 43
0.0
 10
9089.415618223121
 20
-1818.662047898158
 10
9093.419774619949
 20
-1811.412101505304
 10
9086.327100124245
 20
-1815.688661725907
  0
LINE
  5
AFBC
330
1E
100
AcDbEntity
  8
002
100
AcDbLine
 10
9094.723051077901
 20
-1816.915810255837
 30
0.0
 11
9108.389119990132
 21
-1816.915810255837
 31
0.0
  0
LINE
  5
AFBD
330
1E
100
AcDbEntity
  8
002
100
AcDbLine
 10
9104.943280458071
 20
-1798.310096309884
 30
0.0
 11
9108.095071049389
 21
-1801.833905678279
 31
0.0
  0
LINE
  5
AFBE
330
1E
100
AcDbEntity
  8
002
100
AcDbLine
 10
9105.832870286279
 20
-1798.310096309886
 30
0.0
 11
9108.984660877595
 21
-1801.833905678279
 31
0.0
  0
ARC
  5
AFBF
330
1E
100
AcDbEntity
  8
002
100
AcDbCircle
 10
9106.519175400176
 20
-1771.529143978721
 30
0.0
 40
2.114285999999999
100
AcDbArc
 50
138.1896850000205
 51
221.8103149999794
  0
ARC
  5
AFC0
330
1E
100
AcDbEntity
  8
002
100
AcDbCircle
 10
9107.408765228383
 20
-1771.529143978721
 30
0.0
 40
2.114285999999999
100
AcDbArc
 50
138.1896850000205
 51
221.8103149999794
  0
ARC
  5
AFC1
330
1E
100
AcDbEntity
  8
002
100
AcDbCircle
 10
9107.40876593549
 20
-1847.643429588719
 30
0.0
 40
2.114285999999999
100
AcDbArc
 50
138.1896850000205
 51
221.8103149999794
  0
LINE
  5
AFC2
330
1E
100
AcDbEntity
  8
002
100
AcDbLine
 10
9105.832870286278
 20
-1849.052952911813
 30
0.0
 11
9108.984661584702
 21
-1852.576762987313
 31
0.0
  0
ARC
  5
AFC3
330
1E
100
AcDbEntity
  8
002
100
AcDbCircle
 10
9107.40876593549
 20
-1853.986286310408
 30
0.0
 40
2.114285999999999
100
AcDbArc
 50
318.1896850000205
 51
41.81031499997946
  0
LINE
  5
AFC4
330
1E
100
AcDbEntity
  8
002
100
AcDbLine
 10
9108.984661584702
 20
-1842.710096190125
 30
0.0
 11
9105.832869579172
 21
-1846.23390555852
 31
0.0
  0
LINE
  5
AFC5
330
1E
100
AcDbEntity
  8
002
100
AcDbLine
 10
9105.832870286278
 20
-1836.367239468438
 30
0.0
 11
9108.984660877595
 21
-1839.891048836831
 31
0.0
  0
ARC
  5
AFC6
330
1E
100
AcDbEntity
  8
002
100
AcDbCircle
 10
9107.408765228383
 20
-1841.300572159926
 30
0.0
 40
2.114285999999999
100
AcDbArc
 50
318.1896850000205
 51
41.81031499997946
  0
LINE
  5
AFC7
330
1E
100
AcDbEntity
  8
002
100
AcDbLine
 10
9108.984660877595
 20
-1830.024382039642
 30
0.0
 11
9105.832870286278
 21
-1833.548191408037
 31
0.0
  0
ARC
  5
AFC8
330
1E
100
AcDbEntity
  8
002
100
AcDbCircle
 10
9107.408765228383
 20
-1834.957715438237
 30
0.0
 40
2.114285999999999
100
AcDbArc
 50
138.1896850000205
 51
221.8103149999794
  0
LINE
  5
AFC9
330
1E
100
AcDbEntity
  8
002
100
AcDbLine
 10
9105.832870286279
 20
-1861.738667769403
 30
0.0
 11
9108.984660877597
 21
-1865.262477137795
 31
0.0
  0
ARC
  5
AFCA
330
1E
100
AcDbEntity
  8
002
100
AcDbCircle
 10
9107.408765228383
 20
-1860.329143739201
 30
0.0
 40
2.114285999999999
100
AcDbArc
 50
138.1896850000205
 51
221.8103149999794
  0
ARC
  5
AFCB
330
1E
100
AcDbEntity
  8
002
100
AcDbCircle
 10
9107.40876593549
 20
-1866.672001167995
 30
0.0
 40
2.114285999999999
100
AcDbArc
 50
318.1896850000205
 51
41.81031499997946
  0
LINE
  5
AFCC
330
1E
100
AcDbEntity
  8
002
100
AcDbLine
 10
9108.984660877595
 20
-1855.395810340607
 30
0.0
 11
9105.832870286278
 21
-1858.919619709002
 31
0.0
  0
ARC
  5
AFCD
330
1E
100
AcDbEntity
  8
002
100
AcDbCircle
 10
9107.40876593549
 20
-1828.614858009443
 30
0.0
 40
2.114285999999999
100
AcDbArc
 50
318.1896850000205
 51
41.81031499997946
  0
LINE
  5
AFCE
330
1E
100
AcDbEntity
  8
002
100
AcDbLine
 10
9084.997336825155
 20
-1659.612953799909
 30
0.0
 11
9087.278220763638
 21
-1659.612953092802
 31
0.0
  0
LWPOLYLINE
  5
AFCF
330
1E
100
AcDbEntity
  8
002
100
AcDbPolyline
 90
        4
 70
     1
 43
0.0
 10
9093.454480299248
 20
-1701.066925505305
 10
9050.323051904769
 20
-1701.066925505305
 10
9050.323051904769
 20
-1679.910096157839
 10
9093.454480299248
 20
-1679.910096157839
  0
LINE
  5
AFD0
330
1E
100
AcDbEntity
  8
002
100
AcDbLine
 10
9050.323051904769
 20
-1679.910096157839
 30
0.0
 11
9102.75733762578
 21
-1679.910096157839
 31
0.0
  0
LINE
  5
AFD1
330
1E
100
AcDbEntity
  8
003
 62
     3
100
AcDbLine
 10
9050.323051197663
 20
-1701.066925505305
 30
0.0
 11
9093.454480299248
 21
-1701.066925505305
 31
0.0
  0
LINE
  5
AFD2
330
1E
100
AcDbEntity
  8
002
100
AcDbLine
 10
9083.305908413178
 20
-1652.341437479033
 30
0.0
 11
9084.151622265613
 21
-1652.341437479033
 31
0.0
  0
LINE
  5
AFD3
330
1E
100
AcDbEntity
  8
002
100
AcDbLine
 10
9083.305908413178
 20
-1652.341437479033
 30
0.0
 11
9082.03733692742
 21
-1654.538667856874
 31
0.0
  0
LINE
  5
AFD4
330
1E
100
AcDbEntity
  8
002
100
AcDbLine
 10
9084.151622265613
 20
-1662.15009606432
 30
0.0
 11
9082.03733692742
 21
-1663.614916551916
 31
0.0
  0
LINE
  5
AFD5
330
1E
100
AcDbEntity
  8
002
100
AcDbLine
 10
9084.15162297272
 20
-1660.458667652345
 30
0.0
 11
9084.151622265613
 21
-1662.15009606432
 31
0.0
  0
LINE
  5
AFD6
330
1E
100
AcDbEntity
  8
002
100
AcDbLine
 10
9084.15162297272
 20
-1660.458667652345
 30
0.0
 11
9084.997336825155
 21
-1659.612953799909
 31
0.0
  0
LINE
  5
AFD7
330
1E
100
AcDbEntity
  8
002
100
AcDbLine
 10
9082.03733692742
 20
-1654.538667856874
 30
0.0
 11
9082.03733692742
 21
-1679.910096157839
 31
0.0
  0
LINE
  5
AFD8
330
1E
100
AcDbEntity
  8
002
100
AcDbLine
 10
9073.580194160433
 20
-1678.218667038756
 30
0.0
 11
9073.580194160433
 21
-1637.624382322897
 31
0.0
  0
LINE
  5
AFD9
330
1E
100
AcDbEntity
  8
002
100
AcDbLine
 10
9083.305908413178
 20
-1652.341437479033
 30
0.0
 11
9083.305909120285
 21
-1679.910096157839
 31
0.0
  0
LINE
  5
AFDA
330
1E
100
AcDbEntity
  8
003
100
AcDbLine
 10
9071.608765619949
 20
-1701.066925505305
 30
0.0
 11
9071.608765619949
 21
-1723.066925505305
 31
0.0
  0
LINE
  5
AFDB
330
1E
100
AcDbEntity
  8
003
 62
     3
100
AcDbLine
 10
9071.608765619949
 20
-1701.066925505305
 30
0.0
 11
9071.608765619949
 21
-1723.066925505305
 31
0.0
  0
ARC
  5
AFDC
330
1E
100
AcDbEntity
  8
002
100
AcDbCircle
 10
9118.151559954879
 20
-1645.36044446449
 30
0.0
 40
0.7210800000000001
100
AcDbArc
 50
210.0000000000103
 51
353.0000000000202
  0
LINE
  5
AFDD
330
1E
100
AcDbEntity
  8
002
100
AcDbLine
 10
9117.527086379249
 20
-1645.720984777188
 30
0.0
 11
9117.007622403265
 21
-1644.821247259564
 31
0.0
  0
LINE
  5
AFDE
330
1E
100
AcDbEntity
  8
002
100
AcDbLine
 10
9117.980194040672
 20
-1657.075810828393
 30
0.0
 11
9118.499397801361
 21
-1661.304382211887
 31
0.0
  0
LINE
  5
AFDF
330
1E
100
AcDbEntity
  8
002
100
AcDbLine
 10
9117.288571483781
 20
-1672.503839932702
 30
0.0
 11
9120.52619918148
 21
-1709.510095842297
 31
0.0
  0
LINE
  5
AFE0
330
1E
100
AcDbEntity
  8
002
100
AcDbLine
 10
9117.980194747779
 20
-1652.672941865976
 30
0.0
 11
9117.980194040672
 21
-1657.075810828393
 31
0.0
  0
LINE
  5
AFE1
330
1E
100
AcDbEntity
  8
002
100
AcDbLine
 10
9105.747587551615
 20
-1645.720984070081
 30
0.0
 11
9106.267050820489
 21
-1644.821247259564
 31
0.0
  0
ARC
  5
AFE2
330
1E
100
AcDbEntity
  8
002
100
AcDbCircle
 10
9105.123113268875
 20
-1645.36044446449
 30
0.0
 40
0.7210800000000001
100
AcDbArc
 50
186.9999999999797
 51
329.9999999999897
  0
LINE
  5
AFE3
330
1E
100
AcDbEntity
  8
002
100
AcDbLine
 10
9105.717336816407
 20
-1663.841525183405
 30
0.0
 11
9102.757336918672
 21
-1663.841525183405
 31
0.0
  0
LINE
  5
AFE4
330
1E
100
AcDbEntity
  8
002
100
AcDbLine
 10
9102.757336918672
 20
-1662.036792102131
 30
0.0
 11
9102.75733762578
 21
-1679.910096157839
 31
0.0
  0
LINE
  5
AFE5
330
1E
100
AcDbEntity
  8
002
100
AcDbLine
 10
9101.488765432915
 20
-1661.30438150478
 30
0.0
 11
9102.757336918672
 21
-1662.036792102131
 31
0.0
  0
LINE
  5
AFE6
330
1E
100
AcDbEntity
  8
002
100
AcDbLine
 10
9101.488765432915
 20
-1661.30438150478
 30
0.0
 11
9101.488765432915
 21
-1679.910096157839
 31
0.0
  0
LINE
  5
AFE7
330
1E
100
AcDbEntity
  8
002
100
AcDbLine
 10
9102.757336918672
 20
-1663.841525183405
 30
0.0
 11
9101.488765432915
 21
-1664.57393436654
 31
0.0
  0
ARC
  5
AFE8
330
1E
100
AcDbEntity
  8
002
100
AcDbCircle
 10
9190.838479904583
 20
-1666.069056501032
 30
0.0
 40
84.571429
100
AcDbArc
 50
180.0
 51
184.9999999999723
  0
LINE
  5
AFE9
330
1E
100
AcDbEntity
  8
002
100
AcDbLine
 10
9101.488765432915
 20
-1679.910096157839
 30
0.0
 11
9102.757336918672
 21
-1679.177685560487
 31
0.0
  0
LINE
  5
AFEA
330
1E
100
AcDbEntity
  8
002
100
AcDbLine
 10
9105.29447989019
 20
-1657.075810121285
 30
0.0
 11
9104.77527683661
 21
-1661.304382211887
 31
0.0
  0
LINE
  5
AFEB
330
1E
100
AcDbEntity
  8
002
100
AcDbLine
 10
9090.49447969441
 20
-1660.458667652345
 30
0.0
 11
9091.34019425395
 21
-1661.304382211887
 31
0.0
  0
LINE
  5
AFEC
330
1E
100
AcDbEntity
  8
002
100
AcDbLine
 10
9088.380194356215
 20
-1661.304382211887
 30
0.0
 11
9087.278220763638
 21
-1659.612953092802
 31
0.0
  0
LINE
  5
AFED
330
1E
100
AcDbEntity
  8
002
100
AcDbLine
 10
9088.380194356215
 20
-1661.304382211887
 30
0.0
 11
9105.29447989019
 21
-1661.304382211887
 31
0.0
  0
LINE
  5
AFEE
330
1E
100
AcDbEntity
  8
002
100
AcDbLine
 10
9104.943280458071
 20
-1709.510096549404
 30
0.0
 11
9105.717336816407
 21
-1709.510095842297
 31
0.0
  0
LINE
  5
AFEF
330
1E
100
AcDbEntity
  8
002
100
AcDbLine
 10
9104.943280458071
 20
-1709.510096549404
 30
0.0
 11
9108.095071049389
 21
-1713.033905917796
 31
0.0
  0
LINE
  5
AFF0
330
1E
100
AcDbEntity
  8
002
100
AcDbLine
 10
9105.832870286279
 20
-1709.510096549404
 30
0.0
 11
9108.984660877595
 21
-1713.033905917796
 31
0.0
  0
LINE
  5
AFF1
330
1E
100
AcDbEntity
  8
002
100
AcDbLine
 10
9105.717336816407
 20
-1663.841525183405
 30
0.0
 11
9105.717336816407
 21
-1709.510095842297
 31
0.0
  0
LINE
  5
AFF2
330
1E
100
AcDbEntity
  8
002
100
AcDbLine
 10
9106.588871380065
 20
-1673.439942537868
 30
0.0
 11
9109.744600556153
 21
-1709.510096549404
 31
0.0
  0
LINE
  5
AFF3
330
1E
100
AcDbEntity
  8
002
100
AcDbLine
 10
9115.625568057302
 20
-1709.510096549404
 30
0.0
 11
9106.267050820489
 21
-1656.43531209178
 31
0.0
  0
LINE
  5
AFF4
330
1E
100
AcDbEntity
  8
002
100
AcDbLine
 10
9105.29447989019
 20
-1652.672941865976
 30
0.0
 11
9105.29447989019
 21
-1657.075810121285
 31
0.0
  0
ARC
  5
AFF5
330
1E
100
AcDbEntity
  8
002
100
AcDbCircle
 10
9190.838479904583
 20
-1666.069056501032
 30
0.0
 40
73.83085699999999
100
AcDbArc
 50
180.0
 51
184.9999999999723
  0
LINE
  5
AFF6
330
1E
100
AcDbEntity
  8
002
100
AcDbLine
 10
9104.943280458071
 20
-1722.195809992779
 30
0.0
 11
9108.095071756496
 21
-1725.719620068279
 31
0.0
  0
LINE
  5
AFF7
330
1E
100
AcDbEntity
  8
002
100
AcDbLine
 10
9105.832870286278
 20
-1722.195809992779
 30
0.0
 11
9108.984661584704
 21
-1725.719620068279
 31
0.0
  0
LINE
  5
AFF8
330
1E
100
AcDbEntity
  8
002
100
AcDbLine
 10
9108.095071756496
 20
-1715.85295327109
 30
0.0
 11
9104.943280458071
 21
-1719.376763346592
 31
0.0
  0
ARC
  5
AFF9
330
1E
100
AcDbEntity
  8
002
100
AcDbCircle
 10
9106.519176107283
 20
-1720.786286669684
 30
0.0
 40
2.114285999999999
100
AcDbArc
 50
138.1896850000205
 51
221.8103149999794
  0
LINE
  5
AFFA
330
1E
100
AcDbEntity
  8
002
100
AcDbLine
 10
9108.984661584702
 20
-1715.85295327109
 30
0.0
 11
9105.832869579172
 21
-1719.376762639485
 31
0.0
  0
ARC
  5
AFFB
330
1E
100
AcDbEntity
  8
002
100
AcDbCircle
 10
9107.40876593549
 20
-1720.786286669684
 30
0.0
 40
2.114285999999999
100
AcDbArc
 50
138.1896850000205
 51
221.8103149999794
  0
ARC
  5
AFFC
330
1E
100
AcDbEntity
  8
002
100
AcDbCircle
 10
9106.519176107282
 20
-1727.129143391374
 30
0.0
 40
2.114285999999999
100
AcDbArc
 50
318.1896850000205
 51
41.81031499997946
  0
LINE
  5
AFFD
330
1E
100
AcDbEntity
  8
002
100
AcDbLine
 10
9108.984660877595
 20
-1728.538667421573
 30
0.0
 11
9105.832870286278
 21
-1732.062476789968
 31
0.0
  0
LINE
  5
AFFE
330
1E
100
AcDbEntity
  8
002
100
AcDbLine
 10
9104.943280458071
 20
-1734.881524850367
 30
0.0
 11
9108.095071049389
 21
-1738.405334218761
 31
0.0
  0
ARC
  5
AFFF
330
1E
100
AcDbEntity
  8
002
100
AcDbCircle
 10
9106.519176107282
 20
-1739.814858248961
 30
0.0
 40
2.114285999999999
100
AcDbArc
 50
318.1896850000205
 51
41.81031499997946
  0
LINE
  5
B000
330
1E
100
AcDbEntity
  8
002
100
AcDbLine
 10
9105.832870286279
 20
-1734.881524850367
 30
0.0
 11
9108.984660877595
 21
-1738.405334218761
 31
0.0
  0
ARC
  5
B001
330
1E
100
AcDbEntity
  8
002
100
AcDbCircle
 10
9107.40876593549
 20
-1739.814858248961
 30
0.0
 40
2.114285999999999
100
AcDbArc
 50
318.1896850000205
 51
41.81031499997946
  0
LINE
  5
B002
330
1E
100
AcDbEntity
  8
002
100
AcDbLine
 10
9108.095071049389
 20
-1728.538667421573
 30
0.0
 11
9104.943280458071
 21
-1732.062476789968
 31
0.0
  0
ARC
  5
B003
330
1E
100
AcDbEntity
  8
002
100
AcDbCircle
 10
9106.519175400176
 20
-1733.472000820167
 30
0.0
 40
2.114285999999999
100
AcDbArc
 50
138.1896850000205
 51
221.8103149999794
  0
ARC
  5
B004
330
1E
100
AcDbEntity
  8
002
100
AcDbCircle
 10
9107.408765228383
 20
-1733.472000820167
 30
0.0
 40
2.114285999999999
100
AcDbArc
 50
138.1896850000205
 51
221.8103149999794
  0
ARC
  5
B005
330
1E
100
AcDbEntity
  8
002
100
AcDbCircle
 10
9107.408765228383
 20
-1727.12914409848
 30
0.0
 40
2.114285999999999
100
AcDbArc
 50
318.1896850000205
 51
41.81031499997946
  0
ARC
  5
B006
330
1E
100
AcDbEntity
  8
002
100
AcDbCircle
 10
9106.519176107282
 20
-1746.157714970649
 30
0.0
 40
2.114285999999999
100
AcDbArc
 50
138.1896850000205
 51
221.8103149999794
  0
ARC
  5
B007
330
1E
100
AcDbEntity
  8
002
100
AcDbCircle
 10
9107.40876593549
 20
-1746.157714970649
 30
0.0
 40
2.114285999999999
100
AcDbArc
 50
138.1896850000205
 51
221.8103149999794
  0
LINE
  5
B008
330
1E
100
AcDbEntity
  8
002
100
AcDbLine
 10
9104.943279750965
 20
-1747.567239000849
 30
0.0
 11
9108.095071756496
 21
-1751.091048369244
 31
0.0
  0
LINE
  5
B009
330
1E
100
AcDbEntity
  8
002
100
AcDbLine
 10
9105.832869579172
 20
-1747.567239000849
 30
0.0
 11
9108.984661584702
 21
-1751.091048369244
 31
0.0
  0
LINE
  5
B00A
330
1E
100
AcDbEntity
  8
002
100
AcDbLine
 10
9108.095071049389
 20
-1741.224382279162
 30
0.0
 11
9104.943280458071
 21
-1744.748191647555
 31
0.0
  0
LINE
  5
B00B
330
1E
100
AcDbEntity
  8
002
100
AcDbLine
 10
9108.984660877595
 20
-1741.224382279162
 30
0.0
 11
9105.832870286279
 21
-1744.748191647555
 31
0.0
  0
ARC
  5
B00C
330
1E
100
AcDbEntity
  8
002
100
AcDbCircle
 10
9106.519175400176
 20
-1714.443429240891
 30
0.0
 40
2.114285999999999
100
AcDbArc
 50
318.1896850000205
 51
41.81031499997946
  0
ARC
  5
B00D
330
1E
100
AcDbEntity
  8
002
100
AcDbCircle
 10
9107.408765228383
 20
-1714.443429240891
 30
0.0
 40
2.114285999999999
100
AcDbArc
 50
318.1896850000205
 51
41.81031499997946
  0
ARC
  5
B00E
330
1E
100
AcDbEntity
  8
002
100
AcDbCircle
 10
9167.871903381659
 20
-1752.500572399443
 30
0.0
 40
2.114285999999999
100
AcDbArc
 50
318.1896850000205
 51
41.81031499997946
  0
ARC
  5
B00F
330
1E
100
AcDbEntity
  8
002
100
AcDbCircle
 10
9166.608766011513
 20
-1752.500572399443
 30
0.0
 40
2.114285999999999
100
AcDbArc
 50
318.1896850000205
 51
41.81031499997946
  0
LINE
  5
B010
330
1E
100
AcDbEntity
  8
002
100
AcDbLine
 10
9179.717336381107
 20
-1679.910096157839
 30
0.0
 11
9179.294480161997
 21
-1816.915810255837
 31
0.0
  0
LINE
  5
B011
330
1E
100
AcDbEntity
  8
002
100
AcDbLine
 10
9169.447798323764
 20
-1753.910096429645
 30
0.0
 11
9166.296007732448
 21
-1757.433905798037
 31
0.0
  0
LINE
  5
B012
330
1E
100
AcDbEntity
  8
002
100
AcDbLine
 10
9168.184660953619
 20
-1753.910096429645
 30
0.0
 11
9165.032870362301
 21
-1757.433905798037
 31
0.0
  0
LINE
  5
B013
330
1E
100
AcDbEntity
  8
002
100
AcDbLine
 10
9166.296007732448
 20
-1760.252953858438
 30
0.0
 11
9169.447798323764
 21
-1763.776763226833
 31
0.0
  0
LINE
  5
B014
330
1E
100
AcDbEntity
  8
002
100
AcDbLine
 10
9169.447799030871
 20
-1766.595810580125
 30
0.0
 11
9166.296007025342
 21
-1770.11961994852
 31
0.0
  0
LINE
  5
B015
330
1E
100
AcDbEntity
  8
002
100
AcDbLine
 10
9165.032869655195
 20
-1760.252953151332
 30
0.0
 11
9168.184660953619
 21
-1763.776763226833
 31
0.0
  0
LINE
  5
B016
330
1E
100
AcDbEntity
  8
002
100
AcDbLine
 10
9168.184661660726
 20
-1766.595810580127
 30
0.0
 11
9165.032869655195
 21
-1770.11961994852
 31
0.0
  0
LINE
  5
B017
330
1E
100
AcDbEntity
  8
002
100
AcDbLine
 10
9165.032870362301
 20
-1785.624382159403
 30
0.0
 11
9168.184660953619
 21
-1789.148191527796
 31
0.0
  0
LINE
  5
B018
330
1E
100
AcDbEntity
  8
002
100
AcDbLine
 10
9169.447799030871
 20
-1791.96723888109
 30
0.0
 11
9166.296007732448
 21
-1795.491048956591
 31
0.0
  0
LINE
  5
B019
330
1E
100
AcDbEntity
  8
002
100
AcDbLine
 10
9168.184660953619
 20
-1791.967239588197
 30
0.0
 11
9165.032870362301
 21
-1795.491048956591
 31
0.0
  0
LINE
  5
B01A
330
1E
100
AcDbEntity
  8
002
100
AcDbLine
 10
9166.296007732448
 20
-1785.624382159403
 30
0.0
 11
9169.447798323764
 21
-1789.148191527796
 31
0.0
  0
LINE
  5
B01B
330
1E
100
AcDbEntity
  8
002
100
AcDbLine
 10
9169.447798323764
 20
-1779.281524730608
 30
0.0
 11
9166.296007732448
 21
-1782.805334099002
 31
0.0
  0
LINE
  5
B01C
330
1E
100
AcDbEntity
  8
002
100
AcDbLine
 10
9166.296007732448
 20
-1772.938667301814
 30
0.0
 11
9169.447799030871
 21
-1776.462477377314
 31
0.0
  0
LINE
  5
B01D
330
1E
100
AcDbEntity
  8
002
100
AcDbLine
 10
9165.032870362301
 20
-1772.938667301814
 30
0.0
 11
9168.184660953619
 21
-1776.462476670207
 31
0.0
  0
LINE
  5
B01E
330
1E
100
AcDbEntity
  8
002
100
AcDbLine
 10
9168.184660953619
 20
-1779.281524730608
 30
0.0
 11
9165.032870362301
 21
-1782.805334099002
 31
0.0
  0
LINE
  5
B01F
330
1E
100
AcDbEntity
  8
002
100
AcDbLine
 10
9168.184660953619
 20
-1817.338667889162
 30
0.0
 11
9165.032870362301
 21
-1820.862477257555
 31
0.0
  0
LINE
  5
B020
330
1E
100
AcDbEntity
  8
002
100
AcDbLine
 10
9165.032869655195
 20
-1823.681524610849
 30
0.0
 11
9168.184660953619
 21
-1827.20533468635
 31
0.0
  0
LINE
  5
B021
330
1E
100
AcDbEntity
  8
002
100
AcDbLine
 10
9166.296007732448
 20
-1810.995810460366
 30
0.0
 11
9169.447798323764
 21
-1814.519619828761
 31
0.0
  0
LINE
  5
B022
330
1E
100
AcDbEntity
  8
002
100
AcDbLine
 10
9165.032870362301
 20
-1810.995810460366
 30
0.0
 11
9168.184660953619
 21
-1814.519619828761
 31
0.0
  0
LINE
  5
B023
330
1E
100
AcDbEntity
  8
002
100
AcDbLine
 10
9169.447798323764
 20
-1804.652953031573
 30
0.0
 11
9166.296007732448
 21
-1808.176762399966
 31
0.0
  0
LINE
  5
B024
330
1E
100
AcDbEntity
  8
002
100
AcDbLine
 10
9168.184660953619
 20
-1804.652953031573
 30
0.0
 11
9165.032869655195
 21
-1808.176763107072
 31
0.0
  0
LINE
  5
B025
330
1E
100
AcDbEntity
  8
002
100
AcDbLine
 10
9166.296007025342
 20
-1798.310096309884
 30
0.0
 11
9169.447799030871
 21
-1801.833905678279
 31
0.0
  0
LINE
  5
B026
330
1E
100
AcDbEntity
  8
002
100
AcDbLine
 10
9165.032869655195
 20
-1798.310096309884
 30
0.0
 11
9168.184661660726
 21
-1801.833905678279
 31
0.0
  0
LINE
  5
B027
330
1E
100
AcDbEntity
  8
002
100
AcDbLine
 10
9168.184660953619
 20
-1842.710096190125
 30
0.0
 11
9165.032870362301
 21
-1846.23390555852
 31
0.0
  0
LINE
  5
B028
330
1E
100
AcDbEntity
  8
002
100
AcDbLine
 10
9165.032870362301
 20
-1849.05295361892
 30
0.0
 11
9168.184660953619
 21
-1852.576762987313
 31
0.0
  0
LINE
  5
B029
330
1E
100
AcDbEntity
  8
002
100
AcDbLine
 10
9168.184661660726
 20
-1830.024382039644
 30
0.0
 11
9165.032869655195
 21
-1833.548191408037
 31
0.0
  0
LINE
  5
B02A
330
1E
100
AcDbEntity
  8
002
100
AcDbLine
 10
9165.032870362301
 20
-1836.367238761331
 30
0.0
 11
9168.184660953619
 21
-1839.891048129724
 31
0.0
  0
LINE
  5
B02B
330
1E
100
AcDbEntity
  8
002
100
AcDbLine
 10
9165.032869655195
 20
-1861.738667769403
 30
0.0
 11
9168.184661660726
 21
-1865.262477137795
 31
0.0
  0
LINE
  5
B02C
330
1E
100
AcDbEntity
  8
002
100
AcDbLine
 10
9168.184661660726
 20
-1855.395810340607
 30
0.0
 11
9165.032869655195
 21
-1858.919619709002
 31
0.0
  0
ARC
  5
B02D
330
1E
100
AcDbEntity
  8
002
100
AcDbCircle
 10
9167.871903381657
 20
-1758.843429121132
 30
0.0
 40
2.114285999999999
100
AcDbArc
 50
138.1896850000205
 51
221.8103149999794
  0
ARC
  5
B02E
330
1E
100
AcDbEntity
  8
002
100
AcDbCircle
 10
9166.608765304408
 20
-1758.843429828239
 30
0.0
 40
2.114285999999999
100
AcDbArc
 50
138.1896850000205
 51
221.8103149999794
  0
ARC
  5
B02F
330
1E
100
AcDbEntity
  8
002
100
AcDbCircle
 10
9166.608765304408
 20
-1784.214858129202
 30
0.0
 40
2.114285999999999
100
AcDbArc
 50
138.1896850000205
 51
221.8103149999794
  0
ARC
  5
B030
330
1E
100
AcDbEntity
  8
002
100
AcDbCircle
 10
9167.871903381657
 20
-1796.900572279684
 30
0.0
 40
2.114285999999999
100
AcDbArc
 50
138.1896850000205
 51
221.8103149999794
  0
ARC
  5
B031
330
1E
100
AcDbEntity
  8
002
100
AcDbCircle
 10
9166.608766011513
 20
-1796.900572279684
 30
0.0
 40
2.114285999999999
100
AcDbArc
 50
138.1896850000205
 51
221.8103149999794
  0
ARC
  5
B032
330
1E
100
AcDbEntity
  8
002
100
AcDbCircle
 10
9167.871902674551
 20
-1784.214858129202
 30
0.0
 40
2.114285999999999
100
AcDbArc
 50
138.1896850000205
 51
221.8103149999794
  0
ARC
  5
B033
330
1E
100
AcDbEntity
  8
002
100
AcDbCircle
 10
9166.608765304408
 20
-1822.272001287756
 30
0.0
 40
2.114285999999999
100
AcDbArc
 50
138.1896850000205
 51
221.8103149999794
  0
ARC
  5
B034
330
1E
100
AcDbEntity
  8
002
100
AcDbCircle
 10
9167.871902674553
 20
-1809.586286430167
 30
0.0
 40
2.114285999999999
100
AcDbArc
 50
138.1896850000205
 51
221.8103149999794
  0
ARC
  5
B035
330
1E
100
AcDbEntity
  8
002
100
AcDbCircle
 10
9166.608765304408
 20
-1809.586286430167
 30
0.0
 40
2.114285999999999
100
AcDbArc
 50
138.1896850000205
 51
221.8103149999794
  0
ARC
  5
B036
330
1E
100
AcDbEntity
  8
002
100
AcDbCircle
 10
9167.871903381657
 20
-1771.529143978721
 30
0.0
 40
2.114285999999999
100
AcDbArc
 50
138.1896850000205
 51
221.8103149999794
  0
ARC
  5
B037
330
1E
100
AcDbEntity
  8
002
100
AcDbCircle
 10
9166.608766011513
 20
-1771.529143978719
 30
0.0
 40
2.114285999999999
100
AcDbArc
 50
138.1896850000205
 51
221.8103149999794
  0
ARC
  5
B038
330
1E
100
AcDbEntity
  8
002
100
AcDbCircle
 10
9166.608765304408
 20
-1847.643429588719
 30
0.0
 40
2.114285999999999
100
AcDbArc
 50
138.1896850000205
 51
221.8103149999794
  0
ARC
  5
B039
330
1E
100
AcDbEntity
  8
002
100
AcDbCircle
 10
9166.608766011513
 20
-1834.957715438237
 30
0.0
 40
2.114285999999999
100
AcDbArc
 50
138.1896850000205
 51
221.8103149999794
  0
ARC
  5
B03A
330
1E
100
AcDbEntity
  8
002
100
AcDbCircle
 10
9166.608766011513
 20
-1860.329143739201
 30
0.0
 40
2.114285999999999
100
AcDbArc
 50
138.1896850000205
 51
221.8103149999794
  0
ARC
  5
B03B
330
1E
100
AcDbEntity
  8
002
100
AcDbCircle
 10
9167.871902674553
 20
-1765.186286549926
 30
0.0
 40
2.114285999999999
100
AcDbArc
 50
318.1896850000205
 51
41.81031499997946
  0
ARC
  5
B03C
330
1E
100
AcDbEntity
  8
002
100
AcDbCircle
 10
9166.608765304408
 20
-1765.186286549926
 30
0.0
 40
2.114285999999999
100
AcDbArc
 50
318.1896850000205
 51
41.81031499997946
  0
ARC
  5
B03D
330
1E
100
AcDbEntity
  8
002
100
AcDbCircle
 10
9167.871903381659
 20
-1790.557715557995
 30
0.0
 40
2.114285999999999
100
AcDbArc
 50
318.1896850000205
 51
41.81031499997946
  0
ARC
  5
B03E
330
1E
100
AcDbEntity
  8
002
100
AcDbCircle
 10
9166.608765304408
 20
-1790.557714850889
 30
0.0
 40
2.114285999999999
100
AcDbArc
 50
318.1896850000205
 51
41.81031499997946
  0
ARC
  5
B03F
330
1E
100
AcDbEntity
  8
002
100
AcDbCircle
 10
9167.871903381659
 20
-1777.872000700408
 30
0.0
 40
2.114285999999999
100
AcDbArc
 50
318.1896850000205
 51
41.81031499997946
  0
ARC
  5
B040
330
1E
100
AcDbEntity
  8
002
100
AcDbCircle
 10
9166.608766011513
 20
-1777.872000700408
 30
0.0
 40
2.114285999999999
100
AcDbArc
 50
318.1896850000205
 51
41.81031499997946
  0
ARC
  5
B041
330
1E
100
AcDbEntity
  8
002
100
AcDbCircle
 10
9167.871902674553
 20
-1803.243429708478
 30
0.0
 40
2.114285999999999
100
AcDbArc
 50
318.1896850000205
 51
41.81031499997946
  0
ARC
  5
B042
330
1E
100
AcDbEntity
  8
002
100
AcDbCircle
 10
9166.608765304408
 20
-1803.243429708478
 30
0.0
 40
2.114285999999999
100
AcDbArc
 50
318.1896850000205
 51
41.81031499997946
  0
ARC
  5
B043
330
1E
100
AcDbEntity
  8
002
100
AcDbCircle
 10
9167.871903381657
 20
-1815.92914385896
 30
0.0
 40
2.114285999999999
100
AcDbArc
 50
332.1818609999535
 51
41.81031499997946
  0
ARC
  5
B044
330
1E
100
AcDbEntity
  8
002
100
AcDbCircle
 10
9166.608766011513
 20
-1815.92914385896
 30
0.0
 40
2.114285999999999
100
AcDbArc
 50
318.1896850000205
 51
41.81031499997946
  0
LINE
  5
B045
330
1E
100
AcDbEntity
  8
002
100
AcDbLine
 10
9169.741847971614
 20
-1816.915810255837
 30
0.0
 11
9179.294480161997
 21
-1816.915810255837
 31
0.0
  0
ARC
  5
B046
330
1E
100
AcDbEntity
  8
002
100
AcDbCircle
 10
9166.608765304408
 20
-1853.986286310406
 30
0.0
 40
2.114285999999999
100
AcDbArc
 50
318.1896850000205
 51
41.81031499997946
  0
ARC
  5
B047
330
1E
100
AcDbEntity
  8
002
100
AcDbCircle
 10
9166.608766011513
 20
-1841.300572159926
 30
0.0
 40
2.114285999999999
100
AcDbArc
 50
318.1896850000205
 51
41.81031499997946
  0
ARC
  5
B048
330
1E
100
AcDbEntity
  8
002
100
AcDbCircle
 10
9166.608765304408
 20
-1866.672001167995
 30
0.0
 40
2.114285999999999
100
AcDbArc
 50
318.1896850000205
 51
41.81031499997946
  0
ARC
  5
B049
330
1E
100
AcDbEntity
  8
002
100
AcDbCircle
 10
9166.608765304408
 20
-1828.614858009443
 30
0.0
 40
2.114285999999999
100
AcDbArc
 50
318.1896850000205
 51
41.81031499997946
  0
LINE
  5
B04A
330
1E
100
AcDbEntity
  8
002
100
AcDbLine
 10
9168.269943688285
 20
-1645.720984070081
 30
0.0
 11
9167.750480419407
 21
-1644.821247259564
 31
0.0
  0
LINE
  5
B04B
330
1E
100
AcDbEntity
  8
002
100
AcDbLine
 10
9166.296007732448
 20
-1709.510095842297
 30
0.0
 11
9168.300194423489
 21
-1709.510095842297
 31
0.0
  0
LINE
  5
B04C
330
1E
100
AcDbEntity
  8
002
100
AcDbLine
 10
9165.032870362301
 20
-1709.510095842297
 30
0.0
 11
9168.184660953619
 21
-1713.03390521069
 31
0.0
  0
LINE
  5
B04D
330
1E
100
AcDbEntity
  8
002
100
AcDbLine
 10
9166.296007732448
 20
-1709.510095842297
 30
0.0
 11
9169.447799030871
 21
-1713.033905917796
 31
0.0
  0
LINE
  5
B04E
330
1E
100
AcDbEntity
  8
002
100
AcDbLine
 10
9169.447799030871
 20
-1728.538667421573
 30
0.0
 11
9166.296007732448
 21
-1732.062477497074
 31
0.0
  0
LINE
  5
B04F
330
1E
100
AcDbEntity
  8
002
100
AcDbLine
 10
9166.296007025342
 20
-1734.881524850368
 30
0.0
 11
9169.447799030871
 21
-1738.405334218761
 31
0.0
  0
LINE
  5
B050
330
1E
100
AcDbEntity
  8
002
100
AcDbLine
 10
9165.032869655195
 20
-1734.881524850368
 30
0.0
 11
9168.184661660726
 21
-1738.405334218761
 31
0.0
  0
LINE
  5
B051
330
1E
100
AcDbEntity
  8
002
100
AcDbLine
 10
9168.184660953619
 20
-1728.53866812868
 30
0.0
 11
9165.032870362301
 21
-1732.062477497074
 31
0.0
  0
LINE
  5
B052
330
1E
100
AcDbEntity
  8
002
100
AcDbLine
 10
9165.032870362301
 20
-1722.195810699886
 30
0.0
 11
9168.184660953619
 21
-1725.719620068279
 31
0.0
  0
LINE
  5
B053
330
1E
100
AcDbEntity
  8
002
100
AcDbLine
 10
9166.296007732448
 20
-1722.195810699886
 30
0.0
 11
9169.447798323764
 21
-1725.719620068279
 31
0.0
  0
LINE
  5
B054
330
1E
100
AcDbEntity
  8
002
100
AcDbLine
 10
9169.447798323764
 20
-1715.85295327109
 30
0.0
 11
9166.296007732448
 21
-1719.376762639485
 31
0.0
  0
LINE
  5
B055
330
1E
100
AcDbEntity
  8
002
100
AcDbLine
 10
9168.184660953619
 20
-1715.85295327109
 30
0.0
 11
9165.032870362301
 21
-1719.376762639485
 31
0.0
  0
LINE
  5
B056
330
1E
100
AcDbEntity
  8
002
100
AcDbLine
 10
9166.296007732448
 20
-1747.567239000849
 30
0.0
 11
9169.447798323764
 21
-1751.091048369244
 31
0.0
  0
LINE
  5
B057
330
1E
100
AcDbEntity
  8
002
100
AcDbLine
 10
9165.032870362301
 20
-1747.567239000849
 30
0.0
 11
9168.184660953619
 21
-1751.091048369244
 31
0.0
  0
LINE
  5
B058
330
1E
100
AcDbEntity
  8
002
100
AcDbLine
 10
9169.447798323764
 20
-1741.224381572055
 30
0.0
 11
9166.296007732448
 21
-1744.748190940448
 31
0.0
  0
LINE
  5
B059
330
1E
100
AcDbEntity
  8
002
100
AcDbLine
 10
9168.184660953619
 20
-1741.224381572055
 30
0.0
 11
9165.032869655195
 21
-1744.748191647555
 31
0.0
  0
ARC
  5
B05A
330
1E
100
AcDbEntity
  8
002
100
AcDbCircle
 10
9143.522988962949
 20
-1645.360443757382
 30
0.0
 40
0.7210800000000001
100
AcDbArc
 50
210.0000000000103
 51
353.0000000000202
  0
LINE
  5
B05B
330
1E
100
AcDbEntity
  8
002
100
AcDbLine
 10
9142.898514680213
 20
-1645.720984777188
 30
0.0
 11
9142.379050704231
 21
-1644.821247259564
 31
0.0
  0
LINE
  5
B05C
330
1E
100
AcDbEntity
  8
002
100
AcDbLine
 10
9156.490444860649
 20
-1645.720984777188
 30
0.0
 11
9157.009908836633
 21
-1644.821247259564
 31
0.0
  0
ARC
  5
B05D
330
1E
100
AcDbEntity
  8
002
100
AcDbCircle
 10
9155.865971285019
 20
-1645.36044446449
 30
0.0
 40
0.7210800000000001
100
AcDbArc
 50
186.9999999999797
 51
329.9999999999897
  0
LINE
  5
B05E
330
1E
100
AcDbEntity
  8
002
100
AcDbLine
 10
9131.119016559685
 20
-1645.720984777188
 30
0.0
 11
9131.638479828563
 21
-1644.821246552457
 31
0.0
  0
ARC
  5
B05F
330
1E
100
AcDbEntity
  8
002
100
AcDbCircle
 10
9130.494542276947
 20
-1645.360443757382
 30
0.0
 40
0.7210800000000001
100
AcDbArc
 50
186.9999999999797
 51
329.9999999999897
  0
ARC
  5
B060
330
1E
100
AcDbEntity
  8
002
100
AcDbCircle
 10
9083.179051335314
 20
-1666.069056501032
 30
0.0
 40
84.571429
100
AcDbArc
 50
355.0000000000276
 51
0.0
  0
LINE
  5
B061
330
1E
100
AcDbEntity
  8
002
100
AcDbLine
 10
9167.428659859835
 20
-1673.439942537868
 30
0.0
 11
9164.272930683747
 21
-1709.510096549404
 31
0.0
  0
LINE
  5
B062
330
1E
100
AcDbEntity
  8
002
100
AcDbLine
 10
9143.351623048744
 20
-1661.304382211887
 30
0.0
 11
9156.037337199228
 21
-1661.30438150478
 31
0.0
  0
LINE
  5
B063
330
1E
100
AcDbEntity
  8
002
100
AcDbLine
 10
9143.351623048744
 20
-1657.075810121286
 30
0.0
 11
9143.870826102324
 21
-1661.304382211887
 31
0.0
  0
ARC
  5
B064
330
1E
100
AcDbEntity
  8
002
100
AcDbCircle
 10
9083.179051335314
 20
-1666.069056501032
 30
0.0
 40
73.83085699999999
100
AcDbArc
 50
355.0000000000276
 51
0.0
  0
LINE
  5
B065
330
1E
100
AcDbEntity
  8
002
100
AcDbLine
 10
9156.037337199228
 20
-1657.075810828393
 30
0.0
 11
9155.518133438539
 21
-1661.304382211887
 31
0.0
  0
LINE
  5
B066
330
1E
100
AcDbEntity
  8
002
100
AcDbLine
 10
9130.665908191154
 20
-1657.075810121286
 30
0.0
 11
9130.146705137574
 21
-1661.304382211887
 31
0.0
  0
LINE
  5
B067
330
1E
100
AcDbEntity
  8
002
100
AcDbLine
 10
9136.949526335142
 20
-1709.510095842297
 30
0.0
 11
9131.638479828563
 21
-1679.38965354607
 31
0.0
  0
LINE
  5
B068
330
1E
100
AcDbEntity
  8
002
100
AcDbLine
 10
9156.728959756117
 20
-1672.503839932702
 30
0.0
 11
9153.491332058418
 21
-1709.510095842297
 31
0.0
  0
LINE
  5
B069
330
1E
100
AcDbEntity
  8
002
100
AcDbLine
 10
9164.640553377964
 20
-1705.308142079367
 30
0.0
 11
9157.009908129525
 21
-1662.032601787345
 31
0.0
  0
LINE
  5
B06A
330
1E
100
AcDbEntity
  8
002
100
AcDbLine
 10
9158.273485320089
 20
-1709.510095842297
 30
0.0
 11
9155.077228318836
 21
-1691.383219759321
 31
0.0
  0
LINE
  5
B06B
330
1E
100
AcDbEntity
  8
002
100
AcDbLine
 10
9142.379050704231
 20
-1699.991067487477
 30
0.0
 11
9131.638479828563
 21
-1639.078259625948
 31
0.0
  0
LINE
  5
B06C
330
1E
100
AcDbEntity
  8
002
100
AcDbLine
 10
9130.665908191154
 20
-1652.672941865976
 30
0.0
 11
9130.665908191154
 21
-1657.075810121286
 31
0.0
  0
LINE
  5
B06D
330
1E
100
AcDbEntity
  8
002
100
AcDbLine
 10
9143.351623048744
 20
-1652.672941865976
 30
0.0
 11
9143.351623048744
 21
-1657.075810121286
 31
0.0
  0
LINE
  5
B06E
330
1E
100
AcDbEntity
  8
002
100
AcDbLine
 10
9156.03733649212
 20
-1652.672941865976
 30
0.0
 11
9156.037337199228
 21
-1657.075810828393
 31
0.0
  0
ARC
  5
B06F
330
1E
100
AcDbEntity
  8
002
100
AcDbCircle
 10
9167.871903381657
 20
-1733.472000820167
 30
0.0
 40
2.114285999999999
100
AcDbArc
 50
138.1896850000205
 51
221.8103149999794
  0
ARC
  5
B070
330
1E
100
AcDbEntity
  8
002
100
AcDbCircle
 10
9166.608766011513
 20
-1733.472000820167
 30
0.0
 40
2.114285999999999
100
AcDbArc
 50
138.1896850000205
 51
221.8103149999794
  0
ARC
  5
B071
330
1E
100
AcDbEntity
  8
002
100
AcDbCircle
 10
9167.871902674551
 20
-1720.786286669684
 30
0.0
 40
2.114285999999999
100
AcDbArc
 50
138.1896850000205
 51
221.8103149999794
  0
ARC
  5
B072
330
1E
100
AcDbEntity
  8
002
100
AcDbCircle
 10
9166.608765304408
 20
-1720.786286669684
 30
0.0
 40
2.114285999999999
100
AcDbArc
 50
138.1896850000205
 51
221.8103149999794
  0
ARC
  5
B073
330
1E
100
AcDbEntity
  8
002
100
AcDbCircle
 10
9167.871902674553
 20
-1746.157714970649
 30
0.0
 40
2.114285999999999
100
AcDbArc
 50
138.1896850000205
 51
221.8103149999794
  0
ARC
  5
B074
330
1E
100
AcDbEntity
  8
002
100
AcDbCircle
 10
9166.608765304408
 20
-1746.157714970649
 30
0.0
 40
2.114285999999999
100
AcDbArc
 50
138.1896850000205
 51
221.8103149999794
  0
LINE
  5
B075
330
1E
100
AcDbEntity
  8
002
100
AcDbLine
 10
9200.437337079465
 20
-1678.218667038756
 30
0.0
 11
9200.437337079465
 21
-1637.624382322899
 31
0.0
  0
LINE
  5
B076
330
1E
100
AcDbEntity
  8
002
100
AcDbLine
 10
9190.711622826718
 20
-1652.341437479033
 30
0.0
 11
9189.865908974285
 21
-1652.341437479033
 31
0.0
  0
LINE
  5
B077
330
1E
100
AcDbEntity
  8
002
100
AcDbLine
 10
9190.711622826718
 20
-1652.341437479033
 30
0.0
 11
9191.980194312478
 21
-1654.538667856875
 31
0.0
  0
ARC
  5
B078
330
1E
100
AcDbEntity
  8
002
100
AcDbCircle
 10
9168.894417971023
 20
-1645.36044446449
 30
0.0
 40
0.7210800000000001
100
AcDbArc
 50
210.0000000000103
 51
353.0000000000202
  0
LINE
  5
B079
330
1E
100
AcDbEntity
  8
002
100
AcDbLine
 10
9189.865908267178
 20
-1660.458667652345
 30
0.0
 11
9189.865908974285
 21
-1662.15009606432
 31
0.0
  0
LINE
  5
B07A
330
1E
100
AcDbEntity
  8
002
100
AcDbLine
 10
9183.52305154549
 20
-1660.458667652345
 30
0.0
 11
9182.67733698595
 21
-1661.304382211887
 31
0.0
  0
LINE
  5
B07B
330
1E
100
AcDbEntity
  8
002
100
AcDbLine
 10
9186.73931047626
 20
-1659.612953092802
 30
0.0
 11
9189.020193707637
 21
-1659.612953092802
 31
0.0
  0
LINE
  5
B07C
330
1E
100
AcDbEntity
  8
002
100
AcDbLine
 10
9185.637336883683
 20
-1661.304382211887
 30
0.0
 11
9186.73931047626
 21
-1659.612953092802
 31
0.0
  0
LINE
  5
B07D
330
1E
100
AcDbEntity
  8
002
100
AcDbLine
 10
9189.865908267178
 20
-1660.458667652345
 30
0.0
 11
9189.020193707637
 21
-1659.612953092802
 31
0.0
  0
LINE
  5
B07E
330
1E
100
AcDbEntity
  8
002
100
AcDbLine
 10
9189.865908974285
 20
-1662.15009606432
 30
0.0
 11
9191.980194312478
 21
-1663.614916551916
 31
0.0
  0
LINE
  5
B07F
330
1E
100
AcDbEntity
  8
002
100
AcDbLine
 10
9168.723051349706
 20
-1657.075810121285
 30
0.0
 11
9169.24225440329
 21
-1661.304382211887
 31
0.0
  0
LINE
  5
B080
330
1E
100
AcDbEntity
  8
002
100
AcDbLine
 10
9172.528765806985
 20
-1661.30438150478
 30
0.0
 11
9172.528765806985
 21
-1679.910096157839
 31
0.0
  0
LINE
  5
B081
330
1E
100
AcDbEntity
  8
002
100
AcDbLine
 10
9171.260194321225
 20
-1662.036792102131
 30
0.0
 11
9171.260193614118
 21
-1679.910096157839
 31
0.0
  0
LINE
  5
B082
330
1E
100
AcDbEntity
  8
002
100
AcDbLine
 10
9172.528765806985
 20
-1679.910096157839
 30
0.0
 11
9171.260193614118
 21
-1679.177686267594
 31
0.0
  0
LINE
  5
B083
330
1E
100
AcDbEntity
  8
002
100
AcDbLine
 10
9171.260194321225
 20
-1663.841525183405
 30
0.0
 11
9172.528765806985
 21
-1664.573934366543
 31
0.0
  0
LINE
  5
B084
330
1E
100
AcDbEntity
  8
002
100
AcDbLine
 10
9168.300194423489
 20
-1663.841525183405
 30
0.0
 11
9171.260194321225
 21
-1663.841525183405
 31
0.0
  0
LINE
  5
B085
330
1E
100
AcDbEntity
  8
002
100
AcDbLine
 10
9172.528765806985
 20
-1661.30438150478
 30
0.0
 11
9171.260194321225
 21
-1662.036792102131
 31
0.0
  0
LINE
  5
B086
330
1E
100
AcDbEntity
  8
002
100
AcDbLine
 10
9168.723051349706
 20
-1661.304382211887
 30
0.0
 11
9185.637336883683
 21
-1661.304382211887
 31
0.0
  0
LINE
  5
B087
330
1E
100
AcDbEntity
  8
002
100
AcDbLine
 10
9168.300194423489
 20
-1663.841525183405
 30
0.0
 11
9168.300194423489
 21
-1709.510095842297
 31
0.0
  0
LINE
  5
B088
330
1E
100
AcDbEntity
  8
002
100
AcDbLine
 10
9168.723051349706
 20
-1652.672941865976
 30
0.0
 11
9168.723051349706
 21
-1657.075810121285
 31
0.0
  0
LINE
  5
B089
330
1E
100
AcDbEntity
  8
002
100
AcDbLine
 10
9191.980194312478
 20
-1654.538667856875
 30
0.0
 11
9191.980194312478
 21
-1679.910096157839
 31
0.0
  0
LINE
  5
B08A
330
1E
100
AcDbEntity
  8
002
100
AcDbLine
 10
9190.711622826718
 20
-1652.341437479033
 30
0.0
 11
9190.711622119613
 21
-1679.910096157839
 31
0.0
  0
LWPOLYLINE
  5
B08B
330
1E
100
AcDbEntity
  8
001
100
AcDbPolyline
 90
        3
 70
     0
 43
0.0
 10
9195.574337259605
 20
-1660.403996680856
 10
9191.980194312478
 20
-1667.865707451523
 10
9198.823668896407
 20
-1663.200747168568
  0
ARC
  5
B08C
330
1E
100
AcDbEntity
  8
002
100
AcDbCircle
 10
9166.608765304408
 20
-1727.129143391372
 30
0.0
 40
2.114285999999999
100
AcDbArc
 50
318.1896850000205
 51
41.81031499997946
  0
ARC
  5
B08D
330
1E
100
AcDbEntity
  8
002
100
AcDbCircle
 10
9167.871902674551
 20
-1739.814858248962
 30
0.0
 40
2.114285999999999
100
AcDbArc
 50
318.1896850000205
 51
41.81031499997946
  0
ARC
  5
B08E
330
1E
100
AcDbEntity
  8
002
100
AcDbCircle
 10
9166.608765304408
 20
-1739.814858248961
 30
0.0
 40
2.114285999999999
100
AcDbArc
 50
318.1896850000205
 51
41.81031499997946
  0
ARC
  5
B08F
330
1E
100
AcDbEntity
  8
002
100
AcDbCircle
 10
9167.871903381657
 20
-1727.12914409848
 30
0.0
 40
2.114285999999999
100
AcDbArc
 50
318.1896850000205
 51
41.81031499997946
  0
LINE
  5
B090
330
1E
100
AcDbEntity
  8
003
100
AcDbLine
 10
9202.408765619948
 20
-1701.066925505305
 30
0.0
 11
9202.408765619948
 21
-1723.066925505305
 31
0.0
  0
LINE
  5
B091
330
1E
100
AcDbEntity
  8
003
 62
     3
100
AcDbLine
 10
9202.408765619948
 20
-1701.066925505305
 30
0.0
 11
9202.408765619948
 21
-1723.066925505305
 31
0.0
  0
ARC
  5
B092
330
1E
100
AcDbEntity
  8
002
100
AcDbCircle
 10
9167.871903381657
 20
-1714.443429240891
 30
0.0
 40
2.114285999999999
100
AcDbArc
 50
318.1896850000205
 51
41.81031499997946
  0
ARC
  5
B093
330
1E
100
AcDbEntity
  8
002
100
AcDbCircle
 10
9166.608766011513
 20
-1714.443429240891
 30
0.0
 40
2.114285999999999
100
AcDbArc
 50
318.1896850000205
 51
41.81031499997946
  0
LINE
  5
B094
330
1E
100
AcDbEntity
  8
001
100
AcDbLine
 10
9045.448537175877
 20
-1459.93699291489
 30
0.0
 11
8910.698537175877
 21
-1459.93699291489
 31
0.0
  0
LINE
  5
B095
330
1E
100
AcDbEntity
  8
003
100
AcDbLine
 10
9080.151932990125
 20
-1576.066925505305
 30
0.0
 11
8939.058765619948
 21
-1576.066925505305
 31
0.0
  0
TEXT
  5
B096
330
1E
100
AcDbEntity
  8
001
100
AcDbText
 10
8920.323537175876
 20
-1456.436955914891
 30
0.0
 40
11.19999999999999
  1
ヘッドキャップ　Ｌタイプ
 41
0.716146
100
AcDbText
  0
LINE
  5
B097
330
1E
100
AcDbEntity
  8
001
100
AcDbLine
 10
9013.362939619948
 20
-1529.650506505304
 30
0.0
 11
8926.737939619949
 21
-1529.650506505304
 31
0.0
  0
TEXT
  5
B098
330
1E
100
AcDbEntity
  8
001
100
AcDbText
 10
8936.362939619948
 20
-1526.150467505305
 30
0.0
 40
11.19999999999999
  1
アンカーヘッド
 41
0.716146
100
AcDbText
  0
LINE
  5
B099
330
1E
100
AcDbEntity
  8
001
100
AcDbLine
 10
8959.770307619949
 20
-1611.738824505304
 30
0.0
 11
8887.599479619948
 21
-1633.072023505305
 31
0.0
  0
LINE
  5
B09A
330
1E
100
AcDbEntity
  8
003
  6
ByBlock
100
AcDbLine
 10
8952.008765572633
 20
-1576.066925822531
 30
0.0
 11
8949.821548956732
 21
-1551.066925505305
 31
0.0
  0
LWPOLYLINE
  5
B09B
330
1E
100
AcDbEntity
  8
001
100
AcDbPolyline
 90
        3
 70
     0
 43
0.0
 10
8952.706095619948
 20
-1616.062237505304
 10
8959.770307619949
 20
-1611.738824505304
 10
8951.490813619948
 20
-1611.950904505305
  0
LWPOLYLINE
  5
B09C
330
1E
100
AcDbEntity
  8
002
100
AcDbPolyline
 90
       37
 70
     0
 43
0.0
 10
9179.294480161997
 20
-1443.110096560853
 10
9179.132969902104
 20
-1442.002408131271
 10
9178.649674437981
 20
-1440.903181648538
 10
9177.848284159908
 20
-1439.820814005683
 10
9176.734921905515
 20
-1438.763571988083
 10
9175.318092755158
 20
-1437.739533583608
 10
9173.608618978127
 20
-1436.756521514577
 10
9171.619559422454
 20
-1435.822043840793
 10
9169.36610910576
 20
-1434.943238805211
 10
9166.865481835531
 20
-1434.126821093828
 10
9164.136779394349
 20
-1433.37902597424
 10
9161.200846583019
 20
-1432.705566162129
 10
9158.080110707317
 20
-1432.111587273544
 10
9154.798411165268
 20
-1431.601624691378
 10
9151.380817720689
 20
-1431.179575988213
 10
9147.853436048839
 20
-1430.848663449645
 10
9144.243211867822
 20
-1430.611416396635
 10
9140.577723756321
 20
-1430.469646436755
 10
9136.884973142874
 20
-1430.424436857594
 10
9133.193167931191
 20
-1430.476131313045
 10
9129.530510368137
 20
-1430.624338065956
 10
9125.924977840615
 20
-1430.867922917044
 10
9122.40411498618
 20
-1431.205024761267
 10
9118.99481661125
 20
-1431.633070437045
 10
9115.723126872795
 20
-1432.148787454196
 10
9112.61403704578
 20
-1432.748237935053
 10
9109.69129813988
 20
-1433.426843363209
 10
9106.97723705171
 20
-1434.17941852464
 10
9104.492586152094
 20
-1435.000214641213
 10
9102.256325601251
 20
-1435.882962504205
 10
9100.285538391911
 20
-1436.820918436245
 10
9098.595278827444
 20
-1437.806916617213
 10
9097.198460091886
 20
-1438.83342635989
 10
9096.105751012357
 20
-1439.892604435855
 10
9095.325498984404
 20
-1440.976362250643
 10
9094.863664918195
 20
-1442.07641816963
 10
9094.723775862354
 20
-1443.184371764257
  0
LWPOLYLINE
  5
B09D
330
1E
100
AcDbEntity
  8
002
100
AcDbPolyline
 90
       37
 70
     0
 43
0.0
 10
9183.52305154549
 20
-1443.110095853746
 10
9183.346050697343
 20
-1441.635918929221
 10
9182.816394484216
 20
-1440.172960960888
 10
9181.93811553608
 20
-1438.732356759228
 10
9180.717896719126
 20
-1437.325070014883
 10
9179.165025173817
 20
-1435.961810567163
 10
9177.291318775786
 20
-1434.652953793865
 10
9175.111037747489
 20
-1433.40846070822
 10
9172.640775763765
 20
-1432.237803005558
 10
9169.899331965494
 20
-1431.149890231325
 10
9166.90757236668
 20
-1430.153001898819
 10
9163.688263684361
 20
-1429.254724556698
 10
9160.26590858272
 20
-1428.461894513322
 10
9156.666551925823
 20
-1427.780546925067
 10
9152.917588444591
 20
-1427.215866298855
 10
9149.047548483428
 20
-1426.772150429698
 10
9145.085885868203
 20
-1426.452776459587
 10
9141.062752339168
 20
-1426.260174714529
 10
9137.008765619949
 20
-1426.19581031977
 10
9132.954778193624
 20
-1426.260174007422
 10
9128.931643957482
 20
-1426.452776459587
 10
9124.969982756466
 20
-1426.772150429698
 10
9121.099942795307
 20
-1427.215866298855
 10
9117.350978606969
 20
-1427.780547632175
 10
9113.751622657179
 20
-1428.461894513322
 10
9110.329267555535
 20
-1429.254724556698
 10
9107.109958873218
 20
-1430.153001898819
 10
9104.118198567299
 20
-1431.149889524218
 10
9101.376755476133
 20
-1432.237803005558
 10
9098.906493492409
 20
-1433.40846070822
 10
9096.72621246411
 20
-1434.652953793865
 10
9094.85250606608
 20
-1435.961810567161
 10
9093.299634520773
 20
-1437.325070014883
 10
9092.079415703819
 20
-1438.732356759228
 10
9091.201136755683
 20
-1440.172960960888
 10
9090.671480542555
 20
-1441.635918929221
 10
9090.494479694408
 20
-1443.110095853746
  0
LINE
  5
B09E
330
1E
100
AcDbEntity
  8
002
100
AcDbLine
 10
9126.180910897424
 20
-1612.252953314828
 30
0.0
 11
9131.215622902344
 21
-1612.252953314828
 31
0.0
  0
LWPOLYLINE
  5
B09F
330
1E
100
AcDbEntity
  8
001
100
AcDbPolyline
 90
        3
 70
     0
 43
0.0
 10
9080.849946081364
 20
-1513.057151730139
 10
9087.253095175876
 20
-1518.310214914889
 10
9084.33433635772
 20
-1510.559353944399
  0
LINE
  5
B0A0
330
1E
100
AcDbEntity
  8
002
100
AcDbLine
 10
9117.007623110373
 20
-1556.102545687035
 30
0.0
 11
9106.267051527597
 21
-1495.189738532615
 31
0.0
  0
LINE
  5
B0A1
330
1E
100
AcDbEntity
  8
001
100
AcDbLine
 10
9087.253095175876
 20
-1518.31021491489
 30
0.0
 11
9045.448537175877
 21
-1459.93699291489
 31
0.0
  0
LINE
  5
B0A2
330
1E
100
AcDbEntity
  8
002
100
AcDbLine
 10
9088.507264273221
 20
-1587.407442753439
 30
0.0
 11
9094.719128756587
 21
-1443.292192820465
 31
0.0
  0
LINE
  5
B0A3
330
1E
100
AcDbEntity
  8
002
100
AcDbLine
 10
9084.274673694784
 20
-1587.409591650946
 30
0.0
 11
9090.494479694408
 21
-1443.110095853746
 31
0.0
  0
LINE
  5
B0A4
330
1E
100
AcDbEntity
  8
002
100
AcDbLine
 10
9117.007622403265
 20
-1515.791152474021
 30
0.0
 11
9111.349858814453
 21
-1483.704381983818
 31
0.0
  0
ARC
  5
B0A5
330
1E
100
AcDbEntity
  8
002
100
AcDbCircle
 10
9092.608765739708
 20
-1598.402758746524
 30
0.0
 40
8.457142999999998
100
AcDbArc
 50
140.1682750000025
 51
180.0
  0
ARC
  5
B0A6
330
1E
100
AcDbEntity
  8
002
100
AcDbCircle
 10
9075.825376984637
 20
-1587.045397717509
 30
0.0
 40
8.457142999999998
100
AcDbArc
 50
320.1944290000356
 51
357.5318820000225
  0
ARC
  5
B0A7
330
1E
100
AcDbEntity
  8
002
100
AcDbCircle
 10
9087.935471567002
 20
-1598.934242830682
 30
0.0
 40
8.457142999999998
100
AcDbArc
 50
140.1944290000356
 51
171.4692340000372
  0
LINE
  5
B0A8
330
1E
100
AcDbEntity
  8
002
100
AcDbLine
 10
9082.322333487152
 20
-1592.459529079078
 30
0.0
 11
9081.438514357385
 21
-1593.52011217622
 31
0.0
  0
LINE
  5
B0A9
330
1E
100
AcDbEntity
  8
002
100
AcDbLine
 10
9125.591622248119
 20
-1614.790096286346
 30
0.0
 11
9123.054479276602
 21
-1614.790096286346
 31
0.0
  0
ARC
  5
B0AA
330
1E
100
AcDbEntity
  8
002
100
AcDbCircle
 10
9122.465192041509
 20
-1612.675810241046
 30
0.0
 40
0.422857
100
AcDbArc
 50
353.0000000000202
 51
90.0
  0
LINE
  5
B0AB
330
1E
100
AcDbEntity
  8
002
100
AcDbLine
 10
9122.465192041509
 20
-1612.252953314828
 30
0.0
 11
9117.43048003659
 21
-1612.252953314828
 31
0.0
  0
LINE
  5
B0AC
330
1E
100
AcDbEntity
  8
002
100
AcDbLine
 10
9117.43048003659
 20
-1612.252953314828
 30
0.0
 11
9117.007622403265
 21
-1612.497089709206
 31
0.0
  0
ARC
  5
B0AD
330
1E
100
AcDbEntity
  8
002
100
AcDbCircle
 10
9126.180910897423
 20
-1612.675810241046
 30
0.0
 40
0.422857
100
AcDbArc
 50
90.0
 51
186.9999999999797
  0
LINE
  5
B0AE
330
1E
100
AcDbEntity
  8
002
100
AcDbLine
 10
9122.580089115277
 20
-1615.20980163764
 30
0.0
 11
9123.054479276602
 21
-1614.790096286346
 31
0.0
  0
LINE
  5
B0AF
330
1E
100
AcDbEntity
  8
002
100
AcDbLine
 10
9126.066013116549
 20
-1615.209800930531
 30
0.0
 11
9125.591622248119
 21
-1614.790096286346
 31
0.0
  0
ARC
  5
B0B0
330
1E
100
AcDbEntity
  8
002
100
AcDbCircle
 10
9080.057966855969
 20
-1587.043249527108
 30
0.0
 40
8.457142999999998
100
AcDbArc
 50
320.1682750000025
 51
357.5318820000225
  0
LINE
  5
B0B1
330
1E
100
AcDbEntity
  8
002
100
AcDbLine
 10
9086.552451313174
 20
-1592.460345080304
 30
0.0
 11
9086.114280575397
 21
-1592.985662486222
 31
0.0
  0
LINE
  5
B0B2
330
1E
100
AcDbEntity
  8
002
100
AcDbLine
 10
9100.80948259646
 20
-1612.252953314828
 30
0.0
 11
9105.844194601381
 21
-1612.252953314828
 31
0.0
  0
ARC
  5
B0B3
330
1E
100
AcDbEntity
  8
002
100
AcDbCircle
 10
9100.80948259646
 20
-1612.675810241046
 30
0.0
 40
0.422857
100
AcDbArc
 50
90.0
 51
186.9999999999797
  0
LINE
  5
B0B4
330
1E
100
AcDbEntity
  8
002
100
AcDbLine
 10
9105.844194601381
 20
-1612.252953314828
 30
0.0
 11
9106.267051527597
 21
-1612.497090416314
 31
0.0
  0
LINE
  5
B0B5
330
1E
100
AcDbEntity
  8
002
100
AcDbLine
 10
9100.694584815585
 20
-1615.209800930531
 30
0.0
 11
9100.220193947155
 21
-1614.790096286346
 31
0.0
  0
LINE
  5
B0B6
330
1E
100
AcDbEntity
  8
002
100
AcDbLine
 10
9091.34019425395
 20
-1614.790096286346
 30
0.0
 11
9090.494479694408
 21
-1615.635810845886
 31
0.0
  0
LINE
  5
B0B7
330
1E
100
AcDbEntity
  8
002
100
AcDbLine
 10
9100.220193947155
 20
-1614.790096286346
 30
0.0
 11
9091.34019425395
 21
-1614.790096286346
 31
0.0
  0
LINE
  5
B0B8
330
1E
100
AcDbEntity
  8
002
100
AcDbLine
 10
9117.007623110373
 20
-1596.413939607158
 30
0.0
 11
9106.267050820489
 21
-1535.50113174563
 31
0.0
  0
LINE
  5
B0B9
330
1E
100
AcDbEntity
  8
002
100
AcDbLine
 10
9106.267050820489
 20
-1483.704381983818
 30
0.0
 11
9117.007622403265
 21
-1483.704381983818
 31
0.0
  0
LWPOLYLINE
  5
B0BA
330
1E
100
AcDbEntity
  8
001
100
AcDbPolyline
 90
        3
 70
     0
 43
0.0
 10
9173.824233194919
 20
-1514.819327513309
 10
9167.750480419407
 20
-1520.450004059823
 10
9175.825843233331
 20
-1518.610570928145
  0
LINE
  5
B0BB
330
1E
100
AcDbEntity
  8
002
100
AcDbLine
 10
9167.750480419407
 20
-1561.699835382602
 30
0.0
 11
9157.009908836633
 21
-1500.78702822818
 31
0.0
  0
LINE
  5
B0BC
330
1E
100
AcDbEntity
  8
002
100
AcDbLine
 10
9142.379051411337
 20
-1538.745493928312
 30
0.0
 11
9132.673817799398
 21
-1483.704381983818
 31
0.0
  0
LINE
  5
B0BD
330
1E
100
AcDbEntity
  8
002
100
AcDbLine
 10
9185.510266966678
 20
-1587.407442753438
 30
0.0
 11
9179.298402483311
 21
-1443.292192820465
 31
0.0
  0
LINE
  5
B0BE
330
1E
100
AcDbEntity
  8
002
100
AcDbLine
 10
9189.742857545116
 20
-1587.409591650946
 30
0.0
 11
9183.52305154549
 21
-1443.110095853746
 31
0.0
  0
LINE
  5
B0BF
330
1E
100
AcDbEntity
  8
002
100
AcDbLine
 10
9167.750479712301
 20
-1521.388442169587
 30
0.0
 11
9161.105763348365
 21
-1483.704381276711
 31
0.0
  0
LINE
  5
B0C0
330
1E
100
AcDbEntity
  8
002
100
AcDbLine
 10
9168.173336638517
 20
-1612.252953314828
 30
0.0
 11
9167.750479712301
 21
-1612.497090416314
 31
0.0
  0
LINE
  5
B0C1
330
1E
100
AcDbEntity
  8
002
100
AcDbLine
 10
9142.379051411337
 20
-1579.056887848433
 30
0.0
 11
9131.638480535668
 21
-1518.144079986905
 31
0.0
  0
LINE
  5
B0C2
330
1E
100
AcDbEntity
  8
002
100
AcDbLine
 10
9147.836620342474
 20
-1612.252953314828
 30
0.0
 11
9142.801908337554
 21
-1612.252953314828
 31
0.0
  0
LINE
  5
B0C3
330
1E
100
AcDbEntity
  8
002
100
AcDbLine
 10
9142.801908337554
 20
-1612.252953314828
 30
0.0
 11
9142.379051411337
 21
-1612.497090416314
 31
0.0
  0
LINE
  5
B0C4
330
1E
100
AcDbEntity
  8
002
100
AcDbLine
 10
9150.963051256189
 20
-1614.790095579239
 30
0.0
 11
9148.425908991779
 21
-1614.790096286346
 31
0.0
  0
LINE
  5
B0C5
330
1E
100
AcDbEntity
  8
002
100
AcDbLine
 10
9151.552339198387
 20
-1612.252953314828
 30
0.0
 11
9156.587051203308
 21
-1612.252953314828
 31
0.0
  0
ARC
  5
B0C6
330
1E
100
AcDbEntity
  8
002
100
AcDbCircle
 10
9147.836620342474
 20
-1612.675810241046
 30
0.0
 40
0.422857
100
AcDbArc
 50
353.0000000000202
 51
90.0
  0
LINE
  5
B0C7
330
1E
100
AcDbEntity
  8
002
100
AcDbLine
 10
9147.951518123349
 20
-1615.209800930531
 30
0.0
 11
9148.425908991779
 21
-1614.790096286346
 31
0.0
  0
ARC
  5
B0C8
330
1E
100
AcDbEntity
  8
002
100
AcDbCircle
 10
9151.552339198387
 20
-1612.675810241046
 30
0.0
 40
0.422857
100
AcDbArc
 50
90.0
 51
186.9999999999797
  0
LINE
  5
B0C9
330
1E
100
AcDbEntity
  8
002
100
AcDbLine
 10
9151.437442124619
 20
-1615.209801637638
 30
0.0
 11
9150.963051256189
 21
-1614.790095579239
 31
0.0
  0
LINE
  5
B0CA
330
1E
100
AcDbEntity
  8
002
100
AcDbLine
 10
9156.587051203308
 20
-1612.252953314828
 30
0.0
 11
9157.009908836633
 21
-1612.497089709206
 31
0.0
  0
LINE
  5
B0CB
330
1E
100
AcDbEntity
  8
002
100
AcDbLine
 10
9131.215622902344
 20
-1612.252953314828
 30
0.0
 11
9131.638479828563
 21
-1612.497090416312
 31
0.0
  0
LINE
  5
B0CC
330
1E
100
AcDbEntity
  8
002
100
AcDbLine
 10
9142.379051411337
 20
-1619.368280354341
 30
0.0
 11
9131.638479828563
 21
-1558.455473199919
 31
0.0
  0
LINE
  5
B0CD
330
1E
100
AcDbEntity
  8
002
100
AcDbLine
 10
9167.750479712301
 20
-1602.011228595616
 30
0.0
 11
9157.009908129525
 21
-1541.098421441194
 31
0.0
  0
ARC
  5
B0CE
330
1E
100
AcDbEntity
  8
002
100
AcDbCircle
 10
9181.40876550019
 20
-1598.402758746524
 30
0.0
 40
8.457142999999998
100
AcDbArc
 50
0.0
 51
39.83172499999747
  0
ARC
  5
B0CF
330
1E
100
AcDbEntity
  8
002
100
AcDbCircle
 10
9186.082059672896
 20
-1598.93424283068
 30
0.0
 40
8.457142999999998
100
AcDbArc
 50
8.530765999962744
 51
39.80557099996436
  0
ARC
  5
B0D0
330
1E
100
AcDbEntity
  8
002
100
AcDbCircle
 10
9193.959564383929
 20
-1587.043249527108
 30
0.0
 40
8.457142999999998
100
AcDbArc
 50
182.4681179999774
 51
219.8317249999974
  0
ARC
  5
B0D1
330
1E
100
AcDbEntity
  8
002
100
AcDbCircle
 10
9198.192154255259
 20
-1587.045397717511
 30
0.0
 40
8.457142999999998
100
AcDbArc
 50
182.4681179999774
 51
219.8055709999643
  0
LINE
  5
B0D2
330
1E
100
AcDbEntity
  8
002
100
AcDbLine
 10
9187.465079219618
 20
-1592.460345787411
 30
0.0
 11
9187.903250664502
 21
-1592.985662486222
 31
0.0
  0
LINE
  5
B0D3
330
1E
100
AcDbEntity
  8
002
100
AcDbLine
 10
9191.695197752748
 20
-1592.459529079078
 30
0.0
 11
9192.579016882513
 21
-1593.52011217622
 31
0.0
  0
LINE
  5
B0D4
330
1E
100
AcDbEntity
  8
002
100
AcDbLine
 10
9182.67733698595
 20
-1614.790096286346
 30
0.0
 11
9183.52305154549
 21
-1615.635810845888
 31
0.0
  0
ARC
  5
B0D5
330
1E
100
AcDbEntity
  8
002
100
AcDbCircle
 10
9173.208048643436
 20
-1612.675810241046
 30
0.0
 40
0.422857
100
AcDbArc
 50
353.0000000000202
 51
90.0
  0
LINE
  5
B0D6
330
1E
100
AcDbEntity
  8
002
100
AcDbLine
 10
9173.208048643436
 20
-1612.252953314828
 30
0.0
 11
9168.173336638517
 21
-1612.252953314828
 31
0.0
  0
LINE
  5
B0D7
330
1E
100
AcDbEntity
  8
002
100
AcDbLine
 10
9173.322946424312
 20
-1615.209800930531
 30
0.0
 11
9173.797337292743
 21
-1614.790096286346
 31
0.0
  0
LINE
  5
B0D8
330
1E
100
AcDbEntity
  8
002
100
AcDbLine
 10
9182.67733698595
 20
-1614.790096286346
 30
0.0
 11
9173.797337292743
 21
-1614.790096286346
 31
0.0
  0
LINE
  5
B0D9
330
1E
100
AcDbEntity
  8
002
100
AcDbLine
 10
9131.638479828563
 20
-1483.704381276711
 30
0.0
 11
9142.379050704231
 21
-1483.704381983818
 31
0.0
  0
LINE
  5
B0DA
330
1E
100
AcDbEntity
  8
002
100
AcDbLine
 10
9157.009908836633
 20
-1483.704381983818
 30
0.0
 11
9167.750480419407
 21
-1483.704381983818
 31
0.0
  0
LINE
  5
B0DB
330
1E
100
AcDbEntity
  8
002
100
AcDbLine
 10
9140.193211109529
 20
-1426.235495980758
 30
0.0
 11
9140.082642943474
 21
-1430.457943819527
 31
0.0
  0
LINE
  5
B0DC
330
1E
100
AcDbEntity
  8
002
100
AcDbLine
 10
9140.615773879323
 20
-1426.246743221219
 30
0.0
 11
9140.505241068609
 21
-1430.467823515473
 31
0.0
  0
LINE
  5
B0DD
330
1E
100
AcDbEntity
  8
002
100
AcDbLine
 10
9133.82432013037
 20
-1426.235495980758
 30
0.0
 11
9133.934888296424
 21
-1430.457943819527
 31
0.0
  0
LINE
  5
B0DE
330
1E
100
AcDbEntity
  8
002
100
AcDbLine
 10
9133.401757360575
 20
-1426.246743221219
 30
0.0
 11
9133.512290171287
 21
-1430.467823515473
 31
0.0
  0
LINE
  5
B0DF
330
1E
100
AcDbEntity
  8
002
100
AcDbLine
 10
9142.379050704231
 20
-1498.434100715297
 30
0.0
 11
9139.781805070525
 21
-1483.704381983818
 31
0.0
  0
LINE
  5
B0E0
330
1E
100
AcDbEntity
  8
003
 62
     3
100
AcDbLine
 10
9510.535441828126
 20
-1759.124833233727
 30
0.0
 11
9510.535441828126
 21
-1532.104299569189
 31
0.0
  0
DIMENSION
  5
B0E1
330
1E
100
AcDbEntity
  8
001
100
AcDbDimension
  2
*D4
 10
9409.58797325076
 20
-1701.066925505305
 30
0.0
 11
9396.462973250761
 21
-1638.566925505303
 31
0.0
 70
    32
 71
     5
 42
125.0
  3
ISO-25
100
AcDbAlignedDimension
 13
9314.144736619949
 23
-1576.066925505305
 33
0.0
 14
9236.326865810099
 24
-1701.066925505305
 34
0.0
 50
90.0
100
AcDbRotatedDimension
  0
LINE
  5
B0E2
330
1E
100
AcDbEntity
  8
003
100
AcDbLine
 10
9242.435441619948
 20
-1699.573267505304
 30
0.0
 11
9314.144736619949
 21
-1576.066925505305
 31
0.0
  0
LINE
  5
B0E3
330
1E
100
AcDbEntity
  8
003
100
AcDbLine
 10
9250.476001619949
 20
-1721.573267505304
 30
0.0
 11
9334.958765619948
 21
-1576.066925505305
 31
0.0
  0
TEXT
  5
B0E4
330
1E
100
AcDbEntity
  8
001
100
AcDbText
 10
9355.697848674275
 20
-1757.334593785877
 30
0.0
 40
11.19999999999999
  1
メッキ付　円形プレート
 41
0.716146
100
AcDbText
  0
LINE
  5
B0E5
330
1E
100
AcDbEntity
  8
001
100
AcDbLine
 10
9346.072848674275
 20
-1760.834593785877
 30
0.0
 11
9471.197848674275
 21
-1760.834593785877
 31
0.0
  0
LINE
  5
B0E6
330
1E
100
AcDbEntity
  8
003
100
AcDbLine
 10
9210.008765619949
 20
-1723.066925505305
 30
0.0
 11
9210.008765619949
 21
-1901.180485505305
 31
0.0
  0
LINE
  5
B0E7
330
1E
100
AcDbEntity
  8
003
100
AcDbLine
 10
9219.508765619949
 20
-1723.066925505305
 30
0.0
 11
9219.508765619949
 21
-1901.180485505305
 31
0.0
  0
LINE
  5
B0E8
330
1E
100
AcDbEntity
  8
001
100
AcDbLine
 10
9230.791500395772
 20
-1989.959960956637
 30
0.0
 11
9327.041500395774
 21
-1989.959960956637
 31
0.0
  0
TEXT
  5
B0E9
330
1E
100
AcDbEntity
  8
001
100
AcDbText
 10
9240.416500395772
 20
-1986.459924956636
 30
0.0
 40
11.19999999999999
  1
コルゲートシース
 41
0.716146
100
AcDbText
  0
LINE
  5
B0EA
330
1E
100
AcDbEntity
  8
001
100
AcDbLine
 10
9223.694480042238
 20
-1694.187327524026
 30
0.0
 11
9346.072848674275
 21
-1760.834593785877
 31
0.0
  0
ARC
  5
B0EB
330
1E
100
AcDbEntity
  8
003
 62
     3
100
AcDbCircle
 10
9247.881597619947
 20
-1720.066925505305
 30
0.0
 40
3.0
100
AcDbArc
 50
270.0
 51
329.8600250000153
  0
ARC
  5
B0EC
330
1E
100
AcDbEntity
  8
003
 62
     3
100
AcDbCircle
 10
9247.881596619947
 20
-1720.066925505305
 30
0.0
 40
3.0
100
AcDbArc
 50
270.0
 51
329.8600250000153
  0
ARC
  5
B0ED
330
1E
100
AcDbEntity
  8
003
 62
     3
100
AcDbCircle
 10
9239.841037619948
 20
-1698.066925505305
 30
0.0
 40
3.0
100
AcDbArc
 50
270.0
 51
329.8600250000153
  0
ARC
  5
B0EE
330
1E
100
AcDbEntity
  8
003
 62
     3
100
AcDbCircle
 10
9239.841036619948
 20
-1698.066925505305
 30
0.0
 40
3.0
100
AcDbArc
 50
270.0
 51
329.8600250000153
  0
ARC
  5
B0EF
330
1E
100
AcDbEntity
  8
003
 62
     3
100
AcDbCircle
 10
9239.841036619948
 20
-1698.066925505305
 30
0.0
 40
3.0
100
AcDbArc
 50
270.0
 51
329.8600250000153
  0
LWPOLYLINE
  5
B0F0
330
1E
100
AcDbEntity
  8
001
100
AcDbPolyline
 90
        3
 70
     0
 43
0.0
 10
9231.720488760485
 20
-1696.231386036908
 10
9223.694480042238
 20
-1694.187327524026
 10
9229.623178906992
 20
-1699.970538448198
  0
LINE
  5
B0F1
330
1E
100
AcDbEntity
  8
003
 62
     3
100
AcDbLine
 10
9510.535441828126
 20
-1805.726870233727
 30
0.0
 11
9510.535441828126
 21
-1944.763645604814
 31
0.0
  0
LINE
  5
B0F2
330
1E
100
AcDbEntity
  8
003
 62
     3
100
AcDbLine
 10
9492.135043828126
 20
-1805.726870233727
 30
0.0
 11
9510.535441828126
 21
-1805.726870233727
 31
0.0
  0
LINE
  5
B0F3
330
1E
100
AcDbEntity
  8
003
 62
     3
100
AcDbLine
 10
9530.259324828124
 20
-1759.124833233727
 30
0.0
 11
9492.135043828126
 21
-1805.726870233727
 31
0.0
  0
LINE
  5
B0F4
330
1E
100
AcDbEntity
  8
003
 62
     3
100
AcDbLine
 10
9510.535441828126
 20
-1759.124833233727
 30
0.0
 11
9530.259324828124
 21
-1759.124833233727
 31
0.0
  0
LINE
  5
B0F5
330
1E
100
AcDbEntity
  8
001
100
AcDbLine
 10
9309.044064304037
 20
-1404.058393020815
 30
0.0
 11
9376.225347304036
 21
-1360.368873020816
 31
0.0
  0
TEXT
  5
B0F6
330
1E
100
AcDbEntity
  8
001
100
AcDbText
 10
9322.013192000666
 20
-1533.24155258668
 30
0.0
 40
11.19999999999999
  1
両ネジ　ジョイントプレート
 41
0.716146
100
AcDbText
  0
LINE
  5
B0F7
330
1E
100
AcDbEntity
  8
001
100
AcDbLine
 10
9312.388192000664
 20
-1536.74155258668
 30
0.0
 11
9456.763192000664
 21
-1536.74155258668
 31
0.0
  0
TEXT
  5
B0F8
330
1E
100
AcDbEntity
  8
001
100
AcDbText
 10
9248.249511619949
 20
-1479.536546505305
 30
0.0
 40
11.19999999999999
  1
ＰＣ鋼より線
 41
0.716146
100
AcDbText
  0
LINE
  5
B0F9
330
1E
100
AcDbEntity
  8
001
100
AcDbLine
 10
9238.624511619947
 20
-1483.036564505304
 30
0.0
 11
9315.624511619949
 21
-1483.036564505304
 31
0.0
  0
LINE
  5
B0FA
330
1E
100
AcDbEntity
  8
003
  6
ByBlock
100
AcDbLine
 10
9322.008765667261
 20
-1576.066925822531
 30
0.0
 11
9324.195982283164
 21
-1551.066925505305
 31
0.0
  0
LWPOLYLINE
  5
B0FB
330
1E
100
AcDbEntity
  8
001
100
AcDbPolyline
 90
        3
 70
     0
 43
0.0
 10
9313.889743304036
 20
-1398.669753020814
 10
9309.044064304037
 20
-1404.058393020815
 10
9315.934865304036
 20
-1401.814533020815
  0
LINE
  5
B0FC
330
1E
100
AcDbEntity
  8
003
 48
0.25
100
AcDbLine
 10
9512.26261028893
 20
-1566.360474156605
 30
0.0
 11
9438.735934080751
 21
-1551.066925505305
 31
0.0
  0
LINE
  5
B0FD
330
1E
100
AcDbEntity
  8
001
100
AcDbLine
 10
9376.225347304036
 20
-1360.368873020816
 30
0.0
 11
9438.685547747814
 21
-1360.368873020816
 31
0.0
  0
TEXT
  5
B0FE
330
1E
100
AcDbEntity
  8
001
100
AcDbText
 10
9376.921127881786
 20
-1374.634298877972
 30
0.0
 40
11.19999999999999
  1
(高さ180mm)
 41
0.716146
100
AcDbText
  0
TEXT
  5
B0FF
330
1E
100
AcDbEntity
  8
001
100
AcDbText
 10
9385.850347304037
 20
-1356.868855020815
 30
0.0
 40
11.19999999999999
  1
蓋
 41
0.716146
100
AcDbText
  0
LINE
  5
B100
330
1E
100
AcDbEntity
  8
001
 62
     3
100
AcDbLine
 10
9625.519555722906
 20
-2632.178823249147
 30
0.0
 11
9625.519555722906
 21
-1289.858823249147
 31
0.0
  0
LINE
  5
B101
330
1E
100
AcDbEntity
  8
001
 62
     3
100
AcDbLine
 10
9573.019555722906
 20
-2632.178823249147
 30
0.0
 11
9573.019555722906
 21
-2579.678823249147
 31
0.0
  0
ENDSEC
  0
SECTION
  2
OBJECTS
  0
DICTIONARY
  5
C
330
0
100
AcDbDictionary
281
     1
  3
ACAD_GROUP
350
D
  3
ACAD_LAYOUT
350
19
  3
ACAD_MLINESTYLE
350
16
  3
ACAD_PLOTSETTINGS
350
18
  3
ACAD_PLOTSTYLENAME
350
E
  3
AcDbVariableDictionary
350
4BD
  3
DWGPROPS
350
995F
  0
DICTIONARY
  5
D
102
{ACAD_REACTORS
330
C
102
}
330
C
100
AcDbDictionary
281
     1
  0
DICTIONARY
  5
19
102
{ACAD_REACTORS
330
C
102
}
330
C
100
AcDbDictionary
281
     1
  3
Model
350
21
  3
ﾚｲｱｳﾄ1
350
1D
  0
DICTIONARY
  5
16
102
{ACAD_REACTORS
330
C
102
}
330
C
100
AcDbDictionary
281
     1
  3
Standard
350
17
  0
DICTIONARY
  5
18
102
{ACAD_REACTORS
330
C
102
}
330
C
100
AcDbDictionary
281
     1
  0
ACDBDICTIONARYWDFLT
  5
E
102
{ACAD_REACTORS
330
C
102
}
330
C
100
AcDbDictionary
281
     1
  3
Normal
350
F
100
AcDbDictionaryWithDefault
340
F
  0
DICTIONARY
  5
4BD
102
{ACAD_REACTORS
330
C
102
}
330
C
100
AcDbDictionary
281
     1
  3
DIMASSOC
350
4BE
  0
XRECORD
  5
995F
102
{ACAD_REACTORS
330
C
102
}
330
C
100
AcDbXrecord
280
     1
  1
DWGPROPS COOKIE
  2

  3

  4

  6

  7

  8

  9

300
=
301
=
302
=
303
=
304
=
305
=
306
=
307
=
308
=
309
=
 40
0.9190028472222222
 41
2453874.389934525
 42
2454273.747598518
  1

 90
        0
  0
LAYOUT
  5
21
102
{ACAD_REACTORS
330
19
102
}
330
19
100
AcDbPlotSettings
  1

  2
EPSON LP-9000C
  4
A3
  6

 40
5.873749732971191
 41
5.873747825622558
 42
5.873748779296875
 43
5.873748779296875
 44
297.0106506347656
 45
419.9466552734374
 46
0.0
 47
0.0
 48
5029.70424967919
 49
-3394.266830878659
140
7102.404249679191
141
-1928.571830878659
142
1.0
143
5.138045306919282
 70
 11952
 72
     1
 73
     1
 74
     4
  7
ZenithProtter.ctb
 75
     0
147
0.1946265438051556
148
-5029.70424967919
149
3394.266830878659
100
AcDbLayout
  1
Model
 70
     1
 71
     0
 10
0.0
 20
0.0
 11
12.0
 21
9.0
 12
0.0
 22
0.0
 32
0.0
 14
0.0
 24
0.0
 34
0.0
 15
0.0
 25
0.0
 35
0.0
146
0.0
 13
0.0
 23
0.0
 33
0.0
 16
1.0
 26
0.0
 36
0.0
 17
0.0
 27
1.0
 37
0.0
 76
     0
330
1E
  0
LAYOUT
  5
1D
102
{ACAD_REACTORS
330
19
102
}
330
19
100
AcDbPlotSettings
  1

  2
EPSON LP-9000C
  4

  6

 40
0.0
 41
0.0
 42
0.0
 43
0.0
 44
0.0
 45
0.0
 46
0.0
 47
0.0
 48
0.0
 49
0.0
140
0.0
141
0.0
142
1.0
143
1.0
 70
   688
 72
     0
 73
     0
 74
     5
  7
ZenithProtter.ctb
 75
    16
147
1.0
148
0.0
149
0.0
100
AcDbLayout
  1
ﾚｲｱｳﾄ1
 70
     1
 71
     1
 10
0.0
 20
0.0
 11
12.0
 21
9.0
 12
0.0
 22
0.0
 32
0.0
 14
1.000000000000000E+20
 24
1.000000000000000E+20
 34
1.000000000000000E+20
 15
-1.000000000000000E+20
 25
-1.000000000000000E+20
 35
-1.000000000000000E+20
146
0.0
 13
0.0
 23
0.0
 33
0.0
 16
1.0
 26
0.0
 36
0.0
 17
0.0
 27
1.0
 37
0.0
 76
     0
330
1A
  0
MLINESTYLE
  5
17
102
{ACAD_REACTORS
330
16
102
}
330
16
100
AcDbMlineStyle
  2
STANDARD
 70
     0
  3

 62
   256
 51
90.0
 52
90.0
 71
     2
 49
0.5
 62
   256
  6
BYLAYER
 49
-0.5
 62
   256
  6
BYLAYER
  0
ACDBPLACEHOLDER
  5
F
102
{ACAD_REACTORS
330
E
102
}
330
E
  0
DICTIONARYVAR
  5
4BE
102
{ACAD_REACTORS
330
4BD
102
}
330
4BD
100
DictionaryVariables
280
     0
  1
1
  0
ENDSEC
  0
EOF
