  0
SECTION
  2
HEADER
  9
$ACADVER
  1
AC1015
  9
$ACADMAINTVER
 70
    13
  9
$DWGCODEPAGE
  3
ANSI_932
  9
$INSBASE
 10
0.0
 20
0.0
 30
0.0
  9
$EXTMIN
 10
-104.4634147724609
 20
-2338.953257552221
 30
0.0
  9
$EXTMAX
 10
1968.236585227539
 20
-873.2582575522206
 30
0.0
  9
$LIMMIN
 10
-104.4634147724609
 20
-2338.953257552221
  9
$LIMMAX
 10
1968.236585227539
 20
-873.2582575522206
  9
$ORTHOMODE
 70
     0
  9
$REGENMODE
 70
     1
  9
$FILLMODE
 70
     1
  9
$QTEXTMODE
 70
     0
  9
$MIRRTEXT
 70
     1
  9
$LTSCALE
 40
24.5
  9
$ATTMODE
 70
     1
  9
$TEXTSIZE
 40
0.2
  9
$TRACEWID
 40
0.05
  9
$TEXTSTYLE
  7
STANDARD
  9
$CLAYER
  8
001
  9
$CELTYPE
  6
ByLayer
  9
$CECOLOR
 62
   256
  9
$CELTSCALE
 40
1.0
  9
$DISPSILH
 70
     0
  9
$DIMSCALE
 40
15.0
  9
$DIMASZ
 40
0.75
  9
$DIMEXO
 40
0.625
  9
$DIMDLI
 40
3.75
  9
$DIMRND
 40
0.0
  9
$DIMDLE
 40
0.0
  9
$DIMEXE
 40
0.0
  9
$DIMTP
 40
0.0
  9
$DIMTM
 40
0.0
  9
$DIMTXT
 40
0.75
  9
$DIMCEN
 40
2.5
  9
$DIMTSZ
 40
0.0
  9
$DIMTOL
 70
     0
  9
$DIMLIM
 70
     0
  9
$DIMTIH
 70
     0
  9
$DIMTOH
 70
     0
  9
$DIMSE1
 70
     0
  9
$DIMSE2
 70
     0
  9
$DIMTAD
 70
     1
  9
$DIMZIN
 70
     8
  9
$DIMBLK
  1
Open
  9
$DIMASO
 70
     1
  9
$DIMSHO
 70
     1
  9
$DIMPOST
  1

  9
$DIMAPOST
  1

  9
$DIMALT
 70
     0
  9
$DIMALTD
 70
     2
  9
$DIMALTF
 40
0.0394
  9
$DIMLFAC
 40
1.0
  9
$DIMTOFL
 70
     1
  9
$DIMTVP
 40
1.0
  9
$DIMTIX
 70
     0
  9
$DIMSOXD
 70
     0
  9
$DIMSAH
 70
     0
  9
$DIMBLK1
  1

  9
$DIMBLK2
  1

  9
$DIMSTYLE
  2
ISO-25
  9
$DIMCLRD
 70
     0
  9
$DIMCLRE
 70
     0
  9
$DIMCLRT
 70
     0
  9
$DIMTFAC
 40
1.0
  9
$DIMGAP
 40
0.5
  9
$DIMJUST
 70
     0
  9
$DIMSD1
 70
     0
  9
$DIMSD2
 70
     0
  9
$DIMTOLJ
 70
     1
  9
$DIMTZIN
 70
     0
  9
$DIMALTZ
 70
     0
  9
$DIMALTTZ
 70
     0
  9
$DIMUPT
 70
     0
  9
$DIMDEC
 70
     0
  9
$DIMTDEC
 70
     0
  9
$DIMALTU
 70
     2
  9
$DIMALTTD
 70
     2
  9
$DIMTXSTY
  7
STANDARD
  9
$DIMAUNIT
 70
     0
  9
$DIMADEC
 70
     0
  9
$DIMALTRND
 40
0.0
  9
$DIMAZIN
 70
     0
  9
$DIMDSEP
 70
    46
  9
$DIMATFIT
 70
     3
  9
$DIMFRAC
 70
     0
  9
$DIMLDRBLK
  1

  9
$DIMLUNIT
 70
     2
  9
$DIMLWD
 70
    -2
  9
$DIMLWE
 70
    -2
  9
$DIMTMOVE
 70
     0
  9
$LUNITS
 70
     2
  9
$LUPREC
 70
     4
  9
$SKETCHINC
 40
0.1
  9
$FILLETRAD
 40
0.0
  9
$AUNITS
 70
     0
  9
$AUPREC
 70
     0
  9
$MENU
  1
.
  9
$ELEVATION
 40
0.0
  9
$PELEVATION
 40
0.0
  9
$THICKNESS
 40
0.0
  9
$LIMCHECK
 70
     0
  9
$CHAMFERA
 40
0.0
  9
$CHAMFERB
 40
0.0
  9
$CHAMFERC
 40
0.0
  9
$CHAMFERD
 40
0.0
  9
$SKPOLY
 70
     0
  9
$TDCREATE
 40
2453874.389934525
  9
$TDUCREATE
 40
2453874.014934525
  9
$TDUPDATE
 40
2454278.537229086
  9
$TDUUPDATE
 40
2454278.162229086
  9
$TDINDWG
 40
0.8071853819
  9
$TDUSRTIMER
 40
0.8071853819
  9
$USRTIMER
 70
     1
  9
$ANGBASE
 50
0.0
  9
$ANGDIR
 70
     0
  9
$PDMODE
 70
     0
  9
$PDSIZE
 40
0.0
  9
$PLINEWID
 40
0.0
  9
$SPLFRAME
 70
     0
  9
$SPLINETYPE
 70
     6
  9
$SPLINESEGS
 70
     8
  9
$HANDSEED
  5
87A4
  9
$SURFTAB1
 70
     6
  9
$SURFTAB2
 70
     6
  9
$SURFTYPE
 70
     6
  9
$SURFU
 70
     6
  9
$SURFV
 70
     6
  9
$UCSBASE
  2

  9
$UCSNAME
  2

  9
$UCSORG
 10
0.0
 20
0.0
 30
0.0
  9
$UCSXDIR
 10
1.0
 20
0.0
 30
0.0
  9
$UCSYDIR
 10
0.0
 20
1.0
 30
0.0
  9
$UCSORTHOREF
  2

  9
$UCSORTHOVIEW
 70
     0
  9
$UCSORGTOP
 10
0.0
 20
0.0
 30
0.0
  9
$UCSORGBOTTOM
 10
0.0
 20
0.0
 30
0.0
  9
$UCSORGLEFT
 10
0.0
 20
0.0
 30
0.0
  9
$UCSORGRIGHT
 10
0.0
 20
0.0
 30
0.0
  9
$UCSORGFRONT
 10
0.0
 20
0.0
 30
0.0
  9
$UCSORGBACK
 10
0.0
 20
0.0
 30
0.0
  9
$PUCSBASE
  2

  9
$PUCSNAME
  2

  9
$PUCSORG
 10
0.0
 20
0.0
 30
0.0
  9
$PUCSXDIR
 10
1.0
 20
0.0
 30
0.0
  9
$PUCSYDIR
 10
0.0
 20
1.0
 30
0.0
  9
$PUCSORTHOREF
  2

  9
$PUCSORTHOVIEW
 70
     0
  9
$PUCSORGTOP
 10
0.0
 20
0.0
 30
0.0
  9
$PUCSORGBOTTOM
 10
0.0
 20
0.0
 30
0.0
  9
$PUCSORGLEFT
 10
0.0
 20
0.0
 30
0.0
  9
$PUCSORGRIGHT
 10
0.0
 20
0.0
 30
0.0
  9
$PUCSORGFRONT
 10
0.0
 20
0.0
 30
0.0
  9
$PUCSORGBACK
 10
0.0
 20
0.0
 30
0.0
  9
$USERI1
 70
     0
  9
$USERI2
 70
     0
  9
$USERI3
 70
     0
  9
$USERI4
 70
     0
  9
$USERI5
 70
     0
  9
$USERR1
 40
0.0
  9
$USERR2
 40
0.0
  9
$USERR3
 40
0.0
  9
$USERR4
 40
0.0
  9
$USERR5
 40
0.0
  9
$WORLDVIEW
 70
     1
  9
$SHADEDGE
 70
     3
  9
$SHADEDIF
 70
    70
  9
$TILEMODE
 70
     1
  9
$MAXACTVP
 70
    64
  9
$PINSBASE
 10
0.0
 20
0.0
 30
0.0
  9
$PLIMCHECK
 70
     0
  9
$PEXTMIN
 10
1.000000000000000E+20
 20
1.000000000000000E+20
 30
1.000000000000000E+20
  9
$PEXTMAX
 10
-1.000000000000000E+20
 20
-1.000000000000000E+20
 30
-1.000000000000000E+20
  9
$PLIMMIN
 10
0.0
 20
0.0
  9
$PLIMMAX
 10
12.0
 20
9.0
  9
$UNITMODE
 70
     0
  9
$VISRETAIN
 70
     1
  9
$PLINEGEN
 70
     0
  9
$PSLTSCALE
 70
     1
  9
$TREEDEPTH
 70
  3020
  9
$CMLSTYLE
  2
Standard
  9
$CMLJUST
 70
     0
  9
$CMLSCALE
 40
1.0
  9
$PROXYGRAPHICS
 70
     1
  9
$MEASUREMENT
 70
     0
  9
$CELWEIGHT
370
    -1
  9
$ENDCAPS
280
     0
  9
$JOINSTYLE
280
     0
  9
$LWDISPLAY
290
     0
  9
$INSUNITS
 70
     0
  9
$HYPERLINKBASE
  1

  9
$STYLESHEET
  1
ZenithProtter.ctb
  9
$XEDIT
290
     1
  9
$CEPSNTYPE
380
     0
  9
$PSTYLEMODE
290
     1
  9
$FINGERPRINTGUID
  2
{DB2F255E-76A1-4E9F-8FDF-6D653DC3006F}
  9
$VERSIONGUID
  2
{756B9B66-564A-42D5-9CFD-08BBB1E0256A}
  9
$EXTNAMES
290
     1
  9
$PSVPSCALE
 40
0.0
  9
$OLESTARTUP
290
     0
  0
ENDSEC
  0
SECTION
  2
CLASSES
  0
CLASS
  1
ACDBDICTIONARYWDFLT
  2
AcDbDictionaryWithDefault
  3
AutoCAD 2000
 90
        0
280
     0
281
     0
  0
CLASS
  1
ACDBPLACEHOLDER
  2
AcDbPlaceHolder
  3
AutoCAD 2000
 90
        0
280
     0
281
     0
  0
CLASS
  1
LAYOUT
  2
AcDbLayout
  3
AutoCAD 2000
 90
        0
280
     0
281
     0
  0
CLASS
  1
DICTIONARYVAR
  2
AcDbDictionaryVar
  3
AutoCAD 2000
 90
        0
280
     0
281
     0
  0
ENDSEC
  0
SECTION
  2
TABLES
  0
TABLE
  2
VPORT
  5
8
330
0
100
AcDbSymbolTable
 70
     2
  0
VPORT
  5
87A3
330
8
100
AcDbSymbolTableRecord
100
AcDbViewportTableRecord
  2
*Active
 70
     0
 10
0.0
 20
0.0
 11
1.0
 21
1.0
 12
931.8602962212162
 22
-1606.098409863411
 13
0.0
 23
0.0
 14
1.0
 24
1.0
 15
0.0
 25
0.0
 16
0.0
 26
0.0
 36
1.0
 17
0.0
 27
0.0
 37
0.0
 40
1477.789755280828
 41
1.723287671232876
 42
50.0
 43
0.0
 44
0.0
 50
0.0
 51
0.0
 71
     0
 72
   100
 73
     1
 74
     1
 75
     0
 76
     0
 77
     0
 78
     0
281
     0
 65
     1
110
0.0
120
0.0
130
0.0
111
1.0
121
0.0
131
0.0
112
0.0
122
1.0
132
0.0
 79
     0
146
0.0
  0
ENDTAB
  0
TABLE
  2
LTYPE
  5
5
330
0
100
AcDbSymbolTable
 70
     3
  0
LTYPE
  5
13
330
5
100
AcDbSymbolTableRecord
100
AcDbLinetypeTableRecord
  2
ByBlock
 70
     0
  3

 72
    65
 73
     0
 40
0.0
  0
LTYPE
  5
14
330
5
100
AcDbSymbolTableRecord
100
AcDbLinetypeTableRecord
  2
ByLayer
 70
     0
  3

 72
    65
 73
     0
 40
0.0
  0
LTYPE
  5
15
330
5
100
AcDbSymbolTableRecord
100
AcDbLinetypeTableRecord
  2
CONTINUOUS
 70
     0
  3
Solid-Line
 72
    65
 73
     0
 40
0.0
  0
LTYPE
  5
22
330
5
100
AcDbSymbolTableRecord
100
AcDbLinetypeTableRecord
  2
DASHED
 70
     0
  3
DASHED
 72
    65
 73
     2
 40
0.75
 49
0.5
 74
     0
 49
-0.25
 74
     0
  0
LTYPE
  5
24
330
5
100
AcDbSymbolTableRecord
100
AcDbLinetypeTableRecord
  2
CENTER
 70
     0
  3
CENTER
 72
    65
 73
     4
 40
2.0
 49
1.25
 74
     0
 49
-0.25
 74
     0
 49
0.25
 74
     0
 49
-0.25
 74
     0
  0
ENDTAB
  0
TABLE
  2
LAYER
  5
2
330
0
100
AcDbSymbolTable
 70
     6
  0
LAYER
  5
10
330
2
100
AcDbSymbolTableRecord
100
AcDbLayerTableRecord
  2
0
 70
     0
 62
     7
  6
CONTINUOUS
370
     5
390
F
  0
LAYER
  5
26
330
2
100
AcDbSymbolTableRecord
100
AcDbLayerTableRecord
  2
001
 70
     0
 62
     4
  6
CONTINUOUS
370
     5
390
F
  0
LAYER
  5
586
330
2
100
AcDbSymbolTableRecord
100
AcDbLayerTableRecord
  2
DEFPOINTS
 70
     0
 62
     7
  6
CONTINUOUS
290
     0
370
    -3
390
F
  0
LAYER
  5
587
330
2
100
AcDbSymbolTableRecord
100
AcDbLayerTableRecord
  2
003
 70
     0
 62
     3
  6
CONTINUOUS
370
    13
390
F
  0
LAYER
  5
2C96
330
2
100
AcDbSymbolTableRecord
100
AcDbLayerTableRecord
  2
002
 70
     0
 62
     1
  6
CONTINUOUS
370
    15
390
F
  0
LAYER
  5
445B
330
2
100
AcDbSymbolTableRecord
100
AcDbLayerTableRecord
  2
004
 70
     0
 62
     4
  6
CONTINUOUS
370
    -3
390
F
  0
ENDTAB
  0
TABLE
  2
STYLE
  5
3
330
0
100
AcDbSymbolTable
 70
     1
  0
STYLE
  5
11
330
3
100
AcDbSymbolTableRecord
100
AcDbTextStyleTableRecord
  2
STANDARD
 70
     0
 40
0.0
 41
1.0
 50
0.0
 71
     0
 42
0.2
  3
TXT
  4
BIGFONT
  0
ENDTAB
  0
TABLE
  2
VIEW
  5
6
330
0
100
AcDbSymbolTable
 70
     0
  0
ENDTAB
  0
TABLE
  2
UCS
  5
7
330
0
100
AcDbSymbolTable
 70
     0
  0
ENDTAB
  0
TABLE
  2
APPID
  5
9
330
0
100
AcDbSymbolTable
 70
     1
  0
APPID
  5
12
330
9
100
AcDbSymbolTableRecord
100
AcDbRegAppTableRecord
  2
ACAD
 70
     0
  0
ENDTAB
  0
TABLE
  2
DIMSTYLE
  5
A
330
0
100
AcDbSymbolTable
 70
     2
100
AcDbDimStyleTable
 71
     2
340
58A
340
4BA
  0
DIMSTYLE
105
4BA
330
A
100
AcDbSymbolTableRecord
100
AcDbDimStyleTableRecord
  2
Standard
 70
     0
340
11
  0
DIMSTYLE
105
58A
102
{ACAD_REACTORS
330
81BC
330
81F2
330
8498
330
8568
330
856F
330
841C
330
8447
330
8448
330
877E
102
}
330
A
100
AcDbSymbolTableRecord
100
AcDbDimStyleTableRecord
  2
ISO-25
 70
     0
 40
15.0
 41
0.75
 42
0.625
 43
3.75
 44
0.0
 73
     0
 74
     0
 77
     1
 78
     8
140
0.75
141
2.5
143
0.0394
145
1.0
147
0.5
172
     1
271
     0
272
     0
340
11
342
1390
  0
ENDTAB
  0
TABLE
  2
BLOCK_RECORD
  5
1
330
0
100
AcDbSymbolTable
 70
    13
  0
BLOCK_RECORD
  5
1E
330
1
100
AcDbSymbolTableRecord
100
AcDbBlockTableRecord
  2
*Model_Space
340
21
  0
BLOCK_RECORD
  5
1A
330
1
100
AcDbSymbolTableRecord
100
AcDbBlockTableRecord
  2
*Paper_Space
340
1D
  0
BLOCK_RECORD
  5
56
330
1
100
AcDbSymbolTableRecord
100
AcDbBlockTableRecord
  2
PART1
340
0
102
{BLKREFS
331
856A
102
}
  0
BLOCK_RECORD
  5
1390
330
1
100
AcDbSymbolTableRecord
100
AcDbBlockTableRecord
  2
_Open
340
0
102
{BLKREFS
331
870C
331
870D
331
871E
331
871F
331
8727
331
8728
331
8730
331
8731
331
873B
331
873C
331
8744
331
8745
331
8758
331
8759
331
8761
331
8762
331
8783
331
8784
102
}
  0
BLOCK_RECORD
  5
5793
330
1
100
AcDbSymbolTableRecord
100
AcDbBlockTableRecord
  2
_Open30
340
0
102
{BLKREFS
331
8436
102
}
  0
BLOCK_RECORD
  5
7C16
330
1
100
AcDbSymbolTableRecord
100
AcDbBlockTableRecord
  2
PART0
340
0
102
{BLKREFS
331
844F
102
}
  0
BLOCK_RECORD
  5
868D
330
1
100
AcDbSymbolTableRecord
100
AcDbBlockTableRecord
  2
*D4
340
0
  0
BLOCK_RECORD
  5
86A5
330
1
100
AcDbSymbolTableRecord
100
AcDbBlockTableRecord
  2
*D5
340
0
  0
BLOCK_RECORD
  5
86B1
330
1
100
AcDbSymbolTableRecord
100
AcDbBlockTableRecord
  2
*D6
340
0
  0
BLOCK_RECORD
  5
86BD
330
1
100
AcDbSymbolTableRecord
100
AcDbBlockTableRecord
  2
*D7
340
0
  0
BLOCK_RECORD
  5
86C9
330
1
100
AcDbSymbolTableRecord
100
AcDbBlockTableRecord
  2
*D8
340
0
  0
BLOCK_RECORD
  5
86D7
330
1
100
AcDbSymbolTableRecord
100
AcDbBlockTableRecord
  2
*D9
340
0
  0
BLOCK_RECORD
  5
86EF
330
1
100
AcDbSymbolTableRecord
100
AcDbBlockTableRecord
  2
*D10
340
0
  0
BLOCK_RECORD
  5
86FD
330
1
100
AcDbSymbolTableRecord
100
AcDbBlockTableRecord
  2
*D11
340
0
  0
BLOCK_RECORD
  5
877F
330
1
100
AcDbSymbolTableRecord
100
AcDbBlockTableRecord
  2
*D12
340
0
  0
ENDTAB
  0
ENDSEC
  0
SECTION
  2
BLOCKS
  0
BLOCK
  5
1F
330
1E
100
AcDbEntity
  8
0
100
AcDbBlockBegin
  2
*Model_Space
 70
     0
 10
0.0
 20
0.0
 30
0.0
  3
*Model_Space
  1

  0
ENDBLK
  5
20
330
1E
100
AcDbEntity
  8
0
100
AcDbBlockEnd
  0
BLOCK
  5
1B
330
1A
100
AcDbEntity
 67
     1
  8
0
100
AcDbBlockBegin
  2
*Paper_Space
 70
     0
 10
0.0
 20
0.0
 30
0.0
  3
*Paper_Space
  1

  0
ENDBLK
  5
1C
330
1A
100
AcDbEntity
 67
     1
  8
0
100
AcDbBlockEnd
  0
BLOCK
  5
57
330
56
100
AcDbEntity
  8
001
100
AcDbBlockBegin
  2
PART1
 70
     0
 10
0.0
 20
0.0
 30
0.0
  3
PART1
  1

  0
LINE
  5
58
330
56
100
AcDbEntity
  8
001
100
AcDbLine
 10
1361.259938999999
 20
290.352174
 30
0.0
 11
1361.259938999999
 21
351.035679
 31
0.0
  0
TEXT
  5
59
330
56
100
AcDbEntity
  8
001
100
AcDbText
 10
1357.759939
 20
290.352174
 30
0.0
 40
11.19999999999999
  1
%%c89
 50
90.00000300000001
 41
0.859375
100
AcDbText
  0
LWPOLYLINE
  5
5A
330
56
100
AcDbEntity
  8
001
100
AcDbPolyline
 90
        3
 70
     0
 43
0.0
 10
1363.135583
 20
344.035679
 10
1361.259938999999
 20
351.035679
 10
1359.384294999999
 20
344.035679
  0
LINE
  5
5F
330
56
100
AcDbEntity
  8
001
100
AcDbLine
 10
1314.21439
 20
351.035679
 30
0.0
 11
1364.759939
 21
351.035679
 31
0.0
  0
ENDBLK
  5
60
330
56
100
AcDbEntity
  8
001
100
AcDbBlockEnd
  0
BLOCK
  5
1394
330
1390
100
AcDbEntity
  8
0
100
AcDbBlockBegin
  2
_Open
 70
     0
 10
0.0
 20
0.0
 30
0.0
  3
_Open
  1

  0
LINE
  5
1391
330
1390
100
AcDbEntity
  8
0
  6
ByBlock
 62
     0
370
    -2
100
AcDbLine
 10
-1.0
 20
0.1666666666666666
 30
0.0
 11
0.0
 21
0.0
 31
0.0
  0
LINE
  5
1392
330
1390
100
AcDbEntity
  8
0
  6
ByBlock
 62
     0
370
    -2
100
AcDbLine
 10
-1.0
 20
-0.1666666666666666
 30
0.0
 11
0.0
 21
0.0
 31
0.0
  0
LINE
  5
1393
330
1390
100
AcDbEntity
  8
0
  6
ByBlock
 62
     0
370
    -2
100
AcDbLine
 10
0.0
 20
0.0
 30
0.0
 11
-1.0
 21
0.0
 31
0.0
  0
ENDBLK
  5
1395
330
1390
100
AcDbEntity
  8
0
100
AcDbBlockEnd
  0
BLOCK
  5
5797
330
5793
100
AcDbEntity
  8
0
100
AcDbBlockBegin
  2
_Open30
 70
     0
 10
0.0
 20
0.0
 30
0.0
  3
_Open30
  1

  0
LINE
  5
5794
330
5793
100
AcDbEntity
  8
0
  6
ByBlock
 62
     0
370
    -2
100
AcDbLine
 10
-1.0
 20
0.26794919
 30
0.0
 11
0.0
 21
0.0
 31
0.0
  0
LINE
  5
5795
330
5793
100
AcDbEntity
  8
0
  6
ByBlock
 62
     0
370
    -2
100
AcDbLine
 10
0.0
 20
0.0
 30
0.0
 11
-1.0
 21
-0.26794919
 31
0.0
  0
LINE
  5
5796
330
5793
100
AcDbEntity
  8
0
  6
ByBlock
 62
     0
370
    -2
100
AcDbLine
 10
0.0
 20
0.0
 30
0.0
 11
-1.0
 21
0.0
 31
0.0
  0
ENDBLK
  5
5798
330
5793
100
AcDbEntity
  8
0
100
AcDbBlockEnd
  0
BLOCK
  5
7C1B
330
7C16
100
AcDbEntity
  8
001
100
AcDbBlockBegin
  2
PART0
 70
     0
 10
0.0
 20
0.0
 30
0.0
  3
PART0
  1

  0
LINE
  5
7C17
330
7C16
100
AcDbEntity
  8
001
100
AcDbLine
 10
1297.760835
 20
539.2649150000001
 30
0.0
 11
1297.760835
 21
586.240683
 31
0.0
  0
TEXT
  5
7C18
330
7C16
100
AcDbEntity
  8
001
100
AcDbText
 10
1294.260835
 20
539.2649150000001
 30
0.0
 40
11.19999999999999
  1
M64
 50
90.00000300000001
 41
0.859375
100
AcDbText
  0
LWPOLYLINE
  5
7C19
330
7C16
100
AcDbEntity
  8
001
100
AcDbPolyline
 90
        3
 70
     0
 43
0.0
 10
1299.636479
 20
579.240683
 10
1297.760835
 20
586.240683
 10
1295.885189999999
 20
579.240683
  0
LINE
  5
7C1A
330
7C16
100
AcDbEntity
  8
001
100
AcDbLine
 10
1255.321429
 20
586.240683
 30
0.0
 11
1301.260835
 21
586.240683
 31
0.0
  0
ENDBLK
  5
7C1C
330
7C16
100
AcDbEntity
  8
001
100
AcDbBlockEnd
  0
BLOCK
  5
8697
330
868D
100
AcDbEntity
  8
0
100
AcDbBlockBegin
  2
*D4
 70
     1
 10
0.0
 20
0.0
 30
0.0
  3
*D4
  1

  0
LINE
  5
8709
330
868D
100
AcDbEntity
  8
001
  6
Continuous
 62
     0
370
    -2
100
AcDbLine
 10
461.7955730164419
 20
-1983.217327650278
 30
0.0
 11
547.3445211400753
 21
-1983.217327650278
 31
0.0
  0
LINE
  5
870A
330
868D
100
AcDbEntity
  8
001
  6
Continuous
 62
     0
370
    -2
100
AcDbLine
 10
461.6712680164418
 20
-2108.217327650278
 30
0.0
 11
547.3445211400753
 21
-2108.217327650278
 31
0.0
  0
LINE
  5
870B
330
868D
100
AcDbEntity
  8
001
  6
Continuous
 62
     0
370
    -2
100
AcDbLine
 10
547.3445211400753
 20
-1994.467327650278
 30
0.0
 11
547.3445211400753
 21
-2096.967327650278
 31
0.0
  0
INSERT
  5
870C
330
868D
100
AcDbEntity
  8
001
  6
Continuous
 62
     0
370
    -2
100
AcDbBlockReference
  2
_Open
 10
547.3445211400753
 20
-1983.217327650278
 30
0.0
 41
11.25
 42
11.25
 43
11.25
 50
90.0
  0
INSERT
  5
870D
330
868D
100
AcDbEntity
  8
001
  6
Continuous
 62
     0
370
    -2
100
AcDbBlockReference
  2
_Open
 10
547.3445211400753
 20
-2108.217327650278
 30
0.0
 41
11.25
 42
11.25
 43
11.25
 50
270.0
  0
MTEXT
  5
870E
330
868D
100
AcDbEntity
  8
001
  6
Continuous
 62
     0
100
AcDbMText
 10
534.2195211400756
 20
-2045.717327650278
 30
0.0
 40
11.25
 41
0.0
 71
     5
 72
     1
  1
\A1;125
 11
0.0000000000000001
 21
1.0
 31
0.0
 73
     1
 44
1.0
  0
POINT
  5
870F
330
868D
100
AcDbEntity
  8
DEFPOINTS
  6
Continuous
 62
     0
100
AcDbPoint
 10
452.4205730164419
 20
-1983.217327650278
 30
0.0
  0
POINT
  5
8710
330
868D
100
AcDbEntity
  8
DEFPOINTS
  6
Continuous
 62
     0
100
AcDbPoint
 10
452.2962680164418
 20
-2108.217327650278
 30
0.0
  0
POINT
  5
8711
330
868D
100
AcDbEntity
  8
DEFPOINTS
  6
Continuous
 62
     0
100
AcDbPoint
 10
547.3445211400753
 20
-2108.217327650278
 30
0.0
  0
ENDBLK
  5
8698
330
868D
100
AcDbEntity
  8
0
100
AcDbBlockEnd
  0
BLOCK
  5
86AF
330
86A5
100
AcDbEntity
  8
0
100
AcDbBlockBegin
  2
*D5
 70
     1
 10
0.0
 20
0.0
 30
0.0
  3
*D5
  1

  0
LINE
  5
871B
330
86A5
100
AcDbEntity
  8
001
  6
Continuous
 62
     0
370
    -2
100
AcDbLine
 10
174.1028280164418
 20
-2034.703251650278
 30
0.0
 11
174.1028280164418
 21
-1958.413833222276
 31
0.0
  0
LINE
  5
871C
330
86A5
100
AcDbEntity
  8
001
  6
Continuous
 62
     0
370
    -2
100
AcDbLine
 10
454.0872390164418
 20
-1975.508994650278
 30
0.0
 11
454.0872390164418
 21
-1958.413833222276
 31
0.0
  0
LINE
  5
871D
330
86A5
100
AcDbEntity
  8
001
  6
Continuous
 62
     0
370
    -2
100
AcDbLine
 10
185.3528280164418
 20
-1958.413833222276
 30
0.0
 11
442.8372390164418
 21
-1958.413833222276
 31
0.0
  0
INSERT
  5
871E
330
86A5
100
AcDbEntity
  8
001
  6
Continuous
 62
     0
370
    -2
100
AcDbBlockReference
  2
_Open
 10
174.1028280164418
 20
-1958.413833222276
 30
0.0
 41
11.25
 42
11.25
 43
11.25
 50
180.0
  0
INSERT
  5
871F
330
86A5
100
AcDbEntity
  8
001
  6
Continuous
 62
     0
370
    -2
100
AcDbBlockReference
  2
_Open
 10
454.0872390164418
 20
-1958.413833222276
 30
0.0
 41
11.25
 42
11.25
 43
11.25
  0
MTEXT
  5
8720
330
86A5
100
AcDbEntity
  8
001
  6
Continuous
 62
     0
100
AcDbMText
 10
314.0950335164418
 20
-1945.288833222276
 30
0.0
 40
11.25
 41
0.0
 71
     5
 72
     1
  1
\A1;280
 73
     1
 44
1.0
  0
POINT
  5
8721
330
86A5
100
AcDbEntity
  8
DEFPOINTS
  6
Continuous
 62
     0
100
AcDbPoint
 10
174.1028280164418
 20
-2044.078251650278
 30
0.0
  0
POINT
  5
8722
330
86A5
100
AcDbEntity
  8
DEFPOINTS
  6
Continuous
 62
     0
100
AcDbPoint
 10
454.0872390164418
 20
-1984.883994650278
 30
0.0
  0
POINT
  5
8723
330
86A5
100
AcDbEntity
  8
DEFPOINTS
  6
Continuous
 62
     0
100
AcDbPoint
 10
454.0872390164418
 20
-1958.413833222276
 30
0.0
  0
ENDBLK
  5
86B0
330
86A5
100
AcDbEntity
  8
0
100
AcDbBlockEnd
  0
BLOCK
  5
86BB
330
86B1
100
AcDbEntity
  8
0
100
AcDbBlockBegin
  2
*D6
 70
     1
 10
0.0
 20
0.0
 30
0.0
  3
*D6
  1

  0
LINE
  5
8724
330
86B1
100
AcDbEntity
  8
001
 62
     0
370
    -2
100
AcDbLine
 10
1624.259886033672
 20
-1239.091359808379
 30
0.0
 11
1704.153671276052
 21
-1239.091359808379
 31
0.0
  0
LINE
  5
8725
330
86B1
100
AcDbEntity
  8
001
 62
     0
370
    -2
100
AcDbLine
 10
1549.933067124581
 20
-1364.091359808379
 30
0.0
 11
1704.153671276052
 21
-1364.091359808379
 31
0.0
  0
LINE
  5
8726
330
86B1
100
AcDbEntity
  8
001
 62
     0
370
    -2
100
AcDbLine
 10
1704.153671276052
 20
-1250.341359808379
 30
0.0
 11
1704.153671276052
 21
-1352.841359808379
 31
0.0
  0
INSERT
  5
8727
330
86B1
100
AcDbEntity
  8
001
 62
     0
370
    -2
100
AcDbBlockReference
  2
_Open
 10
1704.153671276052
 20
-1239.091359808379
 30
0.0
 41
11.25
 42
11.25
 43
11.25
 50
90.0
  0
INSERT
  5
8728
330
86B1
100
AcDbEntity
  8
001
 62
     0
370
    -2
100
AcDbBlockReference
  2
_Open
 10
1704.153671276052
 20
-1364.091359808379
 30
0.0
 41
11.25
 42
11.25
 43
11.25
 50
270.0
  0
MTEXT
  5
8729
330
86B1
100
AcDbEntity
  8
001
 62
     0
100
AcDbMText
 10
1691.028671276052
 20
-1301.591359808379
 30
0.0
 40
11.25
 41
0.0
 71
     5
 72
     1
  1
\A1;125
 11
0.0000000000000001
 21
1.0
 31
0.0
 73
     1
 44
1.0
  0
POINT
  5
872A
330
86B1
100
AcDbEntity
  8
DEFPOINTS
 62
     0
100
AcDbPoint
 10
1614.884886033672
 20
-1239.091359808379
 30
0.0
  0
POINT
  5
872B
330
86B1
100
AcDbEntity
  8
DEFPOINTS
 62
     0
100
AcDbPoint
 10
1540.558067124581
 20
-1364.091359808379
 30
0.0
  0
POINT
  5
872C
330
86B1
100
AcDbEntity
  8
DEFPOINTS
 62
     0
100
AcDbPoint
 10
1704.153671276052
 20
-1364.091359808379
 30
0.0
  0
ENDBLK
  5
86BC
330
86B1
100
AcDbEntity
  8
0
100
AcDbBlockEnd
  0
BLOCK
  5
86C7
330
86BD
100
AcDbEntity
  8
0
100
AcDbBlockBegin
  2
*D7
 70
     1
 10
0.0
 20
0.0
 30
0.0
  3
*D7
  1

  0
LINE
  5
872D
330
86BD
100
AcDbEntity
  8
001
  6
Continuous
 62
     0
370
    -2
100
AcDbLine
 10
1662.064619909653
 20
-1943.217327650278
 30
0.0
 11
1616.663398933965
 21
-1943.217327650278
 31
0.0
  0
LINE
  5
872E
330
86BD
100
AcDbEntity
  8
001
  6
Continuous
 62
     0
370
    -2
100
AcDbLine
 10
1662.064619909653
 20
-2148.217327650278
 30
0.0
 11
1616.663398933965
 21
-2148.217327650278
 31
0.0
  0
LINE
  5
872F
330
86BD
100
AcDbEntity
  8
001
  6
Continuous
 62
     0
370
    -2
100
AcDbLine
 10
1616.663398933965
 20
-1954.467327650278
 30
0.0
 11
1616.663398933965
 21
-2136.967327650278
 31
0.0
  0
INSERT
  5
8730
330
86BD
100
AcDbEntity
  8
001
  6
Continuous
 62
     0
370
    -2
100
AcDbBlockReference
  2
_Open
 10
1616.663398933965
 20
-1943.217327650278
 30
0.0
 41
11.25
 42
11.25
 43
11.25
 50
90.0
  0
INSERT
  5
8731
330
86BD
100
AcDbEntity
  8
001
  6
Continuous
 62
     0
370
    -2
100
AcDbBlockReference
  2
_Open
 10
1616.663398933965
 20
-2148.217327650278
 30
0.0
 41
11.25
 42
11.25
 43
11.25
 50
270.0
  0
MTEXT
  5
8732
330
86BD
100
AcDbEntity
  8
001
  6
Continuous
 62
     0
100
AcDbMText
 10
1603.538398933966
 20
-2045.717327650277
 30
0.0
 40
11.25
 41
0.0
 71
     5
 72
     1
  1
\A1;φ205
 11
0.0000000000000001
 21
1.0
 31
0.0
 73
     1
 44
1.0
  0
POINT
  5
8733
330
86BD
100
AcDbEntity
  8
DEFPOINTS
  6
Continuous
 62
     0
100
AcDbPoint
 10
1671.439619909653
 20
-1943.217327650278
 30
0.0
  0
POINT
  5
8734
330
86BD
100
AcDbEntity
  8
DEFPOINTS
  6
Continuous
 62
     0
100
AcDbPoint
 10
1671.439619909653
 20
-2148.217327650278
 30
0.0
  0
POINT
  5
8735
330
86BD
100
AcDbEntity
  8
DEFPOINTS
  6
Continuous
 62
     0
100
AcDbPoint
 10
1616.663398933965
 20
-2148.217327650278
 30
0.0
  0
ENDBLK
  5
86C8
330
86BD
100
AcDbEntity
  8
0
100
AcDbBlockEnd
  0
BLOCK
  5
86D5
330
86C9
100
AcDbEntity
  8
0
100
AcDbBlockBegin
  2
*D8
 70
     1
 10
0.0
 20
0.0
 30
0.0
  3
*D8
  1

  0
LINE
  5
8736
330
86C9
100
AcDbEntity
  8
001
  6
Continuous
 62
     0
370
    -2
100
AcDbLine
 10
1695.439619909653
 20
-1933.842327650278
 30
0.0
 11
1695.439619909653
 21
-1892.581683252979
 31
0.0
  0
LINE
  5
8737
330
86C9
100
AcDbEntity
  8
001
  6
Continuous
 62
     0
370
    -2
100
AcDbLine
 10
1670.439619909653
 20
-1933.842327650278
 30
0.0
 11
1670.439619909653
 21
-1892.581683252979
 31
0.0
  0
LINE
  5
8738
330
86C9
100
AcDbEntity
  8
001
  6
Continuous
 62
     0
370
    -2
100
AcDbLine
 10
1659.189619909653
 20
-1892.581683252979
 30
0.0
 11
1647.939619909653
 21
-1892.581683252979
 31
0.0
  0
LINE
  5
8739
330
86C9
100
AcDbEntity
  8
001
  6
Continuous
 62
     0
370
    -2
100
AcDbLine
 10
1706.689619909653
 20
-1892.581683252979
 30
0.0
 11
1753.814619909653
 21
-1892.581683252979
 31
0.0
  0
LINE
  5
873A
330
86C9
100
AcDbEntity
  8
001
  6
Continuous
 62
     0
370
    -2
100
AcDbLine
 10
1670.439619909653
 20
-1892.581683252979
 30
0.0
 11
1695.439619909653
 21
-1892.581683252979
 31
0.0
  0
INSERT
  5
873B
330
86C9
100
AcDbEntity
  8
001
  6
Continuous
 62
     0
370
    -2
100
AcDbBlockReference
  2
_Open
 10
1670.439619909653
 20
-1892.581683252979
 30
0.0
 41
11.25
 42
11.25
 43
11.25
  0
INSERT
  5
873C
330
86C9
100
AcDbEntity
  8
001
  6
Continuous
 62
     0
370
    -2
100
AcDbBlockReference
  2
_Open
 10
1695.439619909653
 20
-1892.581683252979
 30
0.0
 41
11.25
 42
11.25
 43
11.25
 50
180.0
  0
MTEXT
  5
873D
330
86C9
100
AcDbEntity
  8
001
  6
Continuous
 62
     0
100
AcDbMText
 10
1736.939619909653
 20
-1879.456683252979
 30
0.0
 40
11.25
 41
0.0
 71
     5
 72
     1
  1
\A1;25
 73
     1
 44
1.0
  0
POINT
  5
873E
330
86C9
100
AcDbEntity
  8
DEFPOINTS
  6
Continuous
 62
     0
100
AcDbPoint
 10
1695.439619909653
 20
-1943.217327650278
 30
0.0
  0
POINT
  5
873F
330
86C9
100
AcDbEntity
  8
DEFPOINTS
  6
Continuous
 62
     0
100
AcDbPoint
 10
1670.439619909653
 20
-1943.217327650278
 30
0.0
  0
POINT
  5
8740
330
86C9
100
AcDbEntity
  8
DEFPOINTS
  6
Continuous
 62
     0
100
AcDbPoint
 10
1670.439619909653
 20
-1892.581683252979
 30
0.0
  0
ENDBLK
  5
86D6
330
86C9
100
AcDbEntity
  8
0
100
AcDbBlockEnd
  0
BLOCK
  5
86E1
330
86D7
100
AcDbEntity
  8
0
100
AcDbBlockBegin
  2
*D9
 70
     1
 10
0.0
 20
0.0
 30
0.0
  3
*D9
  1

  0
LINE
  5
8741
330
86D7
100
AcDbEntity
  8
001
 62
     0
370
    -2
100
AcDbLine
 10
593.5974651294808
 20
-1279.500412150818
 30
0.0
 11
689.3684272752636
 21
-1296.387416745528
 31
0.0
  0
LINE
  5
8742
330
86D7
100
AcDbEntity
  8
001
 62
     0
370
    -2
100
AcDbLine
 10
574.4961655861185
 20
-1387.82926498216
 30
0.0
 11
670.2671277319013
 21
-1404.716269576871
 31
0.0
  0
LINE
  5
8743
330
86D7
100
AcDbEntity
  8
001
 62
     0
370
    -2
100
AcDbLine
 10
687.4148852765107
 20
-1307.466503966916
 30
0.0
 11
672.2206697306543
 21
-1393.637182355484
 31
0.0
  0
INSERT
  5
8744
330
86D7
100
AcDbEntity
  8
001
 62
     0
370
    -2
100
AcDbBlockReference
  2
_Open
 10
689.3684272752636
 20
-1296.387416745528
 30
0.0
 41
11.25
 42
11.25
 43
11.25
 50
79.99999999999996
  0
INSERT
  5
8745
330
86D7
100
AcDbEntity
  8
001
 62
     0
370
    -2
100
AcDbBlockReference
  2
_Open
 10
670.2671277319013
 20
-1404.716269576871
 30
0.0
 41
11.25
 42
11.25
 43
11.25
 50
259.9999999999999
  0
MTEXT
  5
8746
330
86D7
100
AcDbEntity
  8
001
 62
     0
100
AcDbMText
 10
666.8921757452973
 20
-1348.272710829321
 30
0.0
 40
11.25
 41
0.0
 71
     5
 72
     1
  1
\A1;110
 11
0.1736481776669311
 21
0.9848077530122079
 31
0.0
 73
     1
 44
1.0
  0
POINT
  5
8747
330
86D7
100
AcDbEntity
  8
DEFPOINTS
 62
     0
100
AcDbPoint
 10
584.3648924449913
 20
-1277.87246048519
 30
0.0
  0
POINT
  5
8748
330
86D7
100
AcDbEntity
  8
DEFPOINTS
 62
     0
100
AcDbPoint
 10
565.263592901629
 20
-1386.201313316533
 30
0.0
  0
POINT
  5
8749
330
86D7
100
AcDbEntity
  8
DEFPOINTS
 62
     0
100
AcDbPoint
 10
670.2671277319013
 20
-1404.716269576871
 30
0.0
  0
ENDBLK
  5
86E2
330
86D7
100
AcDbEntity
  8
0
100
AcDbBlockEnd
  0
BLOCK
  5
86FB
330
86EF
100
AcDbEntity
  8
0
100
AcDbBlockBegin
  2
*D10
 70
     1
 10
0.0
 20
0.0
 30
0.0
  3
*D10
  1

  0
LINE
  5
8753
330
86EF
100
AcDbEntity
  8
001
  6
Continuous
 62
     0
370
    -2
100
AcDbLine
 10
1019.398389727561
 20
-1984.842327650278
 30
0.0
 11
1019.398389727561
 21
-1965.870029949939
 31
0.0
  0
LINE
  5
8754
330
86EF
100
AcDbEntity
  8
001
  6
Continuous
 62
     0
370
    -2
100
AcDbLine
 10
999.3983897275615
 20
-1984.842327650278
 30
0.0
 11
999.3983897275615
 21
-1965.870029949939
 31
0.0
  0
LINE
  5
8755
330
86EF
100
AcDbEntity
  8
001
  6
Continuous
 62
     0
370
    -2
100
AcDbLine
 10
988.1483897275616
 20
-1965.870029949939
 30
0.0
 11
976.8983897275616
 21
-1965.870029949939
 31
0.0
  0
LINE
  5
8756
330
86EF
100
AcDbEntity
  8
001
  6
Continuous
 62
     0
370
    -2
100
AcDbLine
 10
1030.648389727561
 20
-1965.870029949939
 30
0.0
 11
1075.835889727561
 21
-1965.870029949939
 31
0.0
  0
LINE
  5
8757
330
86EF
100
AcDbEntity
  8
001
  6
Continuous
 62
     0
370
    -2
100
AcDbLine
 10
999.3983897275615
 20
-1965.870029949939
 30
0.0
 11
1019.398389727561
 21
-1965.870029949939
 31
0.0
  0
INSERT
  5
8758
330
86EF
100
AcDbEntity
  8
001
  6
Continuous
 62
     0
370
    -2
100
AcDbBlockReference
  2
_Open
 10
999.3983897275615
 20
-1965.870029949939
 30
0.0
 41
11.25
 42
11.25
 43
11.25
  0
INSERT
  5
8759
330
86EF
100
AcDbEntity
  8
001
  6
Continuous
 62
     0
370
    -2
100
AcDbBlockReference
  2
_Open
 10
1019.398389727561
 20
-1965.870029949939
 30
0.0
 41
11.25
 42
11.25
 43
11.25
 50
180.0
  0
MTEXT
  5
875A
330
86EF
100
AcDbEntity
  8
001
  6
Continuous
 62
     0
100
AcDbMText
 10
1059.898389727561
 20
-1952.745029949939
 30
0.0
 40
11.25
 41
0.0
 71
     5
 72
     1
  1
\A1;20
 73
     1
 44
1.0
  0
POINT
  5
875B
330
86EF
100
AcDbEntity
  8
DEFPOINTS
  6
Continuous
 62
     0
100
AcDbPoint
 10
1019.398389727561
 20
-1994.217327650278
 30
0.0
  0
POINT
  5
875C
330
86EF
100
AcDbEntity
  8
DEFPOINTS
  6
Continuous
 62
     0
100
AcDbPoint
 10
999.3983897275615
 20
-1994.217327650278
 30
0.0
  0
POINT
  5
875D
330
86EF
100
AcDbEntity
  8
DEFPOINTS
  6
Continuous
 62
     0
100
AcDbPoint
 10
999.3983897275615
 20
-1965.870029949939
 30
0.0
  0
ENDBLK
  5
86FC
330
86EF
100
AcDbEntity
  8
0
100
AcDbBlockEnd
  0
BLOCK
  5
8707
330
86FD
100
AcDbEntity
  8
0
100
AcDbBlockBegin
  2
*D11
 70
     1
 10
0.0
 20
0.0
 30
0.0
  3
*D11
  1

  0
LINE
  5
875E
330
86FD
100
AcDbEntity
  8
001
  6
Continuous
 62
     0
370
    -2
100
AcDbLine
 10
992.7554397275617
 20
-1992.717327650278
 30
0.0
 11
962.437666004685
 21
-1992.717327650278
 31
0.0
  0
LINE
  5
875F
330
86FD
100
AcDbEntity
  8
001
  6
Continuous
 62
     0
370
    -2
100
AcDbLine
 10
992.7554397275617
 20
-2098.717327650278
 30
0.0
 11
962.437666004685
 21
-2098.717327650278
 31
0.0
  0
LINE
  5
8760
330
86FD
100
AcDbEntity
  8
001
  6
Continuous
 62
     0
370
    -2
100
AcDbLine
 10
962.437666004685
 20
-2003.967327650278
 30
0.0
 11
962.437666004685
 21
-2087.467327650278
 31
0.0
  0
INSERT
  5
8761
330
86FD
100
AcDbEntity
  8
001
  6
Continuous
 62
     0
370
    -2
100
AcDbBlockReference
  2
_Open
 10
962.437666004685
 20
-1992.717327650278
 30
0.0
 41
11.25
 42
11.25
 43
11.25
 50
90.0
  0
INSERT
  5
8762
330
86FD
100
AcDbEntity
  8
001
  6
Continuous
 62
     0
370
    -2
100
AcDbBlockReference
  2
_Open
 10
962.437666004685
 20
-2098.717327650278
 30
0.0
 41
11.25
 42
11.25
 43
11.25
 50
270.0
  0
MTEXT
  5
8763
330
86FD
100
AcDbEntity
  8
001
  6
Continuous
 62
     0
100
AcDbMText
 10
949.3126660046854
 20
-2045.717327650278
 30
0.0
 40
11.25
 41
0.0
 71
     5
 72
     1
  1
\A1;M106
 11
0.0000000000000001
 21
1.0
 31
0.0
 73
     1
 44
1.0
  0
POINT
  5
8764
330
86FD
100
AcDbEntity
  8
DEFPOINTS
  6
Continuous
 62
     0
100
AcDbPoint
 10
1002.130439727561
 20
-1992.717327650278
 30
0.0
  0
POINT
  5
8765
330
86FD
100
AcDbEntity
  8
DEFPOINTS
  6
Continuous
 62
     0
100
AcDbPoint
 10
1002.130439727561
 20
-2098.717327650278
 30
0.0
  0
POINT
  5
8766
330
86FD
100
AcDbEntity
  8
DEFPOINTS
  6
Continuous
 62
     0
100
AcDbPoint
 10
962.437666004685
 20
-2098.717327650278
 30
0.0
  0
ENDBLK
  5
8708
330
86FD
100
AcDbEntity
  8
0
100
AcDbBlockEnd
  0
BLOCK
  5
878B
330
877F
100
AcDbEntity
  8
0
100
AcDbBlockBegin
  2
*D12
 70
     1
 10
0.0
 20
0.0
 30
0.0
  3
*D12
  1

  0
LINE
  5
8780
330
877F
100
AcDbEntity
  8
001
 62
     0
370
    -2
100
AcDbLine
 10
497.2051801491454
 20
-1078.748834922876
 30
0.0
 11
500.3691517526488
 21
-1060.80506029014
 31
0.0
  0
LINE
  5
8781
330
877F
100
AcDbEntity
  8
001
 62
     0
370
    -2
100
AcDbLine
 10
429.2388725055793
 20
-1077.482673944271
 30
0.0
 11
429.2388725055797
 21
-1054.581967222588
 31
0.0
  0
ARC
  5
8782
330
877F
100
AcDbEntity
  8
001
 62
     0
370
    -2
100
AcDbCircle
 10
429.2388725055793
 20
-1464.204919808375
 30
0.0
 40
409.6229525857871
100
AcDbArc
 50
81.5736368661734
 51
88.42636313382655
  0
INSERT
  5
8783
330
877F
100
AcDbEntity
  8
001
 62
     0
370
    -2
100
AcDbBlockReference
  2
_Open
 10
500.3691517526488
 20
-1060.80506029014
 30
0.0
 41
11.25
 42
11.25
 43
11.25
 50
350.7868184330867
  0
INSERT
  5
8784
330
877F
100
AcDbEntity
  8
001
 62
     0
370
    -2
100
AcDbBlockReference
  2
_Open
 10
429.2388725055797
 20
-1054.581967222588
 30
0.0
 41
11.25
 42
11.25
 43
11.25
 50
179.2131815669132
  0
MTEXT
  5
8785
330
877F
100
AcDbEntity
  8
001
 62
     0
100
AcDbMText
 10
466.0837843082456
 20
-1043.065650813274
 30
0.0
 40
11.25
 41
0.0
 71
     5
 72
     1
  1
\A1;10°
 11
0.9961946980917455
 21
-0.0871557427476585
 31
0.0
 73
     1
 44
1.0
  0
POINT
  5
8786
330
877F
100
AcDbEntity
  8
DEFPOINTS
 62
     0
100
AcDbPoint
 10
476.7931947638444
 20
-1057.351691088662
 30
0.0
  0
POINT
  5
8787
330
877F
100
AcDbEntity
  8
DEFPOINTS
 62
     0
100
AcDbPoint
 10
429.2388725055793
 20
-1669.867675724998
 30
0.0
  0
POINT
  5
8788
330
877F
100
AcDbEntity
  8
DEFPOINTS
 62
     0
100
AcDbPoint
 10
392.9749797106193
 20
-1669.867675724998
 30
0.0
  0
POINT
  5
8789
330
877F
100
AcDbEntity
  8
DEFPOINTS
 62
     0
100
AcDbPoint
 10
495.577228483518
 20
-1087.981407607366
 30
0.0
  0
POINT
  5
878A
330
877F
100
AcDbEntity
  8
DEFPOINTS
 62
     0
100
AcDbPoint
 10
429.2388725055793
 20
-1086.857673944271
 30
0.0
  0
ENDBLK
  5
878C
330
877F
100
AcDbEntity
  8
0
100
AcDbBlockEnd
  0
ENDSEC
  0
SECTION
  2
ENTITIES
  0
LINE
  5
81A9
330
1E
100
AcDbEntity
  8
001
 62
     3
100
AcDbLine
 10
1926.236585227538
 20
-2295.203257552221
 30
0.0
 11
1926.236585227538
 21
-952.8832575522219
 31
0.0
  0
LINE
  5
81AA
330
1E
100
AcDbEntity
  8
001
 62
     3
100
AcDbLine
 10
1541.236585227538
 20
-2295.203257552221
 30
0.0
 11
1541.236585227538
 21
-2172.703257552221
 31
0.0
  0
LINE
  5
81AB
330
1E
100
AcDbEntity
  8
001
 62
     3
100
AcDbLine
 10
1576.236585227538
 20
-2295.203257552221
 30
0.0
 11
1576.236585227538
 21
-2172.703257552221
 31
0.0
  0
LINE
  5
81AC
330
1E
100
AcDbEntity
  8
001
 62
     3
100
AcDbLine
 10
-28.02341477246182
 20
-2295.203257552221
 30
0.0
 11
-28.02341477246182
 21
-952.8832575522219
 31
0.0
  0
LWPOLYLINE
  5
81AD
330
1E
100
AcDbEntity
  8
001
  6
DASHED
100
AcDbPolyline
 90
        4
 70
     1
 43
0.0
 10
-104.4634147724609
 20
-2338.953257552221
 10
1968.236585227539
 20
-2338.953257552221
 10
1968.236585227539
 20
-873.2582575522206
 10
-104.4634147724609
 20
-873.2582575522206
  0
LINE
  5
81AE
330
1E
100
AcDbEntity
  8
001
 62
     3
100
AcDbLine
 10
1926.236585227538
 20
-2295.203257552221
 30
0.0
 11
-28.02341477246182
 21
-2295.203257552221
 31
0.0
  0
LINE
  5
81AF
330
1E
100
AcDbEntity
  8
001
 62
     3
100
AcDbLine
 10
1926.236585227538
 20
-2242.703257552221
 30
0.0
 11
1541.236585227538
 21
-2242.703257552221
 31
0.0
  0
LINE
  5
81B0
330
1E
100
AcDbEntity
  8
001
 62
     3
100
AcDbLine
 10
1926.236585227538
 20
-2242.703257552221
 30
0.0
 11
1541.236585227538
 21
-2242.703257552221
 31
0.0
  0
TEXT
  5
81B1
330
1E
100
AcDbEntity
  8
001
100
AcDbText
 10
1661.286102227538
 20
-2281.273102552221
 30
0.0
 40
21.0
  1
ＶＳＬ協会
 41
0.9920629999999999
100
AcDbText
  0
LINE
  5
81B2
330
1E
100
AcDbEntity
  8
001
 62
     3
100
AcDbLine
 10
1873.736585227538
 20
-2295.203257552221
 30
0.0
 11
1873.736585227538
 21
-2242.703257552221
 31
0.0
  0
LINE
  5
81B3
330
1E
100
AcDbEntity
  8
001
 62
     3
100
AcDbLine
 10
-28.02341477246182
 20
-952.8832575522219
 30
0.0
 11
1926.236585227538
 21
-952.8832575522219
 31
0.0
  0
LWPOLYLINE
  5
81B4
330
1E
100
AcDbEntity
  8
003
100
AcDbPolyline
 90
       64
 70
     0
 43
0.0
 10
1066.069015430612
 20
-1564.204919808379
 10
1372.60436647806
 20
-1564.204919808379
 10
1370.721453124581
 20
-1566.40011234931
 10
1369.671643124581
 20
-1568.76270434931
 10
1370.117616124581
 20
-1570.92585134931
 10
1371.524910124581
 20
-1573.12238034931
 10
1373.311455124581
 20
-1575.34390634931
 10
1374.895178124582
 20
-1577.58204434931
 10
1375.694011124581
 20
-1579.82840734931
 10
1375.352455124581
 20
-1581.96995634931
 10
1374.226661124581
 20
-1584.121159349311
 10
1372.771499124581
 20
-1586.29181334931
 10
1371.441841124582
 20
-1588.49171734931
 10
1370.692561124582
 20
-1590.73067034931
 10
1371.024432124581
 20
-1593.63658834931
 10
1372.349110124581
 20
-1596.57858934931
 10
1373.988247124581
 20
-1599.51390634931
 10
1375.263497124581
 20
-1602.39977034931
 10
1375.496512124581
 20
-1605.193414349311
 10
1374.599202124581
 20
-1607.361564349311
 10
1373.052465124581
 20
-1609.47338734931
 10
1371.328536124581
 20
-1611.56055234931
 10
1369.899653124581
 20
-1613.65473234931
 10
1369.238050124581
 20
-1615.78760034931
 10
1369.812005124582
 20
-1618.32400634931
 10
1371.363722124581
 20
-1620.91833434931
 10
1373.220683124581
 20
-1623.53483334931
 10
1374.710373124581
 20
-1626.13774934931
 10
1375.160274124582
 20
-1628.691332349311
 10
1374.366832124581
 20
-1630.81888534931
 10
1372.834372124581
 20
-1632.90630834931
 10
1371.079101124581
 20
-1634.97584434931
 10
1369.617231124581
 20
-1637.04973634931
 10
1368.964970124581
 20
-1639.15022834931
 10
1369.582350124582
 20
-1641.51724434931
 10
1371.170467124582
 20
-1643.913921349311
 10
1373.083559124582
 20
-1646.31036734931
 10
1374.675869124581
 20
-1648.67669134931
 10
1375.301636124581
 20
-1650.98300234931
 10
1374.689578124581
 20
-1652.94620034931
 10
1373.280414124582
 20
-1654.87471434931
 10
1371.522793124581
 20
-1656.803325349311
 10
1369.865365124582
 20
-1658.76681334931
 10
1368.756778124581
 20
-1660.79996134931
 10
1368.898960124581
 20
-1664.61429634931
 10
1370.923845124581
 20
-1668.61587634931
 10
1373.599957124581
 20
-1672.66588334931
 10
1375.695817124582
 20
-1676.62549934931
 10
1375.979945124581
 20
-1680.35590634931
 10
1374.812037124581
 20
-1682.53704934931
 10
1372.940561124581
 20
-1684.62454934931
 10
1370.866026124581
 20
-1686.67037534931
 10
1369.088943124582
 20
-1688.72649634931
 10
1368.109819124581
 20
-1690.84488334931
 10
1368.509163124581
 20
-1693.70262834931
 10
1370.226472124581
 20
-1696.69941134931
 10
1372.454313124581
 20
-1699.78728634931
 10
1374.385256124581
 20
-1702.91830634931
 10
1375.211868124581
 20
-1706.04452634931
 10
1374.621608124581
 20
-1708.64232334931
 10
1373.170705124581
 20
-1711.20963534931
 10
1371.352365124582
 20
-1713.75333334931
 10
1369.659796124582
 20
-1716.28028434931
 10
1368.586203124582
 20
-1718.79736034931
  0
LINE
  5
81B5
330
1E
100
AcDbEntity
  8
003
100
AcDbLine
 10
1137.725795124581
 20
-1214.09135980838
 30
0.0
 11
1379.593059008514
 21
-1214.09135980838
 31
0.0
  0
LINE
  5
81B6
330
1E
100
AcDbEntity
  8
001
100
AcDbLine
 10
1203.559547720331
 20
-1322.723832281331
 30
0.0
 11
1104.559547720331
 21
-1322.723832281331
 31
0.0
  0
TEXT
  5
81B7
330
1E
100
AcDbEntity
  8
001
100
AcDbText
 10
1089.222066856473
 20
-1004.39945805533
 30
0.0
 40
18.0
  1
角度なしアンカー頭部構造図
 41
0.787037
100
AcDbText
  0
LINE
  5
81B8
330
1E
100
AcDbEntity
  8
001
100
AcDbLine
 10
1089.222066856473
 20
-1007.960415276185
 30
0.0
 11
1310.272994579492
 21
-1007.960415276185
 31
0.0
  0
TEXT
  5
81B9
330
1E
100
AcDbEntity
  8
001
100
AcDbText
 10
1115.559547720331
 20
-1318.723832281331
 30
0.0
 40
12.8
  1
テーパーコーン
 41
0.716146
100
AcDbText
  0
LWPOLYLINE
  5
81BA
330
1E
100
AcDbEntity
  8
003
  6
Continuous
100
AcDbPolyline
 90
       12
 70
     1
 43
0.0
 10
289.6351067044183
 20
-1034.091359808379
 10
589.6002052282669
 20
-1034.091359808379
 10
689.6002052282669
 20
-1214.09135980838
 10
739.6176559663431
 20
-1214.09135980838
 10
739.6176559663431
 20
-1211.791359808379
 10
690.6176559663431
 20
-1211.791359808379
 10
590.6176559663431
 20
-1031.791359808379
 10
288.6176559663427
 20
-1031.791359808379
 10
188.6176559663422
 20
-1211.791359808379
 10
139.6176559663426
 20
-1211.791359808379
 10
139.6176559663426
 20
-1214.09135980838
 10
189.6351067044183
 20
-1214.09135980838
  0
LINE
  5
81BB
330
1E
100
AcDbEntity
  8
003
  6
Continuous
100
AcDbLine
 10
477.1373143222604
 20
-1564.204919808379
 30
0.0
 11
827.1404551635779
 21
-1564.204919808379
 31
0.0
  0
DIMENSION
  5
81BC
330
1E
100
AcDbEntity
  8
001
  6
Continuous
100
AcDbDimension
  2
*D4
 10
547.3445211400753
 20
-2108.217327650278
 30
0.0
 11
534.2195211400756
 21
-2045.717327650278
 31
0.0
 70
    32
 71
     5
 42
125.0
  3
ISO-25
100
AcDbAlignedDimension
 13
452.4205730164419
 23
-1983.217327650278
 33
0.0
 14
452.2962680164418
 24
-2108.217327650278
 34
0.0
 50
90.0
100
AcDbRotatedDimension
  0
LWPOLYLINE
  5
81BD
330
1E
100
AcDbEntity
  8
003
100
AcDbPolyline
 90
        4
 70
     0
 43
0.0
 10
526.6307991816965
 20
-1267.692382136133
 10
631.721327965336
 20
-1286.222677777608
 10
550.0847361056985
 20
-1383.5248713271
 10
491.8111452210653
 20
-1373.249664991373
  0
LWPOLYLINE
  5
81BE
330
1E
100
AcDbEntity
  8
003
100
AcDbPolyline
 90
        4
 70
     0
 43
0.0
 10
487.9325261508352
 20
-1394.905145262887
 10
554.2414189964252
 20
-1406.597192132471
 10
652.2053292279902
 20
-1289.83455987308
 10
526.6307991816965
 20
-1267.692382136133
  0
LINE
  5
81BF
330
1E
100
AcDbEntity
  8
002
100
AcDbLine
 10
490.50386704846
 20
-1373.019156578252
 30
0.0
 11
547.9499397800691
 21
-1383.148449136575
 31
0.0
  0
LINE
  5
81C0
330
1E
100
AcDbEntity
  8
002
100
AcDbLine
 10
490.50386704846
 20
-1373.019156578252
 30
0.0
 11
547.9499397800691
 21
-1383.148449136575
 31
0.0
  0
LINE
  5
81C1
330
1E
100
AcDbEntity
  8
002
100
AcDbLine
 10
480.8749393164602
 20
-1346.951078138552
 30
0.0
 11
551.7902729871743
 21
-1359.455364810642
 31
0.0
  0
LINE
  5
81C2
330
1E
100
AcDbEntity
  8
002
100
AcDbLine
 10
494.6714233124662
 20
-1349.383770505961
 30
0.0
 11
490.5038670484596
 21
-1373.019156578252
 31
0.0
  0
LINE
  5
81C3
330
1E
100
AcDbEntity
  8
002
100
AcDbLine
 10
458.7048217902024
 20
-1378.581819669195
 30
0.0
 11
499.5121435419309
 21
-1147.151997711326
 31
0.0
  0
LINE
  5
81C4
330
1E
100
AcDbEntity
  8
002
100
AcDbLine
 10
471.2118802534583
 20
-1380.787151525566
 30
0.0
 11
512.0192020051868
 21
-1149.357329567697
 31
0.0
  0
LINE
  5
81C5
330
1E
100
AcDbEntity
  8
002
  6
CENTER
100
AcDbLine
 10
464.9583510218303
 20
-1379.684485597381
 30
0.0
 11
506.633913661894
 21
-1143.330624874451
 31
0.0
  0
LINE
  5
81C7
330
1E
100
AcDbEntity
  8
004
  6
CENTER
 62
     6
100
AcDbLine
 10
392.9749797106192
 20
-1669.867675724998
 30
0.0
 11
495.577228483518
 21
-1087.981407607366
 31
0.0
  0
LINE
  5
81C8
330
1E
100
AcDbEntity
  8
002
100
AcDbLine
 10
466.7701532037904
 20
-1501.896733657861
 30
0.0
 11
494.1669108250684
 21
-1349.294811342326
 31
0.0
  0
MTEXT
  5
81C9
330
1E
100
AcDbEntity
  8
001
  6
Continuous
100
AcDbMText
 10
488.3283550657643
 20
-2044.550660650278
 30
0.0
 40
12.0
 41
0.0
 71
     5
 72
     1
  1
\A1;M106
 11
0.0000000000000001
 21
1.0
 31
0.0
 73
     1
 44
1.0
  0
LINE
  5
81CA
330
1E
100
AcDbEntity
  8
001
  6
Continuous
100
AcDbLine
 10
463.4622390164418
 20
-1991.550660650278
 30
0.0
 11
503.3283550657647
 21
-1991.550660650278
 31
0.0
  0
LINE
  5
81CB
330
1E
100
AcDbEntity
  8
003
100
AcDbLine
 10
514.7506281006358
 20
-1399.633900208027
 30
0.0
 11
485.7323171023917
 21
-1564.204919808379
 31
0.0
  0
LWPOLYLINE
  5
81CC
330
1E
100
AcDbEntity
  8
003
100
AcDbPolyline
 90
        4
 70
     0
 43
0.0
 10
491.8111452210653
 20
-1373.249664991373
 10
510.6924259852105
 20
-1376.578944220423
 10
506.8721660765381
 20
-1398.244714786692
 10
487.9325261508352
 20
-1394.905145262888
  0
LINE
  5
81CD
330
1E
100
AcDbEntity
  8
002
  6
Continuous
100
AcDbLine
 10
490.5038670484604
 20
-1373.019156578251
 30
0.0
 11
511.0863490864153
 21
-1376.64840349149
 31
0.0
  0
LINE
  5
81CE
330
1E
100
AcDbEntity
  8
002
  6
Continuous
100
AcDbLine
 10
490.5038670484604
 20
-1373.019156578252
 30
0.0
 11
510.2000221087041
 21
-1376.49212013159
 31
0.0
  0
LINE
  5
81CF
330
1E
100
AcDbEntity
  8
002
100
AcDbLine
 10
474.9118482756943
 20
-1286.667205011961
 30
0.0
 11
499.9259651832521
 21
-1217.941483696264
 31
0.0
  0
LINE
  5
81D0
330
1E
100
AcDbEntity
  8
002
100
AcDbLine
 10
498.0575325187405
 20
-1265.700424132135
 30
0.0
 11
492.1947690946621
 21
-1264.666660758959
 31
0.0
  0
LINE
  5
81D1
330
1E
100
AcDbEntity
  8
002
100
AcDbLine
 10
481.4026550645971
 20
-1326.735596425377
 30
0.0
 11
496.1747713597801
 21
-1329.340319090382
 31
0.0
  0
LINE
  5
81D2
330
1E
100
AcDbEntity
  8
002
100
AcDbLine
 10
498.4488606762111
 20
-1266.339014171145
 30
0.0
 11
484.5355696272831
 21
-1311.847340265172
 31
0.0
  0
LINE
  5
81D3
330
1E
100
AcDbEntity
  8
002
100
AcDbLine
 10
484.745311585541
 20
-1230.89886331895
 30
0.0
 11
509.7594284930988
 21
-1162.173142003253
 31
0.0
  0
LWPOLYLINE
  5
81D4
330
1E
100
AcDbEntity
  8
002
100
AcDbPolyline
 90
       34
 70
     0
 43
0.0
 10
536.5024080526138
 20
-1119.826825977053
 10
536.5785933484501
 20
-1118.321610814318
 10
536.2871253745841
 20
-1116.763822628943
 10
535.6303575445129
 20
-1115.166029016908
 10
534.6135873566074
 20
-1113.541123764752
 10
533.2450191306368
 20
-1111.902215690038
 10
531.535695232854
 20
-1110.262529187822
 10
529.4994076620094
 20
-1108.635295221616
 10
527.1525864638313
 20
-1107.033641274894
 10
524.5141671767485
 20
-1105.470490805765
 10
521.6054377702824
 20
-1103.958458070235
 10
518.4498676832638
 20
-1102.509740804608
 10
515.0729176321536
 20
-1101.13602982568
 10
511.5018352252802
 20
-1099.84840698927
 10
507.7654337806582
 20
-1098.65726354193
 10
503.8938605416644
 20
-1097.572209495201
 10
499.9183538885738
 20
-1096.601999337238
 10
495.8709906449378
 20
-1095.754462090442
 10
491.7844266068857
 20
-1095.036435251229
 10
487.6916344676867
 20
-1094.453713501948
 10
483.6256376294479
 20
-1094.010997712975
 10
479.6192433796952
 20
-1093.711859064256
 10
475.7047763010925
 20
-1093.558713362189
 10
471.9138220501839
 20
-1093.552794138593
 10
468.2769666212786
 20
-1093.694151354665
 10
464.8235562318157
 20
-1093.98164257137
 10
461.5814528665275
 20
-1094.412948740021
 10
458.5768172796481
 20
-1094.98458975733
 10
455.8338917093126
 20
-1095.691953170245
 10
453.3748073287231
 20
-1096.529332319687
 10
451.2194069332779
 20
-1097.489970217078
 10
449.3850796785498
 20
-1098.566115700022
 10
447.8866271584467
 20
-1099.749086129529
 10
446.7361394480251
 20
-1101.029336921422
  0
LWPOLYLINE
  5
81D5
330
1E
100
AcDbEntity
  8
002
100
AcDbPolyline
 90
       37
 70
     0
 43
0.0
 10
532.3990420867942
 20
-1119.103291845559
 10
532.4318470972818
 20
-1118.000771616215
 10
532.150949265402
 20
-1116.851403738926
 10
531.5584947303843
 20
-1115.663967260306
 10
530.6590089672452
 20
-1114.447533839729
 10
529.4593617879479
 20
-1113.211395575379
 10
527.9687200039372
 20
-1111.964993700908
 10
526.1984668383368
 20
-1110.717851573462
 10
524.1621286932634
 20
-1109.479494742622
 10
521.8752582407034
 20
-1108.259382611122
 10
519.3553262601006
 20
-1107.066836560703
 10
516.6215814411428
 20
-1105.910965475675
 10
513.6949078125578
 20
-1104.800598971263
 10
510.597659984199
 20
-1103.744219756137
 10
507.3534992002826
 20
-1102.749897153385
 10
503.9872061640274
 20
-1101.825225664506
 10
500.524496759632
 20
-1100.97727013683
 10
496.9918220173319
 20
-1100.212508152587
 10
493.4161666892675
 20
-1099.536780296417
 10
489.8248462625208
 20
-1098.955249286156
 10
486.2452933129141
 20
-1098.472356208694
 10
482.7048532454271
 20
-1098.091792626906
 10
479.2305696061077
 20
-1097.816462724358
 10
475.8489823154525
 20
-1097.648470067782
 10
472.5859236419599
 20
-1097.5890999094
 10
469.4663197372294
 20
-1097.638804500729
 10
466.5140005728742
 20
-1097.79720410384
 10
463.7515189143526
 20
-1098.063088580643
 10
461.1999761313689
 20
-1098.434426280185
 10
458.8788655040891
 20
-1098.90838311895
 10
456.8059155864327
 20
-1099.481335578635
 10
454.9969617839017
 20
-1100.148907972024
 10
453.4658232598251
 20
-1100.906002525005
 10
452.2241964096822
 20
-1101.746833395392
 10
451.2815654268654
 20
-1102.66497893685
 10
450.6451307091431
 20
-1103.653424923477
 10
450.3197534288212
 20
-1104.704619763335
  0
LINE
  5
81D6
330
1E
100
AcDbEntity
  8
002
100
AcDbLine
 10
467.991183534255
 20
-1319.293659084147
 30
0.0
 11
466.5183465157674
 21
-1324.111091239029
 31
0.0
  0
LINE
  5
81D7
330
1E
100
AcDbEntity
  8
002
100
AcDbLine
 10
482.7632998294379
 20
-1321.898381749151
 30
0.0
 11
482.4996540864471
 21
-1326.929026950741
 31
0.0
  0
LINE
  5
81D8
330
1E
100
AcDbEntity
  8
002
100
AcDbLine
 10
464.7453115269995
 20
-1344.32450004331
 30
0.0
 11
489.7594286082052
 21
-1275.598777742805
 31
0.0
  0
LINE
  5
81D9
330
1E
100
AcDbEntity
  8
002
100
AcDbLine
 10
418.7294679432466
 20
-1365.440526551292
 30
0.0
 11
427.411876826593
 21
-1316.200138900682
 31
0.0
  0
LINE
  5
81DA
330
1E
100
AcDbEntity
  8
002
100
AcDbLine
 10
422.7974183065357
 20
-1316.401911974123
 30
0.0
 11
419.3244547531971
 21
-1336.098067034368
 31
0.0
  0
LINE
  5
81DB
330
1E
100
AcDbEntity
  8
002
100
AcDbLine
 10
424.2746299360537
 20
-1316.662384240623
 30
0.0
 11
420.8016663827152
 21
-1336.358539300868
 31
0.0
  0
LINE
  5
81DC
330
1E
100
AcDbEntity
  8
002
100
AcDbLine
 10
423.9910758283736
 20
-1339.343666224454
 30
0.0
 11
449.0051927359314
 21
-1270.617944908757
 31
0.0
  0
LINE
  5
81DD
330
1E
100
AcDbEntity
  8
002
100
AcDbLine
 10
441.5179410676024
 20
-1319.702845229866
 30
0.0
 11
467.1229426459198
 21
-1324.217697849207
 31
0.0
  0
LINE
  5
81DE
330
1E
100
AcDbEntity
  8
002
100
AcDbLine
 10
402.7131700169998
 20
-1302.706250994575
 30
0.0
 11
397.503724686992
 21
-1332.250483584941
 31
0.0
  0
LINE
  5
81DF
330
1E
100
AcDbEntity
  8
002
100
AcDbLine
 10
389.6079925905637
 20
-1329.039653369378
 30
0.0
 11
396.5323345341644
 21
-1289.76975879182
 31
0.0
  0
LINE
  5
81E0
330
1E
100
AcDbEntity
  8
002
100
AcDbLine
 10
404.6415328093585
 20
-1300.408117873359
 30
0.0
 11
398.9809363165099
 21
-1332.51095585144
 31
0.0
  0
LINE
  5
81E1
330
1E
100
AcDbEntity
  8
002
  6
CENTER
100
AcDbLine
 10
424.5812331483298
 20
-1372.564910313037
 30
0.0
 11
466.2567957883934
 21
-1136.211049590106
 31
0.0
  0
LINE
  5
81E2
330
1E
100
AcDbEntity
  8
002
100
AcDbLine
 10
418.3277039167019
 20
-1371.462244384852
 30
0.0
 11
459.1350256684304
 21
-1140.032422426981
 31
0.0
  0
LWPOLYLINE
  5
81E3
330
1E
100
AcDbEntity
  8
003
100
AcDbPolyline
 90
        4
 70
     0
 43
0.0
 10
401.2221851546662
 20
-1357.276387177345
 10
343.2751079731349
 20
-1347.058754017045
 10
299.8411152002219
 20
-1227.703241903852
 10
405.1417824742245
 20
-1246.270590630864
  0
LINE
  5
81E4
330
1E
100
AcDbEntity
  8
002
100
AcDbLine
 10
430.8347623799577
 20
-1373.667576241222
 30
0.0
 11
471.6420841316862
 21
-1142.237754283351
 31
0.0
  0
LWPOLYLINE
  5
81E5
330
1E
100
AcDbEntity
  8
003
100
AcDbPolyline
 90
        4
 70
     0
 43
0.0
 10
405.1417824742245
 20
-1246.270590630864
 10
279.3571139375681
 20
-1224.09135980838
 10
331.4779052650637
 20
-1367.317974344212
 10
397.3435660844363
 20
-1378.931867448859
  0
LINE
  5
81E6
330
1E
100
AcDbEntity
  8
003
 62
     3
100
AcDbLine
 10
62.59713272977979
 20
-1423.690177382063
 30
0.0
 11
62.59713272977979
 21
-1195.128733872265
 31
0.0
  0
LINE
  5
81E7
330
1E
100
AcDbEntity
  8
004
  6
CENTER
 62
     6
100
AcDbLine
 10
429.2388725055793
 20
-1669.867675724998
 30
0.0
 11
429.2388725055793
 21
-1086.857673944271
 31
0.0
  0
LINE
  5
81E8
330
1E
100
AcDbEntity
  8
004
  6
CENTER
 62
     6
100
AcDbLine
 10
164.6927830164418
 20
-2045.717327650278
 30
0.0
 11
476.8507110164419
 21
-2045.717327650278
 31
0.0
  0
TEXT
  5
81E9
330
1E
100
AcDbEntity
  8
001
100
AcDbText
 10
136.473311016442
 20
-1869.762811650278
 30
0.0
 40
18.0
  1
アンカー頭部部品図
 41
0.787037
100
AcDbText
  0
LINE
  5
81EA
330
1E
100
AcDbEntity
  8
001
100
AcDbLine
 10
136.473311016442
 20
-1869.762811650278
 30
0.0
 11
288.473311016442
 21
-1869.762811650278
 31
0.0
  0
LINE
  5
81EB
330
1E
100
AcDbEntity
  8
003
  6
Continuous
100
AcDbLine
 10
62.59713272977979
 20
-1564.20491980838
 30
0.0
 11
348.1842682945521
 21
-1564.204919808381
 31
0.0
  0
TEXT
  5
81EC
330
1E
100
AcDbEntity
  8
001
100
AcDbText
 10
165.3664390164417
 20
-1914.472217650278
 30
0.0
 40
16.0
  1
ヘッドキャップ（Ｌ型）
 41
0.703125
100
AcDbText
  0
LINE
  5
81ED
330
1E
100
AcDbEntity
  8
001
100
AcDbLine
 10
165.3664390164417
 20
-1914.472217650278
 30
0.0
 11
314.3664390164417
 21
-1914.472217650278
 31
0.0
  0
LINE
  5
81EE
330
1E
100
AcDbEntity
  8
003
 62
     3
100
AcDbLine
 10
62.59713272977979
 20
-1470.292214382063
 30
0.0
 11
62.59713272977979
 21
-1607.788079907888
 31
0.0
  0
LINE
  5
81EF
330
1E
100
AcDbEntity
  8
003
 62
     3
100
AcDbLine
 10
82.3210157297799
 20
-1423.690177382063
 30
0.0
 11
44.19673472978002
 21
-1470.292214382063
 31
0.0
  0
LINE
  5
81F0
330
1E
100
AcDbEntity
  8
003
 62
     3
100
AcDbLine
 10
44.19673472978002
 20
-1470.292214382063
 30
0.0
 11
62.59713272977979
 21
-1470.292214382063
 31
0.0
  0
LINE
  5
81F1
330
1E
100
AcDbEntity
  8
003
 62
     3
100
AcDbLine
 10
62.59713272977979
 20
-1423.690177382063
 30
0.0
 11
82.3210157297799
 21
-1423.690177382063
 31
0.0
  0
DIMENSION
  5
81F2
330
1E
100
AcDbEntity
  8
001
  6
Continuous
100
AcDbDimension
  2
*D5
 10
454.0872390164418
 20
-1958.413833222276
 30
0.0
 11
314.0950335164418
 21
-1945.288833222276
 31
0.0
 70
    32
 71
     5
 42
279.9844109999999
  3
ISO-25
100
AcDbAlignedDimension
 13
174.1028280164418
 23
-2044.078251650278
 33
0.0
 14
454.0872390164418
 24
-1984.883994650278
 34
0.0
100
AcDbRotatedDimension
  0
LINE
  5
81F3
330
1E
100
AcDbEntity
  8
002
100
AcDbLine
 10
187.8297430164416
 20
-2091.550660650278
 30
0.0
 11
363.1383920164421
 21
-2097.671824650278
 31
0.0
  0
LINE
  5
81F4
330
1E
100
AcDbEntity
  8
002
100
AcDbLine
 10
363.2266190164418
 20
-1997.929552650277
 30
0.0
 11
190.9328670164418
 21
-2004.046815650278
 31
0.0
  0
LINE
  5
81F5
330
1E
100
AcDbEntity
  8
002
100
AcDbLine
 10
363.1383920164421
 20
-1993.762830650278
 30
0.0
 11
190.7539060164422
 21
-1999.883994650278
 31
0.0
  0
LINE
  5
81F6
330
1E
100
AcDbEntity
  8
002
100
AcDbLine
 10
330.212511016442
 20
-1999.348841650278
 30
0.0
 11
334.5703720164415
 21
-1994.990980650277
 31
0.0
  0
LWPOLYLINE
  5
81F7
330
1E
100
AcDbEntity
  8
002
100
AcDbPolyline
 90
       19
 70
     0
 43
0.0
 10
190.7539060164422
 20
-2004.050660650278
 10
189.6644590164419
 20
-2004.209215650278
 10
188.583304016442
 20
-2004.683671650278
 10
187.518668016442
 20
-2005.470418650278
 10
186.4786540164418
 20
-2006.563468650278
 10
185.471178016442
 20
-2007.954503650278
 10
184.5039060164422
 20
-2009.632935650278
 10
183.5842010164419
 20
-2011.585992650278
 10
182.719061016442
 20
-2013.798809650278
 10
181.9150710164417
 20
-2016.254544650278
 10
181.1783510164418
 20
-2018.934510650278
 10
180.5145050164419
 20
-2021.818309650277
 10
179.928588016442
 20
-2024.883994650278
 10
179.4250590164419
 20
-2028.108233650278
 10
179.0077480164418
 20
-2031.466488650278
 10
178.6798330164419
 20
-2034.933200650278
 10
178.4438090164417
 20
-2038.481986650278
 10
178.3014720164419
 20
-2042.085838650278
 10
178.2539060164422
 20
-2045.717327650278
  0
LINE
  5
81F8
330
1E
100
AcDbEntity
  8
002
100
AcDbLine
 10
180.089882016442
 20
-2010.577026650278
 30
0.0
 11
190.7842170164417
 21
-1999.882691650278
 31
0.0
  0
LWPOLYLINE
  5
81F9
330
1E
100
AcDbEntity
  8
002
100
AcDbPolyline
 90
       34
 70
     0
 43
0.0
 10
190.7539060164422
 20
-1999.883994650278
 10
189.2583300164419
 20
-2000.070344650278
 10
187.7748200164419
 20
-2000.627890650278
 10
186.3153480164419
 20
-2001.552135650278
 10
184.891688016442
 20
-2002.835620650278
 10
183.5153290164416
 20
-2004.467990650277
 10
182.1973740164416
 20
-2006.436074650278
 10
180.9484580164421
 20
-2008.723992650277
 10
179.778658016442
 20
-2011.313284650278
 10
178.6974130164417
 20
-2014.183058650278
 10
177.713446016442
 20
-2017.310159650278
 10
176.8346980164419
 20
-2020.669356650278
 10
176.0682570164421
 20
-2024.233545650278
 10
175.4203090164419
 20
-2027.973967650278
 10
174.8960810164421
 20
-2031.860445650278
 10
174.4998020164416
 20
-2035.861618650278
 10
174.2346720164418
 20
-2039.945203650277
 10
174.1028280164418
 20
-2044.078251650278
 10
174.1053340164421
 20
-2048.227415650278
 10
174.2421700164418
 20
-2052.359217650278
 10
174.5122330164417
 20
-2056.440319650278
 10
174.913343016442
 20
-2060.437792650278
 10
175.4422630164417
 20
-2064.319383650278
 10
176.0947270164419
 20
-2068.053772650278
 10
176.8654690164416
 20
-2071.610828650278
 10
177.7482710164417
 20
-2074.961852650278
 10
178.7360100164419
 20
-2078.079805650278
 10
179.820716016442
 20
-2080.939529650278
 10
180.9936380164417
 20
-2083.517951650278
 10
182.2453110164419
 20
-2085.794266650278
 10
183.5656360164416
 20
-2087.750109650277
 10
184.9439600164419
 20
-2089.369698650278
 10
186.3691620164417
 20
-2090.639964650278
 10
187.8297430164416
 20
-2091.550660650278
  0
LINE
  5
81FA
330
1E
100
AcDbEntity
  8
002
100
AcDbLine
 10
174.4905530164419
 20
-2035.975344650278
 30
0.0
 11
179.0087710164416
 21
-2031.457126650278
 31
0.0
  0
LINE
  5
81FB
330
1E
100
AcDbEntity
  8
002
100
AcDbLine
 10
176.0054750164417
 20
-2024.560927650278
 30
0.0
 11
181.0295940164419
 21
-2019.536808650278
 31
0.0
  0
LINE
  5
81FC
330
1E
100
AcDbEntity
  8
002
100
AcDbLine
 10
174.3135090164419
 20
-2038.490029650277
 30
0.0
 11
178.4377220164419
 21
-2038.598025650278
 31
0.0
  0
LINE
  5
81FD
330
1E
100
AcDbEntity
  8
002
100
AcDbLine
 10
174.2745980164418
 20
-2039.168943650278
 30
0.0
 11
178.4041250164418
 21
-2039.277078650278
 31
0.0
  0
LINE
  5
81FE
330
1E
100
AcDbEntity
  8
002
100
AcDbLine
 10
248.4915310164419
 20
-2001.572346650278
 30
0.0
 11
252.8493920164419
 21
-1997.214485650277
 31
0.0
  0
LINE
  5
81FF
330
1E
100
AcDbEntity
  8
002
100
AcDbLine
 10
207.1147470164419
 20
-2003.351150650278
 30
0.0
 11
211.4726090164417
 21
-1998.993289650278
 31
0.0
  0
LINE
  5
8200
330
1E
100
AcDbEntity
  8
002
100
AcDbLine
 10
196.7705510164419
 20
-2003.795851650278
 30
0.0
 11
201.1284130164417
 21
-1999.437990650278
 31
0.0
  0
LINE
  5
8201
330
1E
100
AcDbEntity
  8
002
100
AcDbLine
 10
217.4589430164419
 20
-2002.906449650278
 30
0.0
 11
221.8168050164417
 21
-1998.548588650278
 31
0.0
  0
LINE
  5
8202
330
1E
100
AcDbEntity
  8
002
100
AcDbLine
 10
227.8031390164419
 20
-2002.461748650278
 30
0.0
 11
232.1610010164417
 21
-1998.103887650278
 31
0.0
  0
LINE
  5
8203
330
1E
100
AcDbEntity
  8
002
100
AcDbLine
 10
238.1473350164419
 20
-2002.017047650278
 30
0.0
 11
242.5051960164419
 21
-1997.659186650278
 31
0.0
  0
LINE
  5
8204
330
1E
100
AcDbEntity
  8
002
100
AcDbLine
 10
288.8357270164419
 20
-2001.127645650278
 30
0.0
 11
293.1935880164419
 21
-1996.769784650278
 31
0.0
  0
LINE
  5
8205
330
1E
100
AcDbEntity
  8
002
100
AcDbLine
 10
299.1799230164419
 20
-2000.682944650278
 30
0.0
 11
303.5377840164419
 21
-1996.325083650278
 31
0.0
  0
LINE
  5
8206
330
1E
100
AcDbEntity
  8
002
100
AcDbLine
 10
309.5241190164419
 20
-2000.238243650278
 30
0.0
 11
313.8819800164419
 21
-1995.880382650278
 31
0.0
  0
LINE
  5
8207
330
1E
100
AcDbEntity
  8
002
100
AcDbLine
 10
319.868315016442
 20
-1999.793542650278
 30
0.0
 11
324.2261760164419
 21
-1995.435681650278
 31
0.0
  0
LINE
  5
8208
330
1E
100
AcDbEntity
  8
002
100
AcDbLine
 10
453.2212140164415
 20
-1993.050660650278
 30
0.0
 11
453.2212140164415
 21
-2026.848616650278
 31
0.0
  0
LINE
  5
8209
330
1E
100
AcDbEntity
  8
002
100
AcDbLine
 10
421.4891630164415
 20
-1993.050660650278
 30
0.0
 11
421.4891630164415
 21
-2045.717327650278
 31
0.0
  0
LINE
  5
820A
330
1E
100
AcDbEntity
  8
002
100
AcDbLine
 10
424.0872390164417
 20
-1993.633994650278
 30
0.0
 11
424.0872390164417
 21
-2026.848616650278
 31
0.0
  0
LINE
  5
820B
330
1E
100
AcDbEntity
  8
002
100
AcDbLine
 10
454.0872390164418
 20
-2106.550660650278
 30
0.0
 11
454.0872390164418
 21
-1984.883994650278
 31
0.0
  0
ARC
  5
820C
330
1E
100
AcDbEntity
  8
002
100
AcDbCircle
 10
410.4205730164417
 20
-2055.129629650278
 30
0.0
 40
2.0
100
AcDbArc
 50
0.0
 51
79.46339199999321
  0
LINE
  5
820D
330
1E
100
AcDbEntity
  8
002
100
AcDbLine
 10
373.2360930164418
 20
-2102.339655650278
 30
0.0
 11
412.4205730164417
 21
-2108.217327650278
 31
0.0
  0
ARC
  5
820E
330
1E
100
AcDbEntity
  8
002
100
AcDbCircle
 10
412.0410260164422
 20
-2107.857039650278
 30
0.0
 40
0.3
100
AcDbArc
 50
261.4692339999802
 51
11.51304800001012
  0
LINE
  5
820F
330
1E
100
AcDbEntity
  8
002
100
AcDbLine
 10
411.5211760164416
 20
-2103.801800650278
 30
0.0
 11
412.4205730164417
 21
-2108.217327650278
 31
0.0
  0
ARC
  5
8210
330
1E
100
AcDbEntity
  8
002
100
AcDbCircle
 10
410.4205730164417
 20
-2099.323803650278
 30
0.0
 40
2.0
100
AcDbArc
 50
0.0
 51
79.46339199999321
  0
ARC
  5
8211
330
1E
100
AcDbEntity
  8
002
100
AcDbCircle
 10
410.4205730164417
 20
-2080.499199650278
 30
0.0
 40
2.0
100
AcDbArc
 50
280.5366080000068
 51
0.0
  0
ARC
  5
8212
330
1E
100
AcDbEntity
  8
002
100
AcDbCircle
 10
374.4722630164419
 20
-2094.098519650278
 30
0.0
 40
8.333332999999999
100
AcDbArc
 50
227.9451879999797
 51
261.4692339999802
  0
ARC
  5
8213
330
1E
100
AcDbEntity
  8
002
100
AcDbCircle
 10
362.780470016442
 20
-2105.997468650278
 30
0.0
 40
8.333332999999999
100
AcDbArc
 50
47.9451879999798
 51
87.53834799998434
  0
LINE
  5
8214
330
1E
100
AcDbEntity
  8
002
100
AcDbLine
 10
368.362480016442
 20
-2099.809931650278
 30
0.0
 11
368.8902530164418
 21
-2100.286055650277
 31
0.0
  0
LINE
  5
8215
330
1E
100
AcDbEntity
  8
002
100
AcDbLine
 10
370.7539060164422
 20
-2045.717327650278
 30
0.0
 11
370.7539060164422
 21
-2101.556284650278
 31
0.0
  0
LINE
  5
8216
330
1E
100
AcDbEntity
  8
002
100
AcDbLine
 10
381.3127210164416
 20
-2048.681266650278
 30
0.0
 11
409.786300016442
 21
-2053.977352650278
 31
0.0
  0
LINE
  5
8217
330
1E
100
AcDbEntity
  8
002
100
AcDbLine
 10
381.3127210164416
 20
-2047.681266650277
 30
0.0
 11
410.786300016442
 21
-2053.163352650277
 31
0.0
  0
ARC
  5
8218
330
1E
100
AcDbEntity
  8
002
100
AcDbCircle
 10
381.6910130164419
 20
-2046.716501650278
 30
0.0
 40
2.0
100
AcDbArc
 50
180.023667999991
 51
259.4633919999931
  0
ARC
  5
8219
330
1E
100
AcDbEntity
  8
002
100
AcDbCircle
 10
381.6910130164419
 20
-2045.716501650278
 30
0.0
 40
2.0
100
AcDbArc
 50
180.023667999991
 51
259.4633919999931
  0
LINE
  5
821A
330
1E
100
AcDbEntity
  8
002
100
AcDbLine
 10
379.6910130164419
 20
-2046.717327650278
 30
0.0
 11
379.6910130164419
 21
-2045.717327650278
 31
0.0
  0
ARC
  5
821B
330
1E
100
AcDbEntity
  8
002
100
AcDbCircle
 10
409.4205730164417
 20
-2055.943629650278
 30
0.0
 40
2.0
100
AcDbArc
 50
0.0
 51
79.46339199999321
  0
LINE
  5
821C
330
1E
100
AcDbEntity
  8
002
100
AcDbLine
 10
379.6910130164419
 20
-2103.307893650277
 30
0.0
 11
411.1205730164419
 21
-2103.307893650277
 31
0.0
  0
LINE
  5
821D
330
1E
100
AcDbEntity
  8
002
  6
CENTER
100
AcDbLine
 10
379.5484670164419
 20
-2067.814414650277
 30
0.0
 11
403.0656150164418
 21
-2067.814414650277
 31
0.0
  0
LINE
  5
821E
330
1E
100
AcDbEntity
  8
002
100
AcDbLine
 10
381.3252850164421
 20
-2087.945224650277
 30
0.0
 11
410.786300016442
 21
-2082.465475650278
 31
0.0
  0
LINE
  5
821F
330
1E
100
AcDbEntity
  8
002
100
AcDbLine
 10
381.3252850164421
 20
-2091.877777650278
 30
0.0
 11
410.786300016442
 21
-2097.357526650278
 31
0.0
  0
LINE
  5
8220
330
1E
100
AcDbEntity
  8
002
100
AcDbLine
 10
381.3252850164421
 20
-2086.945224650277
 30
0.0
 11
409.786300016442
 21
-2081.651475650278
 31
0.0
  0
ARC
  5
8221
330
1E
100
AcDbEntity
  8
002
100
AcDbCircle
 10
381.6910130164419
 20
-2088.911501650277
 30
0.0
 40
2.0
100
AcDbArc
 50
100.5366080000067
 51
194.4775120000113
  0
ARC
  5
8222
330
1E
100
AcDbEntity
  8
002
100
AcDbCircle
 10
381.6910130164419
 20
-2089.911501650278
 30
0.0
 40
2.0
100
AcDbArc
 50
100.5366080000067
 51
259.4633919999931
  0
ARC
  5
8223
330
1E
100
AcDbEntity
  8
002
100
AcDbCircle
 10
411.1205730164419
 20
-2103.607893650278
 30
0.0
 40
0.3
100
AcDbArc
 50
0.0
 51
90.0
  0
ARC
  5
8224
330
1E
100
AcDbEntity
  8
002
100
AcDbCircle
 10
416.4205730164416
 20
-2102.803844650278
 30
0.0
 40
5.0
100
AcDbArc
 50
180.0
 51
191.5130480000101
  0
ARC
  5
8225
330
1E
100
AcDbEntity
  8
002
100
AcDbCircle
 10
409.4205730164417
 20
-2101.307893650278
 30
0.0
 40
2.0
100
AcDbArc
 50
270.0
 51
0.0
  0
LINE
  5
8226
330
1E
100
AcDbEntity
  8
002
100
AcDbLine
 10
411.4205730164417
 20
-2099.137803650278
 30
0.0
 11
411.4205730164417
 21
-2108.067327650278
 31
0.0
  0
ARC
  5
8227
330
1E
100
AcDbEntity
  8
002
100
AcDbCircle
 10
409.4205730164417
 20
-2099.137803650278
 30
0.0
 40
2.0
100
AcDbArc
 50
0.0
 51
79.46339199999321
  0
CIRCLE
  5
8228
330
1E
100
AcDbEntity
  8
002
100
AcDbCircle
 10
391.5872390164417
 20
-2067.814414650277
 30
0.0
 40
5.0
  0
CIRCLE
  5
8229
330
1E
100
AcDbEntity
  8
002
100
AcDbCircle
 10
391.5872390164417
 20
-2067.814414650277
 30
0.0
 40
3.5
  0
ARC
  5
822A
330
1E
100
AcDbEntity
  8
002
100
AcDbCircle
 10
409.4205730164417
 20
-2079.685199650277
 30
0.0
 40
2.0
100
AcDbArc
 50
280.5366080000068
 51
0.0
  0
LINE
  5
822B
330
1E
100
AcDbEntity
  8
002
  6
CENTER
100
AcDbLine
 10
391.5872390164417
 20
-2059.036050650278
 30
0.0
 11
391.5872390164417
 21
-2076.812477650277
 31
0.0
  0
LINE
  5
822C
330
1E
100
AcDbEntity
  8
002
100
AcDbLine
 10
411.4205730164417
 20
-2055.943629650278
 30
0.0
 11
411.4205730164417
 21
-2079.685199650277
 31
0.0
  0
LINE
  5
822D
330
1E
100
AcDbEntity
  8
002
100
AcDbLine
 10
453.9629350164418
 20
-2106.550660650278
 30
0.0
 11
452.2962680164418
 21
-2108.217327650278
 31
0.0
  0
LINE
  5
822E
330
1E
100
AcDbEntity
  8
002
100
AcDbLine
 10
452.2962680164418
 20
-2108.217327650278
 30
0.0
 11
412.4205730164417
 21
-2108.217327650278
 31
0.0
  0
LINE
  5
822F
330
1E
100
AcDbEntity
  8
002
100
AcDbLine
 10
412.4205730164417
 20
-2099.323803650278
 30
0.0
 11
412.4205730164417
 21
-2108.217327650278
 31
0.0
  0
ARC
  5
8230
330
1E
100
AcDbEntity
  8
002
100
AcDbCircle
 10
429.2120450164416
 20
-2106.550660650278
 30
0.0
 40
1.666666999999999
100
AcDbArc
 50
261.4692339999802
 51
270.0
  0
LINE
  5
8231
330
1E
100
AcDbEntity
  8
002
100
AcDbLine
 10
452.4205730164417
 20
-2108.217327650278
 30
0.0
 11
452.4205730164417
 21
-2045.717327650278
 31
0.0
  0
LINE
  5
8232
330
1E
100
AcDbEntity
  8
002
100
AcDbLine
 10
412.4205730164417
 20
-2055.129629650278
 30
0.0
 11
412.4205730164417
 21
-2080.499199650278
 31
0.0
  0
LINE
  5
8233
330
1E
100
AcDbEntity
  8
002
100
AcDbLine
 10
373.2360930164418
 20
-1989.094999650278
 30
0.0
 11
412.4205730164417
 21
-1983.217327650278
 31
0.0
  0
LINE
  5
8234
330
1E
100
AcDbEntity
  8
002
100
AcDbLine
 10
374.0496510164416
 20
-1993.633994650278
 30
0.0
 11
421.4891630164415
 21
-1993.633994650278
 31
0.0
  0
LINE
  5
8235
330
1E
100
AcDbEntity
  8
002
100
AcDbLine
 10
405.2238230164416
 20
-1993.633994650278
 30
0.0
 11
415.6404890164417
 21
-1983.217327650278
 31
0.0
  0
ARC
  5
8236
330
1E
100
AcDbEntity
  8
002
100
AcDbCircle
 10
374.4722630164419
 20
-1997.336135650277
 30
0.0
 40
8.333332999999999
100
AcDbArc
 50
98.53076600001974
 51
132.0548120000202
  0
ARC
  5
8237
330
1E
100
AcDbEntity
  8
002
100
AcDbCircle
 10
374.0496510164416
 20
-2001.967327650278
 30
0.0
 40
8.333332999999999
100
AcDbArc
 50
90.0
 51
133.1565450000125
  0
LINE
  5
8238
330
1E
100
AcDbEntity
  8
002
100
AcDbLine
 10
340.5567060164417
 20
-1998.904140650277
 30
0.0
 11
344.9145680164415
 21
-1994.546279650278
 31
0.0
  0
ARC
  5
8239
330
1E
100
AcDbEntity
  8
002
100
AcDbCircle
 10
362.780470016442
 20
-1985.437186650278
 30
0.0
 40
8.333332999999999
100
AcDbArc
 50
272.4616520000156
 51
312.0548120000201
  0
LINE
  5
823A
330
1E
100
AcDbEntity
  8
002
100
AcDbLine
 10
368.362480016442
 20
-1991.624723650278
 30
0.0
 11
368.8902530164418
 21
-1991.148599650277
 31
0.0
  0
ARC
  5
823B
330
1E
100
AcDbEntity
  8
002
100
AcDbCircle
 10
362.8686970164417
 20
-1989.603909650278
 30
0.0
 40
8.333332999999999
100
AcDbArc
 50
272.4616520000156
 51
313.1565450000125
  0
LINE
  5
823C
330
1E
100
AcDbEntity
  8
002
100
AcDbLine
 10
350.9009020164417
 20
-1998.459439650278
 30
0.0
 11
355.2587640164415
 21
-1994.101578650278
 31
0.0
  0
LINE
  5
823D
330
1E
100
AcDbEntity
  8
002
100
AcDbLine
 10
361.2450980164417
 20
-1998.014738650278
 30
0.0
 11
366.2424860164419
 21
-1993.017350650278
 31
0.0
  0
LINE
  5
823E
330
1E
100
AcDbEntity
  8
002
100
AcDbLine
 10
375.5253380164417
 20
-1993.633994650278
 30
0.0
 11
381.2693160164421
 21
-1987.890015650278
 31
0.0
  0
LINE
  5
823F
330
1E
100
AcDbEntity
  8
002
100
AcDbLine
 10
395.324328016442
 20
-1993.633994650278
 30
0.0
 11
404.5622450164419
 21
-1984.396076650278
 31
0.0
  0
LINE
  5
8240
330
1E
100
AcDbEntity
  8
002
100
AcDbLine
 10
385.4248330164418
 20
-1993.633994650278
 30
0.0
 11
392.915781016442
 21
-1986.143046650277
 31
0.0
  0
LINE
  5
8241
330
1E
100
AcDbEntity
  8
002
100
AcDbLine
 10
421.4891630164415
 20
-1993.050660650278
 30
0.0
 11
453.2212140164415
 21
-1993.050660650278
 31
0.0
  0
LINE
  5
8242
330
1E
100
AcDbEntity
  8
002
100
AcDbLine
 10
424.0872390164417
 20
-1991.550660650278
 30
0.0
 11
454.0872390164418
 21
-1991.550660650278
 31
0.0
  0
LINE
  5
8243
330
1E
100
AcDbEntity
  8
002
100
AcDbLine
 10
452.4205730164417
 20
-1983.217327650278
 30
0.0
 11
454.0872390164418
 21
-1984.883994650278
 31
0.0
  0
LINE
  5
8244
330
1E
100
AcDbEntity
  8
002
100
AcDbLine
 10
446.9051360164416
 20
-1991.550660650278
 30
0.0
 11
453.8295210164419
 21
-1984.626275650277
 31
0.0
  0
LINE
  5
8245
330
1E
100
AcDbEntity
  8
002
100
AcDbLine
 10
452.4205730164417
 20
-1983.217327650278
 30
0.0
 11
412.4205730164417
 21
-1983.217327650278
 31
0.0
  0
LINE
  5
8246
330
1E
100
AcDbEntity
  8
002
100
AcDbLine
 10
415.1233180164418
 20
-1993.633994650278
 30
0.0
 11
425.5399840164418
 21
-1983.217327650278
 31
0.0
  0
LINE
  5
8247
330
1E
100
AcDbEntity
  8
002
100
AcDbLine
 10
421.4891630164415
 20
-1993.050660650278
 30
0.0
 11
424.0872390164417
 21
-1991.550660650278
 31
0.0
  0
LINE
  5
8248
330
1E
100
AcDbEntity
  8
002
100
AcDbLine
 10
427.1061460164414
 20
-1991.550660650278
 30
0.0
 11
435.4394790164419
 21
-1983.217327650278
 31
0.0
  0
LINE
  5
8249
330
1E
100
AcDbEntity
  8
002
100
AcDbLine
 10
424.0872390164417
 20
-1991.550660650278
 30
0.0
 11
424.0872390164417
 21
-1993.633994650278
 31
0.0
  0
LINE
  5
824A
330
1E
100
AcDbEntity
  8
002
100
AcDbLine
 10
437.005641016442
 20
-1991.550660650278
 30
0.0
 11
445.3389740164416
 21
-1983.217327650278
 31
0.0
  0
LINE
  5
824B
330
1E
100
AcDbEntity
  8
002
100
AcDbLine
 10
453.2212140164415
 20
-1993.050660650278
 30
0.0
 11
454.0872390164418
 21
-1991.550660650278
 31
0.0
  0
LINE
  5
824C
330
1E
100
AcDbEntity
  8
003
100
AcDbLine
 10
321.3206185240287
 20
-1339.621773487551
 30
0.0
 11
338.2199945351476
 21
-1333.424106853337
 31
0.0
  0
LINE
  5
824D
330
1E
100
AcDbEntity
  8
003
100
AcDbLine
 10
324.4194517543119
 20
-1348.071461985514
 30
0.0
 11
341.3188277654317
 21
-1341.8737953513
 31
0.0
  0
LINE
  5
824E
330
1E
100
AcDbEntity
  8
004
  6
CENTER
100
AcDbLine
 10
317.886702405287
 20
-1345.674202203195
 30
0.0
 11
344.6071619021895
 21
-1335.874757720328
 31
0.0
  0
LINE
  5
824F
330
1E
100
AcDbEntity
  8
003
 62
     3
100
AcDbLine
 10
332.9874918770351
 20
-1638.947467002399
 30
0.0
 11
330.9216733037997
 21
-1640.541570384065
 31
0.0
  0
LINE
  5
8250
330
1E
100
AcDbEntity
  8
003
 62
     3
100
AcDbLine
 10
330.2127762254417
 20
-1656.523836228386
 30
0.0
 11
331.589215300009
 21
-1660.787239033782
 31
0.0
  0
LINE
  5
8251
330
1E
100
AcDbEntity
  8
003
 62
     3
100
AcDbLine
 10
331.589215300009
 20
-1660.787239033782
 30
0.0
 11
331.2212483797498
 21
-1664.510311078697
 31
0.0
  0
LINE
  5
8252
330
1E
100
AcDbEntity
  8
003
100
AcDbLine
 10
361.613022507237
 20
-1372.631608580819
 30
0.0
 11
327.8334789541581
 21
-1564.204919808381
 31
0.0
  0
LINE
  5
8253
330
1E
100
AcDbEntity
  8
003
 62
     3
100
AcDbLine
 10
331.2212483797498
 20
-1664.510311078697
 30
0.0
 11
329.692332019365
 21
-1666.455512519642
 31
0.0
  0
LINE
  5
8254
330
1E
100
AcDbEntity
  8
003
 62
     3
100
AcDbLine
 10
324.3749549253284
 20
-1683.0342651825
 30
0.0
 11
325.7328666451153
 21
-1686.453022686464
 31
0.0
  0
LINE
  5
8255
330
1E
100
AcDbEntity
  8
003
 62
     3
100
AcDbLine
 10
324.9716628061701
 20
-1692.131121100526
 30
0.0
 11
323.0969932325992
 21
-1694.407483200605
 31
0.0
  0
LINE
  5
8256
330
1E
100
AcDbEntity
  8
003
 62
     3
100
AcDbLine
 10
323.0969932325992
 20
-1694.407483200605
 30
0.0
 11
320.8645693807525
 21
-1696.596785284948
 31
0.0
  0
LINE
  5
8257
330
1E
100
AcDbEntity
  8
003
 62
     3
100
AcDbLine
 10
318.7589138708403
 20
-1698.791434698804
 30
0.0
 11
317.2645455004117
 21
-1701.083843190519
 31
0.0
  0
LINE
  5
8258
330
1E
100
AcDbEntity
  8
003
 62
     3
100
AcDbLine
 10
320.8645693807525
 20
-1696.596785284948
 30
0.0
 11
318.7589138708403
 21
-1698.791434698804
 31
0.0
  0
LINE
  5
8259
330
1E
100
AcDbEntity
  8
003
 62
     3
100
AcDbLine
 10
326.0040581454618
 20
-1689.675288047523
 30
0.0
 11
324.9716628061701
 21
-1692.131121100526
 31
0.0
  0
LINE
  5
825A
330
1E
100
AcDbEntity
  8
003
 62
     3
100
AcDbLine
 10
325.7328666451153
 20
-1686.453022686464
 30
0.0
 11
326.0040581454618
 21
-1689.675288047523
 31
0.0
  0
LINE
  5
825B
330
1E
100
AcDbEntity
  8
003
 62
     3
100
AcDbLine
 10
322.7171637026636
 20
-1679.606441412385
 30
0.0
 11
324.3749549253284
 21
-1683.0342651825
 31
0.0
  0
LINE
  5
825C
330
1E
100
AcDbEntity
  8
003
 62
     3
100
AcDbLine
 10
325.0885252654902
 20
-1669.840826390966
 30
0.0
 11
322.9813984846309
 21
-1671.557123068384
 31
0.0
  0
LINE
  5
825D
330
1E
100
AcDbEntity
  8
003
 62
     3
100
AcDbLine
 10
321.54633039196
 20
-1676.356978701549
 30
0.0
 11
322.7171637026636
 21
-1679.606441412385
 31
0.0
  0
LINE
  5
825E
330
1E
100
AcDbEntity
  8
003
 62
     3
100
AcDbLine
 10
321.6492955361268
 20
-1673.473303911555
 30
0.0
 11
321.54633039196
 21
-1676.356978701549
 31
0.0
  0
LINE
  5
825F
330
1E
100
AcDbEntity
  8
003
 62
     3
100
AcDbLine
 10
322.9813984846309
 20
-1671.557123068384
 30
0.0
 11
321.6492955361268
 21
-1673.473303911555
 31
0.0
  0
LINE
  5
8260
330
1E
100
AcDbEntity
  8
003
 62
     3
100
AcDbLine
 10
327.4867973741088
 20
-1668.186320307108
 30
0.0
 11
325.0885252654902
 21
-1669.840826390966
 31
0.0
  0
LINE
  5
8261
330
1E
100
AcDbEntity
  8
003
 62
     3
100
AcDbLine
 10
329.692332019365
 20
-1666.455512519642
 30
0.0
 11
327.4867973741088
 21
-1668.186320307108
 31
0.0
  0
LINE
  5
8262
330
1E
100
AcDbEntity
  8
003
 62
     3
100
AcDbLine
 10
327.5036717286525
 20
-1643.997175038683
 30
0.0
 11
326.9813413428305
 21
-1647.778251364466
 31
0.0
  0
LINE
  5
8263
330
1E
100
AcDbEntity
  8
003
 62
     3
100
AcDbLine
 10
328.9484692462688
 20
-1642.187419237597
 30
0.0
 11
327.5036717286525
 21
-1643.997175038683
 31
0.0
  0
LINE
  5
8264
330
1E
100
AcDbEntity
  8
003
 62
     3
100
AcDbLine
 10
330.9216733037997
 20
-1640.541570384065
 30
0.0
 11
328.9484692462688
 21
-1642.187419237597
 31
0.0
  0
LINE
  5
8265
330
1E
100
AcDbEntity
  8
003
 62
     3
100
AcDbLine
 10
328.2805967150002
 20
-1652.070655963
 30
0.0
 11
330.2127762254417
 21
-1656.523836228386
 31
0.0
  0
LINE
  5
8266
330
1E
100
AcDbEntity
  8
003
 62
     3
100
AcDbLine
 10
326.9813413428305
 20
-1647.778251364466
 30
0.0
 11
328.2805967150002
 21
-1652.070655963
 31
0.0
  0
ARC
  5
8267
330
1E
100
AcDbEntity
  8
002
100
AcDbCircle
 10
449.5639910264549
 20
-1550.438757104797
 30
0.0
 40
2.5
100
AcDbArc
 50
308.1896849999834
 51
31.81031499999344
  0
ARC
  5
8268
330
1E
100
AcDbEntity
  8
002
100
AcDbCircle
 10
378.0227256505964
 20
-1553.055500963294
 30
0.0
 40
2.5
100
AcDbArc
 50
308.1896849999834
 51
31.81031499999344
  0
LINE
  5
8269
330
1E
100
AcDbEntity
  8
003
100
AcDbLine
 10
370.9686961608535
 20
-1374.281266268656
 30
0.0
 11
337.4800317670728
 21
-1564.204919808381
 31
0.0
  0
LINE
  5
826A
330
1E
100
AcDbEntity
  8
002
100
AcDbLine
 10
374.2583449355638
 20
-1560.007438666719
 30
0.0
 11
449.4212877439808
 21
-1565.644993844148
 31
0.0
  0
LINE
  5
826B
330
1E
100
AcDbEntity
  8
002
100
AcDbLine
 10
440.5901649814145
 20
-1586.934927398587
 30
0.0
 11
375.2752997031188
 21
-1583.033853997829
 31
0.0
  0
LINE
  5
826C
330
1E
100
AcDbEntity
  8
002
100
AcDbLine
 10
437.9854423164101
 20
-1601.707043693769
 30
0.0
 11
372.6705770381145
 21
-1597.805970293011
 31
0.0
  0
LINE
  5
826D
330
1E
100
AcDbEntity
  8
002
100
AcDbLine
 10
443.194887646418
 20
-1572.162811103403
 30
0.0
 11
377.8800223681223
 21
-1568.261737702646
 31
0.0
  0
LINE
  5
826E
330
1E
100
AcDbEntity
  8
002
100
AcDbLine
 10
371.6536222705594
 20
-1574.779554961901
 30
0.0
 11
446.8165650789774
 21
-1580.41711013933
 31
0.0
  0
LINE
  5
826F
330
1E
100
AcDbEntity
  8
002
100
AcDbLine
 10
369.048899605556
 20
-1589.551671257085
 30
0.0
 11
444.211842413973
 21
-1595.189226434514
 31
0.0
  0
LINE
  5
8270
330
1E
100
AcDbEntity
  8
002
100
AcDbLine
 10
445.7996103114224
 20
-1557.390694808221
 30
0.0
 11
380.4847450331267
 21
-1553.489621407463
 31
0.0
  0
LWPOLYLINE
  5
8271
330
1E
100
AcDbEntity
  8
002
100
AcDbPolyline
 90
       24
 70
     0
 43
0.0
 10
444.6872259289569
 20
-1617.504281005241
 10
441.8133248475681
 20
-1619.882503868799
 10
438.8365411280148
 20
-1622.101972516466
 10
435.755942949437
 20
-1624.152820241809
 10
432.5705956531185
 20
-1626.025184915136
 10
429.279566259742
 20
-1627.709200641169
 10
426.235713304339
 20
-1629.055831470537
 10
423.1207426044973
 20
-1630.252891516909
 10
419.9495239146392
 20
-1631.31067832894
 10
416.7369291324514
 20
-1632.239488817782
 10
413.4978283596517
 20
-1633.04961856248
 10
408.3886077998224
 20
-1634.108230415706
 10
403.2484897708943
 20
-1634.952633669781
 10
398.0752082465098
 20
-1635.635369044961
 10
392.8665006756798
 20
-1636.208974828017
 10
387.6201019002885
 20
-1636.725986815161
 10
382.2245582216189
 20
-1637.261219880766
 10
376.844449164261
 20
-1637.910781040886
 10
371.5369774490179
 20
-1638.793233688085
 10
366.3593474190158
 20
-1640.027143531848
 10
361.3687612741153
 20
-1641.731076919167
 10
359.2943729444293
 20
-1642.633929525737
 10
357.2608446015026
 20
-1643.635244255441
 10
355.2639276802995
 20
-1644.724787887076
  0
LINE
  5
8272
330
1E
100
AcDbEntity
  8
002
100
AcDbLine
 10
422.0484849401905
 20
-1630.610552128595
 30
0.0
 11
367.4611317081066
 21
-1627.350202883377
 31
0.0
  0
LINE
  5
8273
330
1E
100
AcDbEntity
  8
002
100
AcDbLine
 10
363.8394542755481
 20
-1619.095903847451
 30
0.0
 11
435.2472899417748
 21
-1624.451809279403
 31
0.0
  0
LINE
  5
8274
330
1E
100
AcDbEntity
  8
002
100
AcDbLine
 10
435.3807196514067
 20
-1616.479159988953
 30
0.0
 11
370.065854373111
 21
-1612.578086588194
 31
0.0
  0
LINE
  5
8275
330
1E
100
AcDbEntity
  8
002
100
AcDbLine
 10
366.4441769405516
 20
-1604.323787552269
 30
0.0
 11
441.6071197489696
 21
-1609.961342729697
 31
0.0
  0
ARC
  5
8276
330
1E
100
AcDbEntity
  8
002
100
AcDbCircle
 10
370.2085576555841
 20
-1597.371849848843
 30
0.0
 40
2.5
100
AcDbArc
 50
308.1896849999834
 51
31.81031499999344
  0
ARC
  5
8277
330
1E
100
AcDbEntity
  8
002
100
AcDbCircle
 10
374.1156416530898
 20
-1575.213675406069
 30
0.0
 40
2.5
100
AcDbArc
 50
128.1896849999834
 51
211.8103150000215
  0
LINE
  5
8278
330
1E
100
AcDbEntity
  8
002
100
AcDbLine
 10
374.3589475521453
 20
-1584.564654414733
 30
0.0
 11
369.9652515828797
 21
-1588.020871824988
 31
0.0
  0
LINE
  5
8279
330
1E
100
AcDbEntity
  8
002
100
AcDbLine
 10
369.386424381873
 20
-1591.303564006758
 30
0.0
 11
372.3330520881486
 21
-1596.054078528144
 31
0.0
  0
LINE
  5
827A
330
1E
100
AcDbEntity
  8
002
100
AcDbLine
 10
361.2347316105438
 20
-1633.868020142635
 30
0.0
 11
392.6846011792772
 21
-1636.226900308737
 31
0.0
  0
LINE
  5
827B
330
1E
100
AcDbEntity
  8
003
100
AcDbLine
 10
342.5368164367296
 20
-1592.385153645296
 30
0.0
 11
340.6468636317545
 21
-1594.196305247306
 31
0.0
  0
LINE
  5
827C
330
1E
100
AcDbEntity
  8
003
 62
     3
100
AcDbLine
 10
338.5866925881705
 20
-1595.952404391844
 30
0.0
 11
336.8158669909175
 21
-1597.766646162998
 31
0.0
  0
LINE
  5
827D
330
1E
100
AcDbEntity
  8
003
 62
     3
100
AcDbLine
 10
336.8158669909175
 20
-1597.766646162998
 30
0.0
 11
335.7939465856966
 21
-1599.75222495026
 31
0.0
  0
LINE
  5
827E
330
1E
100
AcDbEntity
  8
003
 62
     3
100
AcDbLine
 10
340.6468636317545
 20
-1594.196305247306
 30
0.0
 11
338.5866925881705
 21
-1595.952404391844
 31
0.0
  0
LINE
  5
827F
330
1E
100
AcDbEntity
  8
003
100
AcDbLine
 10
344.3956042171726
 20
-1571.318122211193
 30
0.0
 11
342.7041373892757
 21
-1573.253712037655
 31
0.0
  0
LINE
  5
8280
330
1E
100
AcDbEntity
  8
003
100
AcDbLine
 10
343.7969895779938
 20
-1590.405758961905
 30
0.0
 11
342.5368164367296
 21
-1592.385153645296
 31
0.0
  0
LINE
  5
8281
330
1E
100
AcDbEntity
  8
003
100
AcDbLine
 10
343.297874726642
 20
-1584.550627981522
 30
0.0
 11
344.0526257890756
 21
-1587.61409406143
 31
0.0
  0
LINE
  5
8282
330
1E
100
AcDbEntity
  8
003
100
AcDbLine
 10
341.5774505277672
 20
-1575.328539204122
 30
0.0
 11
341.399672296417
 21
-1578.247938574512
 31
0.0
  0
LINE
  5
8283
330
1E
100
AcDbEntity
  8
003
100
AcDbLine
 10
342.7041373892757
 20
-1573.253712037655
 30
0.0
 11
341.5774505277672
 21
-1575.328539204122
 31
0.0
  0
LINE
  5
8284
330
1E
100
AcDbEntity
  8
003
100
AcDbLine
 10
342.1933523487173
 20
-1581.375271889376
 30
0.0
 11
343.297874726642
 21
-1584.550627981522
 31
0.0
  0
LINE
  5
8285
330
1E
100
AcDbEntity
  8
003
100
AcDbLine
 10
341.399672296417
 20
-1578.247938574512
 30
0.0
 11
342.1933523487173
 21
-1581.375271889376
 31
0.0
  0
LINE
  5
8286
330
1E
100
AcDbEntity
  8
003
100
AcDbLine
 10
344.0526257890756
 20
-1587.61409406143
 30
0.0
 11
343.7969895779938
 21
-1590.405758961905
 31
0.0
  0
ARC
  5
8287
330
1E
100
AcDbEntity
  8
002
100
AcDbCircle
 10
371.5109189880863
 20
-1589.985791701251
 30
0.0
 40
2.5
100
AcDbArc
 50
128.1896849999834
 51
211.8103150000215
  0
LINE
  5
8288
330
1E
100
AcDbEntity
  8
003
100
AcDbLine
 10
346.2055891481063
 20
-1569.433131552397
 30
0.0
 11
344.3956042171726
 21
-1571.318122211193
 31
0.0
  0
LINE
  5
8289
330
1E
100
AcDbEntity
  8
003
100
AcDbLine
 10
348.1842682945521
 20
-1564.204919808381
 30
0.0
 11
348.3960753664646
 21
-1565.460398754537
 31
0.0
  0
LINE
  5
828A
330
1E
100
AcDbEntity
  8
003
100
AcDbLine
 10
347.6878322883426
 20
-1567.510102236221
 30
0.0
 11
346.2055891481063
 21
-1569.433131552397
 31
0.0
  0
LINE
  5
828B
330
1E
100
AcDbEntity
  8
003
100
AcDbLine
 10
348.3960753664646
 20
-1565.460398754537
 30
0.0
 11
347.6878322883426
 21
-1567.510102236221
 31
0.0
  0
LINE
  5
828C
330
1E
100
AcDbEntity
  8
003
 62
     3
100
AcDbLine
 10
331.6651101024404
 20
-1625.150764911276
 30
0.0
 11
332.8129214432251
 21
-1627.786804625314
 31
0.0
  0
LINE
  5
828D
330
1E
100
AcDbEntity
  8
003
 62
     3
100
AcDbLine
 10
334.2750242809593
 20
-1618.968651559293
 30
0.0
 11
332.4752358045857
 21
-1620.757185418316
 31
0.0
  0
LINE
  5
828E
330
1E
100
AcDbEntity
  8
003
 62
     3
100
AcDbLine
 10
331.4681375067934
 20
-1622.712502291043
 30
0.0
 11
331.6651101024404
 21
-1625.150764911276
 31
0.0
  0
LINE
  5
828F
330
1E
100
AcDbEntity
  8
003
 62
     3
100
AcDbLine
 10
332.4752358045857
 20
-1620.757185418316
 30
0.0
 11
331.4681375067934
 21
-1622.712502291043
 31
0.0
  0
LINE
  5
8290
330
1E
100
AcDbEntity
  8
003
 62
     3
100
AcDbLine
 10
332.8129214432251
 20
-1627.786804625314
 30
0.0
 11
334.2808107962732
 21
-1630.479048165297
 31
0.0
  0
LINE
  5
8291
330
1E
100
AcDbEntity
  8
003
 62
     3
100
AcDbLine
 10
335.438022179102
 20
-1633.085924116417
 30
0.0
 11
335.653795669998
 21
-1635.465860369268
 31
0.0
  0
LINE
  5
8292
330
1E
100
AcDbEntity
  8
003
 62
     3
100
AcDbLine
 10
334.2808107962732
 20
-1630.479048165297
 30
0.0
 11
335.438022179102
 21
-1633.085924116417
 31
0.0
  0
LINE
  5
8293
330
1E
100
AcDbEntity
  8
003
 62
     3
100
AcDbLine
 10
334.7101304512057
 20
-1637.292950224041
 30
0.0
 11
332.9874918770351
 21
-1638.947467002399
 31
0.0
  0
LINE
  5
8294
330
1E
100
AcDbEntity
  8
003
 62
     3
100
AcDbLine
 10
335.653795669998
 20
-1635.465860369268
 30
0.0
 11
334.7101304512057
 21
-1637.292950224041
 31
0.0
  0
LINE
  5
8295
330
1E
100
AcDbEntity
  8
003
 62
     3
100
AcDbLine
 10
335.9187396398542
 20
-1602.34976348366
 30
0.0
 11
336.9963822424638
 21
-1605.174130641221
 31
0.0
  0
LINE
  5
8296
330
1E
100
AcDbEntity
  8
003
 62
     3
100
AcDbLine
 10
338.2346556145644
 20
-1615.445754603948
 30
0.0
 11
336.362999925413
 21
-1617.235356071816
 31
0.0
  0
LINE
  5
8297
330
1E
100
AcDbEntity
  8
003
 62
     3
100
AcDbLine
 10
336.362999925413
 20
-1617.235356071816
 30
0.0
 11
334.2750242809593
 21
-1618.968651559293
 31
0.0
  0
LINE
  5
8298
330
1E
100
AcDbEntity
  8
003
 62
     3
100
AcDbLine
 10
339.3854891490704
 20
-1613.488303671988
 30
0.0
 11
338.2346556145644
 21
-1615.445754603948
 31
0.0
  0
LINE
  5
8299
330
1E
100
AcDbEntity
  8
003
 62
     3
100
AcDbLine
 10
339.3858481906522
 20
-1610.895390846847
 30
0.0
 11
339.3854891490704
 21
-1613.488303671988
 31
0.0
  0
LINE
  5
829A
330
1E
100
AcDbEntity
  8
003
 62
     3
100
AcDbLine
 10
338.3707815490883
 20
-1608.073337035819
 30
0.0
 11
339.3858481906522
 21
-1610.895390846847
 31
0.0
  0
LINE
  5
829B
330
1E
100
AcDbEntity
  8
003
 62
     3
100
AcDbLine
 10
336.9963822424638
 20
-1605.174130641221
 30
0.0
 11
338.3707815490883
 21
-1608.073337035819
 31
0.0
  0
LINE
  5
829C
330
1E
100
AcDbEntity
  8
002
100
AcDbLine
 10
366.544779557134
 20
-1628.881003300282
 30
0.0
 11
362.1510835878684
 21
-1632.337220710536
 31
0.0
  0
LINE
  5
829D
330
1E
100
AcDbEntity
  8
002
100
AcDbLine
 10
361.5722563868607
 20
-1635.619912892308
 30
0.0
 11
364.5188840931364
 21
-1640.370427413693
 31
0.0
  0
ARC
  5
829E
330
1E
100
AcDbEntity
  8
002
100
AcDbCircle
 10
363.6967509930741
 20
-1634.302140586801
 30
0.0
 40
2.5
100
AcDbArc
 50
128.1896849999834
 51
211.8103150000215
  0
ARC
  5
829F
330
1E
100
AcDbEntity
  8
002
100
AcDbCircle
 10
362.3943896605728
 20
-1641.688198734392
 30
0.0
 40
2.5
100
AcDbArc
 50
25.53159749311188
 51
31.81031499999344
  0
ARC
  5
82A0
330
1E
100
AcDbEntity
  8
002
100
AcDbCircle
 10
364.9991123255763
 20
-1626.916082439209
 30
0.0
 40
2.5
100
AcDbArc
 50
308.1896849999834
 51
31.81031499999344
  0
ARC
  5
82A1
330
1E
100
AcDbEntity
  8
002
100
AcDbCircle
 10
366.3014736580785
 20
-1619.530024291618
 30
0.0
 40
2.5
100
AcDbArc
 50
128.1896849999834
 51
211.8103150000215
  0
ARC
  5
82A2
330
1E
100
AcDbEntity
  8
002
100
AcDbCircle
 10
368.906196323082
 20
-1604.757907996435
 30
0.0
 40
2.5
100
AcDbArc
 50
128.1896849999834
 51
211.8103150000215
  0
LINE
  5
82A3
330
1E
100
AcDbEntity
  8
002
100
AcDbLine
 10
364.1769790518651
 20
-1620.847796597126
 30
0.0
 11
367.1236067581407
 21
-1625.598311118511
 31
0.0
  0
LINE
  5
82A4
330
1E
100
AcDbEntity
  8
002
100
AcDbLine
 10
369.1495022221374
 20
-1614.108887005099
 30
0.0
 11
364.7558062528719
 21
-1617.565104415354
 31
0.0
  0
ARC
  5
82A5
330
1E
100
AcDbEntity
  8
002
100
AcDbCircle
 10
367.6038349905807
 20
-1612.143966144026
 30
0.0
 40
2.5
100
AcDbArc
 50
308.1896849999834
 51
31.81031499999344
  0
LINE
  5
82A6
330
1E
100
AcDbEntity
  8
002
100
AcDbLine
 10
366.7817017168686
 20
-1606.075680301942
 30
0.0
 11
369.7283294231451
 21
-1610.826194823327
 31
0.0
  0
LINE
  5
82A7
330
1E
100
AcDbEntity
  8
002
100
AcDbLine
 10
371.7542248871418
 20
-1599.336770709916
 30
0.0
 11
367.3605289178762
 21
-1602.79298812017
 31
0.0
  0
LINE
  5
82A8
330
1E
100
AcDbEntity
  8
003
 62
     3
100
AcDbLine
 10
335.7939465856966
 20
-1599.75222495026
 30
0.0
 11
335.9187396398542
 21
-1602.34976348366
 31
0.0
  0
ARC
  5
82A9
330
1E
100
AcDbEntity
  8
002
100
AcDbCircle
 10
376.7203643180942
 20
-1560.441559110886
 30
0.0
 40
2.5
100
AcDbArc
 50
128.1896849999834
 51
211.8103150000215
  0
LINE
  5
82AA
330
1E
100
AcDbEntity
  8
002
100
AcDbLine
 10
376.9636702171496
 20
-1569.79253811955
 30
0.0
 11
372.5699742478841
 21
-1573.248755529804
 31
0.0
  0
ARC
  5
82AB
330
1E
100
AcDbEntity
  8
002
100
AcDbCircle
 10
372.8132803205885
 20
-1582.599733553661
 30
0.0
 40
2.5
100
AcDbArc
 50
308.1896849999834
 51
31.81031499999344
  0
LINE
  5
82AC
330
1E
100
AcDbEntity
  8
002
100
AcDbLine
 10
371.9911470468773
 20
-1576.531447711576
 30
0.0
 11
374.9377747531529
 21
-1581.281962232961
 31
0.0
  0
ARC
  5
82AD
330
1E
100
AcDbEntity
  8
002
100
AcDbCircle
 10
375.418002985592
 20
-1567.827617258477
 30
0.0
 40
2.5
100
AcDbArc
 50
308.1896849999834
 51
31.81031499999344
  0
LINE
  5
82AE
330
1E
100
AcDbEntity
  8
002
100
AcDbLine
 10
374.5958697118808
 20
-1561.759331416392
 30
0.0
 11
377.5424974181564
 21
-1566.509845937778
 31
0.0
  0
LINE
  5
82AF
330
1E
100
AcDbEntity
  8
002
100
AcDbLine
 10
379.5683928821531
 20
-1555.020421824366
 30
0.0
 11
375.1746969128876
 21
-1558.47663923462
 31
0.0
  0
LINE
  5
82B0
330
1E
100
AcDbEntity
  8
003
 62
     3
100
AcDbLine
 10
456.9734771378566
 20
-1664.761682334298
 30
0.0
 11
455.5286796202413
 21
-1666.571438135384
 31
0.0
  0
LINE
  5
82B1
330
1E
100
AcDbEntity
  8
003
 62
     3
100
AcDbLine
 10
453.1135331570772
 20
-1692.415089487667
 30
0.0
 11
451.0064063762179
 21
-1694.131386165085
 31
0.0
  0
LINE
  5
82B2
330
1E
100
AcDbEntity
  8
003
 62
     3
100
AcDbLine
 10
449.571338283547
 20
-1698.93124179825
 30
0.0
 11
450.7421715942505
 21
-1702.180704509086
 31
0.0
  0
LINE
  5
82B3
330
1E
100
AcDbEntity
  8
003
 62
     3
100
AcDbLine
 10
449.6743034277146
 20
-1696.047567008255
 30
0.0
 11
449.571338283547
 21
-1698.93124179825
 31
0.0
  0
LINE
  5
82B4
330
1E
100
AcDbEntity
  8
003
 62
     3
100
AcDbLine
 10
451.0064063762179
 20
-1694.131386165085
 30
0.0
 11
449.6743034277146
 21
-1696.047567008255
 31
0.0
  0
LINE
  5
82B5
330
1E
100
AcDbEntity
  8
003
 62
     3
100
AcDbLine
 10
459.614223191596
 20
-1683.361502130483
 30
0.0
 11
459.2462562713367
 21
-1687.084574175399
 31
0.0
  0
LINE
  5
82B6
330
1E
100
AcDbEntity
  8
003
 62
     3
100
AcDbLine
 10
459.2462562713367
 20
-1687.084574175399
 30
0.0
 11
457.7173399109519
 21
-1689.029775616344
 31
0.0
  0
LINE
  5
82B7
330
1E
100
AcDbEntity
  8
003
 62
     3
100
AcDbLine
 10
455.5118052656958
 20
-1690.760583403809
 30
0.0
 11
453.1135331570772
 21
-1692.415089487667
 31
0.0
  0
LINE
  5
82B8
330
1E
100
AcDbEntity
  8
003
 62
     3
100
AcDbLine
 10
457.7173399109519
 20
-1689.029775616344
 30
0.0
 11
455.5118052656958
 21
-1690.760583403809
 31
0.0
  0
LINE
  5
82B9
330
1E
100
AcDbEntity
  8
003
 62
     3
100
AcDbLine
 10
458.2377841170287
 20
-1679.098099325087
 30
0.0
 11
459.614223191596
 21
-1683.361502130483
 31
0.0
  0
LINE
  5
82BA
330
1E
100
AcDbEntity
  8
003
 62
     3
100
AcDbLine
 10
456.3056046065871
 20
-1674.644919059701
 30
0.0
 11
458.2377841170287
 21
-1679.098099325087
 31
0.0
  0
LINE
  5
82BB
330
1E
100
AcDbEntity
  8
003
 62
     3
100
AcDbLine
 10
455.0063492344174
 20
-1670.352514461167
 30
0.0
 11
456.3056046065871
 21
-1674.644919059701
 31
0.0
  0
LINE
  5
82BC
330
1E
100
AcDbEntity
  8
003
 62
     3
100
AcDbLine
 10
455.5286796202413
 20
-1666.571438135384
 30
0.0
 11
455.0063492344174
 21
-1670.352514461167
 31
0.0
  0
LINE
  5
82BD
330
1E
100
AcDbEntity
  8
002
100
AcDbLine
 10
446.1371350877393
 20
-1559.142587557895
 30
0.0
 11
449.083762794015
 21
-1563.89310207928
 31
0.0
  0
ARC
  5
82BE
330
1E
100
AcDbEntity
  8
002
100
AcDbCircle
 10
445.6569070289483
 20
-1572.596931547571
 30
0.0
 40
2.5
100
AcDbArc
 50
128.1896849999834
 51
211.8103150000215
  0
LINE
  5
82BF
330
1E
100
AcDbEntity
  8
002
100
AcDbLine
 10
443.2954902630004
 20
-1596.720026851418
 30
0.0
 11
438.9017942937348
 21
-1600.176244261672
 31
0.0
  0
LINE
  5
82C0
330
1E
100
AcDbEntity
  8
002
100
AcDbLine
 10
443.5324124227358
 20
-1573.914703853078
 30
0.0
 11
446.4790401290115
 21
-1578.665218374464
 31
0.0
  0
LINE
  5
82C1
330
1E
100
AcDbEntity
  8
002
100
AcDbLine
 10
445.9002129280038
 20
-1581.947910556236
 30
0.0
 11
441.5065169587383
 21
-1585.404127966488
 31
0.0
  0
ARC
  5
82C2
330
1E
100
AcDbEntity
  8
002
100
AcDbCircle
 10
441.7498230314427
 20
-1594.755105990346
 30
0.0
 40
2.5
100
AcDbArc
 50
308.1896849999834
 51
31.81031499999344
  0
ARC
  5
82C3
330
1E
100
AcDbEntity
  8
002
100
AcDbCircle
 10
443.0521843639448
 20
-1587.369047842754
 30
0.0
 40
2.5
100
AcDbArc
 50
128.1896849999834
 51
211.8103150000215
  0
LINE
  5
82C4
330
1E
100
AcDbEntity
  8
002
100
AcDbLine
 10
440.9276897577314
 20
-1588.68682014826
 30
0.0
 11
443.8743174640071
 21
-1593.437334669646
 31
0.0
  0
ARC
  5
82C5
330
1E
100
AcDbEntity
  8
002
100
AcDbCircle
 10
444.3545456964471
 20
-1579.982989695162
 30
0.0
 40
2.5
100
AcDbArc
 50
308.1896849999834
 51
31.81031499999344
  0
LINE
  5
82C6
330
1E
100
AcDbEntity
  8
002
100
AcDbLine
 10
448.5049355930081
 20
-1567.175794261052
 30
0.0
 11
444.1112396237427
 21
-1570.632011671306
 31
0.0
  0
ARC
  5
82C7
330
1E
100
AcDbEntity
  8
002
100
AcDbCircle
 10
446.9592683614505
 20
-1565.210873399978
 30
0.0
 40
2.5
100
AcDbArc
 50
308.1896849999834
 51
31.81031499999344
  0
ARC
  5
82C8
330
1E
100
AcDbEntity
  8
002
100
AcDbCircle
 10
448.2616296939527
 20
-1557.824815252388
 30
0.0
 40
2.5
100
AcDbArc
 50
128.1896849999834
 51
211.8103150000215
  0
LINE
  5
82C9
330
1E
100
AcDbEntity
  8
002
100
AcDbLine
 10
451.1096582580116
 20
-1552.403677965868
 30
0.0
 11
446.7159622887471
 21
-1555.859895376122
 31
0.0
  0
LINE
  5
82CA
330
1E
100
AcDbEntity
  8
002
100
AcDbLine
 10
440.690767597996
 20
-1611.492143146602
 30
0.0
 11
436.2970716287304
 21
-1614.948360556856
 31
0.0
  0
LINE
  5
82CB
330
1E
100
AcDbEntity
  8
002
100
AcDbLine
 10
435.7182444277237
 20
-1618.231052738626
 30
0.0
 11
438.6648721339993
 21
-1622.981567260012
 31
0.0
  0
ARC
  5
82CC
330
1E
100
AcDbEntity
  8
002
100
AcDbCircle
 10
437.842739033937
 20
-1616.913280433121
 30
0.0
 40
2.5
100
AcDbArc
 50
128.1896849999834
 51
211.8103150000215
  0
ARC
  5
82CD
330
1E
100
AcDbEntity
  8
002
100
AcDbCircle
 10
439.1451003664392
 20
-1609.527222285529
 30
0.0
 40
2.5
100
AcDbArc
 50
308.1896849999834
 51
31.81031499999344
  0
LINE
  5
82CE
330
1E
100
AcDbEntity
  8
002
100
AcDbLine
 10
438.322967092728
 20
-1603.458936443444
 30
0.0
 11
441.2695947990036
 21
-1608.20945096483
 31
0.0
  0
ARC
  5
82CF
330
1E
100
AcDbEntity
  8
002
100
AcDbCircle
 10
440.4474616989404
 20
-1602.141164137937
 30
0.0
 40
2.5
100
AcDbArc
 50
128.1896849999834
 51
211.8103150000215
  0
LINE
  5
82D0
330
1E
100
AcDbEntity
  8
003
100
AcDbLine
 10
477.5736105366254
 20
-1570.188989713158
 30
0.0
 11
476.0913673963901
 21
-1572.112019029333
 31
0.0
  0
LINE
  5
82D1
330
1E
100
AcDbEntity
  8
003
100
AcDbLine
 10
469.6024584193541
 20
-1597.902802300824
 30
0.0
 11
469.424680188004
 21
-1600.822201671212
 31
0.0
  0
LINE
  5
82D2
330
1E
100
AcDbEntity
  8
003
100
AcDbLine
 10
472.4117477207133
 20
-1576.091298515868
 30
0.0
 11
472.4753188541712
 21
-1578.299024851111
 31
0.0
  0
LINE
  5
82D3
330
1E
100
AcDbEntity
  8
003
100
AcDbLine
 10
473.8558685432731
 20
-1573.94689719046
 30
0.0
 11
472.4117477207133
 21
-1576.091298515868
 31
0.0
  0
LINE
  5
82D4
330
1E
100
AcDbEntity
  8
003
100
AcDbLine
 10
476.0913673963901
 20
-1572.112019029333
 30
0.0
 11
473.8558685432731
 21
-1573.94689719046
 31
0.0
  0
LINE
  5
82D5
330
1E
100
AcDbEntity
  8
003
100
AcDbLine
 10
475.7128401799295
 20
-1590.084365332922
 30
0.0
 11
474.2305970396933
 21
-1592.007394649097
 31
0.0
  0
LINE
  5
82D6
330
1E
100
AcDbEntity
  8
003
100
AcDbLine
 10
476.4210832580524
 20
-1588.034661851238
 30
0.0
 11
475.7128401799295
 21
-1590.084365332922
 31
0.0
  0
LINE
  5
82D7
330
1E
100
AcDbEntity
  8
003
100
AcDbLine
 10
476.0244631676191
 20
-1585.683710258048
 30
0.0
 11
476.4210832580524
 21
-1588.034661851238
 31
0.0
  0
LINE
  5
82D8
330
1E
100
AcDbEntity
  8
003
100
AcDbLine
 10
474.8534490636616
 20
-1583.204563990457
 30
0.0
 11
476.0244631676191
 21
-1585.683710258048
 31
0.0
  0
LINE
  5
82D9
330
1E
100
AcDbEntity
  8
003
100
AcDbLine
 10
473.4798096380959
 20
-1580.70655767857
 30
0.0
 11
474.8534490636616
 21
-1583.204563990457
 31
0.0
  0
LINE
  5
82DA
330
1E
100
AcDbEntity
  8
003
100
AcDbLine
 10
470.7291452808617
 20
-1595.827975134356
 30
0.0
 11
469.6024584193541
 21
-1597.902802300824
 31
0.0
  0
LINE
  5
82DB
330
1E
100
AcDbEntity
  8
003
100
AcDbLine
 10
472.4206121087595
 20
-1593.892385307894
 30
0.0
 11
470.7291452808617
 21
-1595.827975134356
 31
0.0
  0
LINE
  5
82DC
330
1E
100
AcDbEntity
  8
003
100
AcDbLine
 10
474.2305970396933
 20
-1592.007394649097
 30
0.0
 11
472.4206121087595
 21
-1593.892385307894
 31
0.0
  0
LINE
  5
82DD
330
1E
100
AcDbEntity
  8
003
100
AcDbLine
 10
472.4753188541712
 20
-1578.299024851111
 30
0.0
 11
473.4798096380959
 21
-1580.70655767857
 31
0.0
  0
LINE
  5
82DE
330
1E
100
AcDbEntity
  8
003
100
AcDbLine
 10
478.2818536147483
 20
-1568.139286231473
 30
0.0
 11
477.5736105366254
 21
-1570.188989713158
 31
0.0
  0
LINE
  5
82DF
330
1E
100
AcDbEntity
  8
003
100
AcDbLine
 10
477.1373143222604
 20
-1564.204919808379
 30
0.0
 11
477.885233524315
 21
-1565.788334638284
 31
0.0
  0
LINE
  5
82E0
330
1E
100
AcDbEntity
  8
003
100
AcDbLine
 10
477.885233524315
 20
-1565.788334638284
 30
0.0
 11
478.2818536147483
 21
-1568.139286231473
 31
0.0
  0
LINE
  5
82E1
330
1E
100
AcDbEntity
  8
003
 62
     3
100
AcDbLine
 10
462.3000321725462
 20
-1641.542914655993
 30
0.0
 11
460.5002436961727
 21
-1643.331448515017
 31
0.0
  0
LINE
  5
82E2
330
1E
100
AcDbEntity
  8
003
 62
     3
100
AcDbLine
 10
462.7351383427926
 20
-1659.867213320741
 30
0.0
 11
461.012499768622
 21
-1661.5217300991
 31
0.0
  0
LINE
  5
82E3
330
1E
100
AcDbEntity
  8
003
 62
     3
100
AcDbLine
 10
460.8379293348112
 20
-1650.361067722014
 30
0.0
 11
462.3058186878601
 21
-1653.053311261999
 31
0.0
  0
LINE
  5
82E4
330
1E
100
AcDbEntity
  8
003
 62
     3
100
AcDbLine
 10
459.6901179940273
 20
-1647.725028007976
 30
0.0
 11
460.8379293348112
 21
-1650.361067722014
 31
0.0
  0
LINE
  5
82E5
330
1E
100
AcDbEntity
  8
003
 62
     3
100
AcDbLine
 10
460.5002436961727
 20
-1643.331448515017
 30
0.0
 11
459.4931453983804
 21
-1645.286765387744
 31
0.0
  0
LINE
  5
82E6
330
1E
100
AcDbEntity
  8
003
 62
     3
100
AcDbLine
 10
459.4931453983804
 20
-1645.286765387744
 30
0.0
 11
459.6901179940273
 21
-1647.725028007976
 31
0.0
  0
LINE
  5
82E7
330
1E
100
AcDbEntity
  8
003
 62
     3
100
AcDbLine
 10
458.9466811953866
 20
-1663.115833480766
 30
0.0
 11
456.9734771378566
 21
-1664.761682334298
 31
0.0
  0
LINE
  5
82E8
330
1E
100
AcDbEntity
  8
003
 62
     3
100
AcDbLine
 10
461.012499768622
 20
-1661.5217300991
 30
0.0
 11
458.9466811953866
 21
-1663.115833480766
 31
0.0
  0
LINE
  5
82E9
330
1E
100
AcDbEntity
  8
003
 62
     3
100
AcDbLine
 10
465.0213901340507
 20
-1627.748393737922
 30
0.0
 11
466.3957894406753
 21
-1630.64760013252
 31
0.0
  0
LINE
  5
82EA
330
1E
100
AcDbEntity
  8
003
 62
     3
100
AcDbLine
 10
466.2596635061513
 20
-1638.020017700648
 30
0.0
 11
464.388007817
 21
-1639.809619168517
 31
0.0
  0
LINE
  5
82EB
330
1E
100
AcDbEntity
  8
003
 62
     3
100
AcDbLine
 10
464.388007817
 20
-1639.809619168517
 30
0.0
 11
462.3000321725462
 21
-1641.542914655993
 31
0.0
  0
LINE
  5
82EC
330
1E
100
AcDbEntity
  8
003
 62
     3
100
AcDbLine
 10
467.4108560822392
 20
-1633.469653943548
 30
0.0
 11
467.4104970406565
 21
-1636.062566768688
 31
0.0
  0
LINE
  5
82ED
330
1E
100
AcDbEntity
  8
003
 62
     3
100
AcDbLine
 10
466.3957894406753
 20
-1630.64760013252
 30
0.0
 11
467.4108560822392
 21
-1633.469653943548
 31
0.0
  0
LINE
  5
82EE
330
1E
100
AcDbEntity
  8
003
 62
     3
100
AcDbLine
 10
467.4104970406565
 20
-1636.062566768688
 30
0.0
 11
466.2596635061513
 21
-1638.020017700648
 31
0.0
  0
LINE
  5
82EF
330
1E
100
AcDbEntity
  8
003
100
AcDbLine
 10
466.6117004797574
 20
-1618.526667488545
 30
0.0
 11
464.8408748825045
 21
-1620.340909259699
 31
0.0
  0
LINE
  5
82F0
330
1E
100
AcDbEntity
  8
003
 62
     3
100
AcDbLine
 10
463.9437475314411
 20
-1624.924026580361
 30
0.0
 11
465.0213901340507
 21
-1627.748393737922
 31
0.0
  0
LINE
  5
82F1
330
1E
100
AcDbEntity
  8
003
 62
     3
100
AcDbLine
 10
463.8189544772835
 20
-1622.326488046962
 30
0.0
 11
463.9437475314411
 21
-1624.924026580361
 31
0.0
  0
LINE
  5
82F2
330
1E
100
AcDbEntity
  8
003
 62
     3
100
AcDbLine
 10
464.8408748825045
 20
-1620.340909259699
 30
0.0
 11
463.8189544772835
 21
-1622.326488046962
 31
0.0
  0
LINE
  5
82F3
330
1E
100
AcDbEntity
  8
003
100
AcDbLine
 10
470.2183602403042
 20
-1603.949534986077
 30
0.0
 11
471.3228826182289
 21
-1607.124891078222
 31
0.0
  0
LINE
  5
82F4
330
1E
100
AcDbEntity
  8
003
100
AcDbLine
 10
468.6718715233414
 20
-1616.770568344007
 30
0.0
 11
466.6117004797574
 21
-1618.526667488545
 31
0.0
  0
LINE
  5
82F5
330
1E
100
AcDbEntity
  8
003
100
AcDbLine
 10
470.5618243283165
 20
-1614.959416741997
 30
0.0
 11
468.6718715233414
 21
-1616.770568344007
 31
0.0
  0
LINE
  5
82F6
330
1E
100
AcDbEntity
  8
003
100
AcDbLine
 10
471.8219974695808
 20
-1612.980022058606
 30
0.0
 11
470.5618243283165
 21
-1614.959416741997
 31
0.0
  0
LINE
  5
82F7
330
1E
100
AcDbEntity
  8
003
100
AcDbLine
 10
472.0776336806625
 20
-1610.188357158131
 30
0.0
 11
471.8219974695808
 21
-1612.980022058606
 31
0.0
  0
LINE
  5
82F8
330
1E
100
AcDbEntity
  8
003
100
AcDbLine
 10
471.3228826182289
 20
-1607.124891078222
 30
0.0
 11
472.0776336806625
 21
-1610.188357158131
 31
0.0
  0
LINE
  5
82F9
330
1E
100
AcDbEntity
  8
003
 62
     3
100
AcDbLine
 10
463.463030070689
 20
-1655.660187213118
 30
0.0
 11
463.6788035615849
 21
-1658.04012346597
 31
0.0
  0
LINE
  5
82FA
330
1E
100
AcDbEntity
  8
003
 62
     3
100
AcDbLine
 10
463.6788035615849
 20
-1658.04012346597
 30
0.0
 11
462.7351383427926
 21
-1659.867213320741
 31
0.0
  0
LINE
  5
82FB
330
1E
100
AcDbEntity
  8
003
 62
     3
100
AcDbLine
 10
462.3058186878601
 20
-1653.053311261999
 30
0.0
 11
463.463030070689
 21
-1655.660187213118
 31
0.0
  0
LINE
  5
82FC
330
1E
100
AcDbEntity
  8
003
100
AcDbLine
 10
469.424680188004
 20
-1600.822201671212
 30
0.0
 11
470.2183602403042
 21
-1603.949534986077
 31
0.0
  0
LINE
  5
82FD
330
1E
100
AcDbEntity
  8
002
100
AcDbLine
 10
349.9046836196717
 20
-1323.857488388921
 30
0.0
 11
420.8016663827152
 21
-1336.358539300868
 31
0.0
  0
LINE
  5
82FE
330
1E
100
AcDbEntity
  8
002
100
AcDbLine
 10
379.4677902655716
 20
-1530.463206076353
 30
0.0
 11
454.6307330739896
 21
-1536.100761253781
 31
0.0
  0
LINE
  5
82FF
330
1E
100
AcDbEntity
  8
002
100
AcDbLine
 10
376.8630676005673
 20
-1545.235322371536
 30
0.0
 11
452.0260104089852
 21
-1550.872877548964
 31
0.0
  0
LINE
  5
8300
330
1E
100
AcDbEntity
  8
002
100
AcDbLine
 10
405.5150169156108
 20
-1382.74204312452
 30
0.0
 11
480.6779597240288
 21
-1388.379598301949
 31
0.0
  0
LINE
  5
8301
330
1E
100
AcDbEntity
  8
002
100
AcDbLine
 10
402.9102942506074
 20
-1397.514159419704
 30
0.0
 11
478.0732370590254
 21
-1403.151714597132
 31
0.0
  0
LINE
  5
8302
330
1E
100
AcDbEntity
  8
002
100
AcDbLine
 10
471.8468369614615
 20
-1409.669531856388
 30
0.0
 11
406.5319716831668
 21
-1405.76845845563
 31
0.0
  0
LINE
  5
8303
330
1E
100
AcDbEntity
  8
002
100
AcDbLine
 10
400.305571585603
 20
-1412.286275714886
 30
0.0
 11
475.468514394021
 21
-1417.923830892315
 31
0.0
  0
LINE
  5
8304
330
1E
100
AcDbEntity
  8
002
100
AcDbLine
 10
474.4515596264659
 20
-1394.897415561206
 30
0.0
 11
409.1366943481703
 21
-1390.996342160447
 31
0.0
  0
LINE
  5
8305
330
1E
100
AcDbEntity
  8
002
100
AcDbLine
 10
462.5418671801839
 20
-1379.258394297653
 30
0.0
 11
411.7414170131747
 21
-1376.224225865264
 31
0.0
  0
LINE
  5
8306
330
1E
100
AcDbEntity
  8
002
100
AcDbLine
 10
466.6373916314537
 20
-1439.213764446756
 30
0.0
 11
401.322526353158
 21
-1435.312691045996
 31
0.0
  0
LINE
  5
8307
330
1E
100
AcDbEntity
  8
002
100
AcDbLine
 10
387.2819582605839
 20
-1486.146857190802
 30
0.0
 11
462.4449010690009
 21
-1491.784412368231
 31
0.0
  0
LINE
  5
8308
330
1E
100
AcDbEntity
  8
002
100
AcDbLine
 10
395.0961262555951
 20
-1441.830508305254
 30
0.0
 11
470.2590690640131
 21
-1447.468063482681
 31
0.0
  0
LINE
  5
8309
330
1E
100
AcDbEntity
  8
002
100
AcDbLine
 10
392.4914035905917
 20
-1456.602624600436
 30
0.0
 11
467.6543463990087
 21
-1462.240179777864
 31
0.0
  0
LINE
  5
830A
330
1E
100
AcDbEntity
  8
002
100
AcDbLine
 10
389.8866809255873
 20
-1471.37474089562
 30
0.0
 11
465.0496237340052
 21
-1477.012296073048
 31
0.0
  0
LINE
  5
830B
330
1E
100
AcDbEntity
  8
002
100
AcDbLine
 10
464.0326689664503
 20
-1453.985880741938
 30
0.0
 11
398.7178036881546
 21
-1450.084807341179
 31
0.0
  0
LINE
  5
830C
330
1E
100
AcDbEntity
  8
002
100
AcDbLine
 10
397.7008489205995
 20
-1427.05839201007
 30
0.0
 11
472.8637917290175
 21
-1432.695947187498
 31
0.0
  0
LINE
  5
830D
330
1E
100
AcDbEntity
  8
002
100
AcDbLine
 10
469.2421142964581
 20
-1424.441648151572
 30
0.0
 11
403.9272490181624
 21
-1420.540574750813
 31
0.0
  0
LINE
  5
830E
330
1E
100
AcDbEntity
  8
002
100
AcDbLine
 10
382.0725129305751
 20
-1515.691089781169
 30
0.0
 11
457.2354557389931
 21
-1521.328644958597
 31
0.0
  0
LINE
  5
830F
330
1E
100
AcDbEntity
  8
002
100
AcDbLine
 10
451.0090556414302
 20
-1527.846462217856
 30
0.0
 11
385.6941903631345
 21
-1523.945388817096
 31
0.0
  0
LINE
  5
8310
330
1E
100
AcDbEntity
  8
002
100
AcDbLine
 10
456.218500971438
 20
-1498.302229627488
 30
0.0
 11
390.9036356931423
 21
-1494.401156226729
 31
0.0
  0
LINE
  5
8311
330
1E
100
AcDbEntity
  8
002
100
AcDbLine
 10
453.6137783064345
 20
-1513.07434592267
 30
0.0
 11
388.2989130281389
 21
-1509.173272521912
 31
0.0
  0
LINE
  5
8312
330
1E
100
AcDbEntity
  8
002
100
AcDbLine
 10
384.6772355955795
 20
-1500.918973485986
 30
0.0
 11
459.8401784039975
 21
-1506.556528663414
 31
0.0
  0
LINE
  5
8313
330
1E
100
AcDbEntity
  8
002
100
AcDbLine
 10
448.4043329764258
 20
-1542.618578513037
 30
0.0
 11
383.0894676981311
 21
-1538.717505112279
 31
0.0
  0
LINE
  5
8314
330
1E
100
AcDbEntity
  8
002
100
AcDbLine
 10
461.4279463014459
 20
-1468.757997037122
 30
0.0
 11
396.1130810231502
 21
-1464.856923636363
 31
0.0
  0
LINE
  5
8315
330
1E
100
AcDbEntity
  8
002
100
AcDbLine
 10
458.8232236364424
 20
-1483.530113332304
 30
0.0
 11
393.5083583581467
 21
-1479.629039931546
 31
0.0
  0
LINE
  5
8316
330
1E
100
AcDbEntity
  8
002
100
AcDbLine
 10
407.4213647776937
 20
-1369.539162533888
 30
0.0
 11
478.8646913074922
 21
-1382.136548592656
 31
0.0
  0
LINE
  5
8317
330
1E
100
AcDbEntity
  8
002
100
AcDbLine
 10
400.4061742021853
 20
-1436.843491462902
 30
0.0
 11
396.0124782329198
 21
-1440.299708873156
 31
0.0
  0
LINE
  5
8318
330
1E
100
AcDbEntity
  8
002
100
AcDbLine
 10
399.3702746229469
 20
-1436.660834417778
 30
0.0
 11
394.9765786536813
 21
-1440.117051828031
 31
0.0
  0
LINE
  5
8319
330
1E
100
AcDbEntity
  8
002
100
AcDbLine
 10
381.0612945021507
 20
-1486.783949383032
 30
0.0
 11
407.5096948741079
 21
-1334.014806097092
 31
0.0
  0
LINE
  5
831A
330
1E
100
AcDbEntity
  8
002
100
AcDbLine
 10
395.4336510319121
 20
-1443.582401054929
 30
0.0
 11
398.3802787381887
 21
-1448.332915576313
 31
0.0
  0
ARC
  5
831B
330
1E
100
AcDbEntity
  8
002
100
AcDbCircle
 10
395.2198847263857
 20
-1449.468029851888
 30
0.0
 40
2.5
100
AcDbArc
 50
308.1896849999834
 51
31.81031499999344
  0
LINE
  5
831C
330
1E
100
AcDbEntity
  8
002
100
AcDbLine
 10
397.801451537181
 20
-1451.615607758085
 30
0.0
 11
393.4077555679154
 21
-1455.071825168339
 31
0.0
  0
ARC
  5
831D
330
1E
100
AcDbEntity
  8
002
100
AcDbCircle
 10
394.953422973122
 20
-1457.036745044604
 30
0.0
 40
2.5
100
AcDbArc
 50
128.1896849999834
 51
211.8103150000215
  0
ARC
  5
831E
330
1E
100
AcDbEntity
  8
002
100
AcDbCircle
 10
393.9175233938835
 20
-1456.85408799948
 30
0.0
 40
2.5
100
AcDbArc
 50
128.1896849999834
 51
211.8103150000215
  0
LINE
  5
831F
330
1E
100
AcDbEntity
  8
002
100
AcDbLine
 10
392.5920062071732
 20
-1481.159840348452
 30
0.0
 11
388.1983102379076
 21
-1484.616057758704
 31
0.0
  0
LINE
  5
8320
330
1E
100
AcDbEntity
  8
002
100
AcDbLine
 10
391.5561066279347
 20
-1480.977183303328
 30
0.0
 11
387.1624106586691
 21
-1484.43340071358
 31
0.0
  0
LINE
  5
8321
330
1E
100
AcDbEntity
  8
002
100
AcDbLine
 10
392.8289283669087
 20
-1458.354517350111
 30
0.0
 11
395.7755560731843
 21
-1463.105031871496
 31
0.0
  0
LINE
  5
8322
330
1E
100
AcDbEntity
  8
002
100
AcDbLine
 10
391.7930287876702
 20
-1458.171860304987
 30
0.0
 11
394.7396564939458
 21
-1462.922374826371
 31
0.0
  0
LINE
  5
8323
330
1E
100
AcDbEntity
  8
002
100
AcDbLine
 10
395.1967288721775
 20
-1466.387724053268
 30
0.0
 11
390.803032902912
 21
-1469.843941463522
 31
0.0
  0
LINE
  5
8324
330
1E
100
AcDbEntity
  8
002
100
AcDbLine
 10
394.1608292929391
 20
-1466.205067008144
 30
0.0
 11
389.7671333236735
 21
-1469.661284418397
 31
0.0
  0
ARC
  5
8325
330
1E
100
AcDbEntity
  8
002
100
AcDbCircle
 10
392.3487003081177
 20
-1471.808861339787
 30
0.0
 40
2.5
100
AcDbArc
 50
128.1896849999834
 51
211.8103150000215
  0
ARC
  5
8326
330
1E
100
AcDbEntity
  8
002
100
AcDbCircle
 10
391.3128007288792
 20
-1471.626204294663
 30
0.0
 40
2.5
100
AcDbArc
 50
128.1896849999834
 51
211.8103150000215
  0
ARC
  5
8327
330
1E
100
AcDbEntity
  8
002
100
AcDbCircle
 10
391.0463389756155
 20
-1479.194919487379
 30
0.0
 40
2.5
100
AcDbArc
 50
308.1896849999834
 51
31.81031499999344
  0
ARC
  5
8328
330
1E
100
AcDbEntity
  8
002
100
AcDbCircle
 10
390.010439396377
 20
-1479.012262442255
 30
0.0
 40
2.5
100
AcDbArc
 50
308.1896849999834
 51
31.81031499999344
  0
LINE
  5
8329
330
1E
100
AcDbEntity
  8
002
100
AcDbLine
 10
390.2242057019043
 20
-1473.126633645295
 30
0.0
 11
393.1708334081799
 21
-1477.877148166679
 31
0.0
  0
LINE
  5
832A
330
1E
100
AcDbEntity
  8
002
100
AcDbLine
 10
389.1883061226658
 20
-1472.94397660017
 30
0.0
 11
392.1349338289414
 21
-1477.694491121555
 31
0.0
  0
ARC
  5
832B
330
1E
100
AcDbEntity
  8
002
100
AcDbCircle
 10
393.6510616406199
 20
-1464.422803192195
 30
0.0
 40
2.5
100
AcDbArc
 50
308.1896849999834
 51
31.81031499999344
  0
ARC
  5
832C
330
1E
100
AcDbEntity
  8
002
100
AcDbCircle
 10
392.6151620613813
 20
-1464.240146147071
 30
0.0
 40
2.5
100
AcDbArc
 50
308.1896849999834
 51
31.81031499999344
  0
ARC
  5
832D
330
1E
100
AcDbEntity
  8
002
100
AcDbCircle
 10
397.5581456381255
 20
-1442.264628749421
 30
0.0
 40
2.5
100
AcDbArc
 50
128.1896849999834
 51
211.8103150000215
  0
ARC
  5
832E
330
1E
100
AcDbEntity
  8
002
100
AcDbCircle
 10
396.522246058887
 20
-1442.081971704297
 30
0.0
 40
2.5
100
AcDbArc
 50
128.1896849999834
 51
211.8103150000215
  0
LINE
  5
832F
330
1E
100
AcDbEntity
  8
002
100
AcDbLine
 10
394.3977514526736
 20
-1443.399744009804
 30
0.0
 11
397.3443791589502
 21
-1448.150258531189
 31
0.0
  0
LINE
  5
8330
330
1E
100
AcDbEntity
  8
002
100
AcDbLine
 10
396.7655519579425
 20
-1451.43295071296
 30
0.0
 11
392.3718559886769
 21
-1454.889168123215
 31
0.0
  0
ARC
  5
8331
330
1E
100
AcDbEntity
  8
002
100
AcDbCircle
 10
396.2557843056242
 20
-1449.650686897012
 30
0.0
 40
2.5
100
AcDbArc
 50
308.1896849999834
 51
31.81031499999344
  0
LINE
  5
8332
330
1E
100
AcDbEntity
  8
002
100
AcDbLine
 10
382.1731155471575
 20
-1540.248305529183
 30
0.0
 11
377.7794195778919
 21
-1543.704522939438
 31
0.0
  0
LINE
  5
8333
330
1E
100
AcDbEntity
  8
002
100
AcDbLine
 10
384.7778382121609
 20
-1525.476189234
 30
0.0
 11
380.3841422428963
 21
-1528.932406644254
 31
0.0
  0
LINE
  5
8334
330
1E
100
AcDbEntity
  8
002
100
AcDbLine
 10
379.8053150418886
 20
-1532.215098826027
 30
0.0
 11
382.7519427481643
 21
-1536.965613347412
 31
0.0
  0
LINE
  5
8335
330
1E
100
AcDbEntity
  8
002
100
AcDbLine
 10
387.2907739240986
 20
-1488.85621626697
 30
0.0
 11
380.894757782727
 21
-1487.7284260522
 31
0.0
  0
ARC
  5
8336
330
1E
100
AcDbEntity
  8
002
100
AcDbCircle
 10
381.929809648102
 20
-1530.89732652052
 30
0.0
 40
2.5
100
AcDbArc
 50
128.1896849999834
 51
211.8103150000215
  0
ARC
  5
8337
330
1E
100
AcDbEntity
  8
002
100
AcDbCircle
 10
379.3250869830985
 20
-1545.669442815703
 30
0.0
 40
2.5
100
AcDbArc
 50
128.1896849999834
 51
211.8103150000215
  0
LINE
  5
8338
330
1E
100
AcDbEntity
  8
002
100
AcDbLine
 10
377.2005923768852
 20
-1546.987215121211
 30
0.0
 11
380.1472200831608
 21
-1551.737729642595
 31
0.0
  0
ARC
  5
8339
330
1E
100
AcDbEntity
  8
002
100
AcDbCircle
 10
384.5345323131064
 20
-1516.125210225337
 30
0.0
 40
2.5
100
AcDbArc
 50
128.1896849999834
 51
211.8103150000215
  0
LINE
  5
833A
330
1E
100
AcDbEntity
  8
002
100
AcDbLine
 10
382.410037706893
 20
-1517.442982530843
 30
0.0
 11
385.3566654131686
 21
-1522.193497052228
 31
0.0
  0
ARC
  5
833B
330
1E
100
AcDbEntity
  8
002
100
AcDbCircle
 10
383.2321709806042
 20
-1523.511268372928
 30
0.0
 40
2.5
100
AcDbArc
 50
308.1896849999834
 51
31.81031499999344
  0
LINE
  5
833C
330
1E
100
AcDbEntity
  8
002
100
AcDbLine
 10
387.3825608771653
 20
-1510.704072938817
 30
0.0
 11
382.9888649078998
 21
-1514.160290349072
 31
0.0
  0
LINE
  5
833D
330
1E
100
AcDbEntity
  8
002
100
AcDbLine
 10
386.5835834576623
 20
-1487.716092895353
 30
0.0
 11
387.2907739240986
 21
-1488.85621626697
 31
0.0
  0
ARC
  5
833E
330
1E
100
AcDbEntity
  8
002
100
AcDbCircle
 10
385.8368936456077
 20
-1508.739152077745
 30
0.0
 40
2.5
100
AcDbArc
 50
308.1896849999834
 51
31.81031499999344
  0
ARC
  5
833F
330
1E
100
AcDbEntity
  8
002
100
AcDbCircle
 10
387.1392549781099
 20
-1501.353093930153
 30
0.0
 40
2.5
100
AcDbArc
 50
128.1896849999834
 51
211.8103150000215
  0
LINE
  5
8340
330
1E
100
AcDbEntity
  8
002
100
AcDbLine
 10
385.0147603718965
 20
-1502.670866235661
 30
0.0
 11
387.9613880781721
 21
-1507.421380757045
 31
0.0
  0
LINE
  5
8341
330
1E
100
AcDbEntity
  8
002
100
AcDbLine
 10
389.9872835421697
 20
-1495.931956643634
 30
0.0
 11
385.5935875729042
 21
-1499.388174053888
 31
0.0
  0
ARC
  5
8342
330
1E
100
AcDbEntity
  8
002
100
AcDbCircle
 10
388.441616310612
 20
-1493.967035782562
 30
0.0
 40
2.5
100
AcDbArc
 50
308.1896849999834
 51
31.81031499999344
  0
LINE
  5
8343
330
1E
100
AcDbEntity
  8
002
100
AcDbLine
 10
387.6194830369009
 20
-1487.898749940477
 30
0.0
 11
390.5661107431765
 21
-1492.649264461862
 31
0.0
  0
ARC
  5
8344
330
1E
100
AcDbEntity
  8
002
100
AcDbCircle
 10
380.6274483155998
 20
-1538.283384668111
 30
0.0
 40
2.5
100
AcDbArc
 50
308.1896849999834
 51
31.81031499999344
  0
ARC
  5
8345
330
1E
100
AcDbEntity
  8
002
100
AcDbCircle
 10
389.7439776431142
 20
-1486.58097763497
 30
0.0
 40
2.5
100
AcDbArc
 50
128.1896849999834
 51
211.8103150000215
  0
ARC
  5
8346
330
1E
100
AcDbEntity
  8
002
100
AcDbCircle
 10
388.7080780638757
 20
-1486.398320589846
 30
0.0
 40
2.5
100
AcDbArc
 50
128.1896849999834
 51
211.8103150000215
  0
LINE
  5
8347
330
1E
100
AcDbEntity
  8
002
100
AcDbLine
 10
402.8559770303736
 20
-1357.564468765893
 30
0.0
 11
345.4099033139564
 21
-1347.435176033923
 31
0.0
  0
LINE
  5
8348
330
1E
100
AcDbEntity
  8
002
100
AcDbLine
 10
400.6781678346865
 20
-1357.180462245858
 30
0.0
 11
345.4099033139564
 21
-1347.435176033923
 31
0.0
  0
LINE
  5
8349
330
1E
100
AcDbEntity
  8
002
100
AcDbLine
 10
382.2734949924183
 20
-1353.935221852656
 30
0.0
 11
345.4099033139564
 21
-1347.435176033921
 31
0.0
  0
LINE
  5
834A
330
1E
100
AcDbEntity
  8
002
100
AcDbLine
 10
345.4099042987641
 20
-1347.43517620757
 30
0.0
 11
383.1598219701295
 21
-1354.091505212555
 31
0.0
  0
LINE
  5
834B
330
1E
100
AcDbEntity
  8
002
100
AcDbLine
 10
349.9046836196717
 20
-1323.857488388921
 30
0.0
 11
345.7371273556655
 21
-1347.492874461213
 31
0.0
  0
LINE
  5
834C
330
1E
100
AcDbEntity
  8
002
100
AcDbLine
 10
349.9046836196717
 20
-1323.857488388921
 30
0.0
 11
345.7371273556655
 21
-1347.492874461213
 31
0.0
  0
LINE
  5
834D
330
1E
100
AcDbEntity
  8
002
  6
Continuous
100
AcDbLine
 10
383.1598219701295
 20
-1354.091505212555
 30
0.0
 11
402.8559770303741
 21
-1357.564468765893
 31
0.0
  0
LINE
  5
834E
330
1E
100
AcDbEntity
  8
002
  6
Continuous
100
AcDbLine
 10
382.2734949924183
 20
-1353.935221852656
 30
0.0
 11
402.8559770303736
 21
-1357.564468765894
 31
0.0
  0
LINE
  5
834F
330
1E
100
AcDbEntity
  8
002
100
AcDbLine
 10
399.1313201532225
 20
-1331.658086732331
 30
0.0
 11
397.503724686992
 21
-1332.250483584941
 31
0.0
  0
LINE
  5
8350
330
1E
100
AcDbEntity
  8
002
100
AcDbLine
 10
390.9599246753664
 20
-1330.970412481539
 30
0.0
 11
389.6079925905637
 21
-1329.039653369378
 31
0.0
  0
LINE
  5
8351
330
1E
100
AcDbEntity
  8
002
100
AcDbLine
 10
407.0235332943798
 20
-1333.929082693602
 30
0.0
 11
402.8559770303736
 21
-1357.564468765893
 31
0.0
  0
LINE
  5
8352
330
1E
100
AcDbEntity
  8
002
100
AcDbLine
 10
398.9717608626756
 20
-1332.509337971368
 30
0.0
 11
397.6449330698692
 21
-1331.395996585759
 31
0.0
  0
LINE
  5
8353
330
1E
100
AcDbEntity
  8
002
100
AcDbLine
 10
403.2478190269244
 20
-1399.266052169379
 30
0.0
 11
406.1944467332
 21
-1404.016566690764
 31
0.0
  0
LINE
  5
8354
330
1E
100
AcDbEntity
  8
002
100
AcDbLine
 10
402.2119194476858
 20
-1399.083395124254
 30
0.0
 11
405.1585471539615
 21
-1403.833909645639
 31
0.0
  0
LINE
  5
8355
330
1E
100
AcDbEntity
  8
002
100
AcDbLine
 10
405.6156195321932
 20
-1407.299258872536
 30
0.0
 11
401.2219235629276
 21
-1410.75547628279
 31
0.0
  0
LINE
  5
8356
330
1E
100
AcDbEntity
  8
002
100
AcDbLine
 10
404.5797199529547
 20
-1407.116601827412
 30
0.0
 11
400.1860239836892
 21
-1410.572819237666
 31
0.0
  0
LINE
  5
8357
330
1E
100
AcDbEntity
  8
002
100
AcDbLine
 10
400.64309636192
 20
-1414.038168464561
 30
0.0
 11
403.5897240681966
 21
-1418.788682985946
 31
0.0
  0
ARC
  5
8358
330
1E
100
AcDbEntity
  8
002
100
AcDbCircle
 10
401.4652296356321
 20
-1420.106454306646
 30
0.0
 40
2.5
100
AcDbArc
 50
308.1896849999834
 51
31.81031499999344
  0
ARC
  5
8359
330
1E
100
AcDbEntity
  8
002
100
AcDbCircle
 10
400.4293300563936
 20
-1419.923797261522
 30
0.0
 40
2.5
100
AcDbArc
 50
308.1896849999834
 51
31.81031499999344
  0
ARC
  5
835A
330
1E
100
AcDbEntity
  8
002
100
AcDbCircle
 10
401.7316913888948
 20
-1412.53773911393
 30
0.0
 40
2.5
100
AcDbArc
 50
128.1896849999834
 51
211.8103150000215
  0
LINE
  5
835B
330
1E
100
AcDbEntity
  8
002
100
AcDbLine
 10
399.6071967826815
 20
-1413.855511419437
 30
0.0
 11
402.553824488958
 21
-1418.606025940821
 31
0.0
  0
ARC
  5
835C
330
1E
100
AcDbEntity
  8
002
100
AcDbCircle
 10
402.7675909681334
 20
-1412.720396159054
 30
0.0
 40
2.5
100
AcDbArc
 50
128.1896849999834
 51
211.8103150000215
  0
ARC
  5
835D
330
1E
100
AcDbEntity
  8
002
100
AcDbCircle
 10
404.0699523006355
 20
-1405.334338011463
 30
0.0
 40
2.5
100
AcDbArc
 50
308.1896849999834
 51
31.81031499999344
  0
ARC
  5
835E
330
1E
100
AcDbEntity
  8
002
100
AcDbCircle
 10
403.034052721397
 20
-1405.151680966339
 30
0.0
 40
2.5
100
AcDbArc
 50
308.1896849999834
 51
31.81031499999344
  0
ARC
  5
835F
330
1E
100
AcDbEntity
  8
002
100
AcDbCircle
 10
405.3723136331377
 20
-1397.948279863871
 30
0.0
 40
2.5
100
AcDbArc
 50
128.1896849999834
 51
211.8103150000215
  0
ARC
  5
8360
330
1E
100
AcDbEntity
  8
002
100
AcDbCircle
 10
404.3364140538992
 20
-1397.765622818747
 30
0.0
 40
2.5
100
AcDbArc
 50
128.1896849999834
 51
211.8103150000215
  0
LINE
  5
8361
330
1E
100
AcDbEntity
  8
002
100
AcDbLine
 10
408.2203421971967
 20
-1392.527142577352
 30
0.0
 11
403.8266462279311
 21
-1395.983359987607
 31
0.0
  0
LINE
  5
8362
330
1E
100
AcDbEntity
  8
002
100
AcDbLine
 10
407.1844426179581
 20
-1392.344485532228
 30
0.0
 11
402.7907466486927
 21
-1395.800702942482
 31
0.0
  0
ARC
  5
8363
330
1E
100
AcDbEntity
  8
002
100
AcDbCircle
 10
406.9411367189027
 20
-1382.993506523564
 30
0.0
 40
2.5
100
AcDbArc
 50
128.1896849999834
 51
211.8103150000215
  0
ARC
  5
8364
330
1E
100
AcDbEntity
  8
002
100
AcDbCircle
 10
406.6746749656399
 20
-1390.56222171628
 30
0.0
 40
2.5
100
AcDbArc
 50
308.1896849999834
 51
31.81031499999344
  0
ARC
  5
8365
330
1E
100
AcDbEntity
  8
002
100
AcDbCircle
 10
407.9770362981411
 20
-1383.176163568688
 30
0.0
 40
2.5
100
AcDbArc
 50
128.1896849999834
 51
211.8103150000215
  0
LINE
  5
8366
330
1E
100
AcDbEntity
  8
002
100
AcDbLine
 10
405.8525416919287
 20
-1384.493935874195
 30
0.0
 11
408.7991693982043
 21
-1389.24445039558
 31
0.0
  0
ARC
  5
8367
330
1E
100
AcDbEntity
  8
002
100
AcDbCircle
 10
405.6387753864014
 20
-1390.379564671156
 30
0.0
 40
2.5
100
AcDbArc
 50
308.1896849999834
 51
31.81031499999344
  0
LINE
  5
8368
330
1E
100
AcDbEntity
  8
002
100
AcDbLine
 10
404.8166421126902
 20
-1384.311278829071
 30
0.0
 11
407.7632698189659
 21
-1389.061793350456
 31
0.0
  0
LINE
  5
8369
330
1E
100
AcDbEntity
  8
002
100
AcDbLine
 10
409.7891652829625
 20
-1377.572369237044
 30
0.0
 11
405.395469313697
 21
-1381.028586647299
 31
0.0
  0
LINE
  5
836A
330
1E
100
AcDbEntity
  8
002
100
AcDbLine
 10
410.8250648622011
 20
-1377.755026282169
 30
0.0
 11
406.4313688929355
 21
-1381.211243692423
 31
0.0
  0
ARC
  5
836B
330
1E
100
AcDbEntity
  8
002
100
AcDbCircle
 10
409.2793976306434
 20
-1375.790105421096
 30
0.0
 40
2.5
100
AcDbArc
 50
308.1896849999834
 51
31.81031499999344
  0
ARC
  5
836C
330
1E
100
AcDbEntity
  8
002
100
AcDbCircle
 10
408.2434980514049
 20
-1375.607448375972
 30
0.0
 40
2.5
100
AcDbArc
 50
308.1896849999834
 51
31.81031499999344
  0
ARC
  5
836D
330
1E
100
AcDbEntity
  8
002
100
AcDbCircle
 10
400.1628683031299
 20
-1427.492512454238
 30
0.0
 40
2.5
100
AcDbArc
 50
128.1896849999834
 51
211.8103150000215
  0
ARC
  5
836E
330
1E
100
AcDbEntity
  8
002
100
AcDbCircle
 10
399.1269687238914
 20
-1427.309855409114
 30
0.0
 40
2.5
100
AcDbArc
 50
128.1896849999834
 51
211.8103150000215
  0
ARC
  5
836F
330
1E
100
AcDbEntity
  8
002
100
AcDbCircle
 10
398.8605069706277
 20
-1434.878570601829
 30
0.0
 40
2.5
100
AcDbArc
 50
308.1896849999834
 51
31.81031499999344
  0
ARC
  5
8370
330
1E
100
AcDbEntity
  8
002
100
AcDbCircle
 10
397.8246073913892
 20
-1434.695913556705
 30
0.0
 40
2.5
100
AcDbArc
 50
308.1896849999834
 51
31.81031499999344
  0
LINE
  5
8371
330
1E
100
AcDbEntity
  8
002
100
AcDbLine
 10
401.9749972879504
 20
-1421.888718122594
 30
0.0
 11
397.5813013186848
 21
-1425.344935532849
 31
0.0
  0
LINE
  5
8372
330
1E
100
AcDbEntity
  8
002
100
AcDbLine
 10
403.0108968671888
 20
-1422.071375167718
 30
0.0
 11
398.6172008979233
 21
-1425.527592577973
 31
0.0
  0
LINE
  5
8373
330
1E
100
AcDbEntity
  8
002
100
AcDbLine
 10
407.4213647776937
 20
-1369.539162533888
 30
0.0
 11
410.3679924839694
 21
-1374.289677055273
 31
0.0
  0
LINE
  5
8374
330
1E
100
AcDbEntity
  8
002
100
AcDbLine
 10
408.4572643569321
 20
-1369.721819579013
 30
0.0
 11
411.4038920632078
 21
-1374.472334100397
 31
0.0
  0
LWPOLYLINE
  5
8375
330
1E
100
AcDbEntity
  8
003
100
AcDbPolyline
 90
        4
 70
     0
 43
0.0
 10
397.3435660844363
 20
-1378.931867448859
 10
378.8471581849508
 20
-1375.670451689991
 10
382.6674180936233
 20
-1354.004681123723
 10
401.2221851546662
 20
-1357.276387177345
  0
LINE
  5
8376
330
1E
100
AcDbEntity
  8
002
100
AcDbLine
 10
471.9474395780439
 20
-1434.226747604404
 30
0.0
 11
467.5537436087783
 21
-1437.682965014658
 31
0.0
  0
LINE
  5
8377
330
1E
100
AcDbEntity
  8
002
100
AcDbLine
 10
473.4183238177497
 20
-1434.486104181363
 30
0.0
 11
469.0246278484833
 21
-1437.942321591617
 31
0.0
  0
LINE
  5
8378
330
1E
100
AcDbEntity
  8
002
100
AcDbLine
 10
451.3465804177472
 20
-1529.598354967528
 30
0.0
 11
454.2932081240228
 21
-1534.348869488914
 31
0.0
  0
LINE
  5
8379
330
1E
100
AcDbEntity
  8
002
100
AcDbLine
 10
456.3191035880195
 20
-1522.859445375502
 30
0.0
 11
451.9254076187548
 21
-1526.315662785756
 31
0.0
  0
LINE
  5
837A
330
1E
100
AcDbEntity
  8
002
100
AcDbLine
 10
453.714380923016
 20
-1537.631561670686
 30
0.0
 11
449.3206849537505
 21
-1541.08777908094
 31
0.0
  0
ARC
  5
837B
330
1E
100
AcDbEntity
  8
002
100
AcDbCircle
 10
453.4710750239606
 20
-1528.280582662022
 30
0.0
 40
2.5
100
AcDbArc
 50
128.1896849999834
 51
211.8103150000215
  0
ARC
  5
837C
330
1E
100
AcDbEntity
  8
002
100
AcDbCircle
 10
450.8663523589571
 20
-1543.052698957206
 30
0.0
 40
2.5
100
AcDbArc
 50
128.1896849999834
 51
211.8103150000215
  0
LINE
  5
837D
330
1E
100
AcDbEntity
  8
002
100
AcDbLine
 10
448.7418577527437
 20
-1544.370471262712
 30
0.0
 11
451.6884854590194
 21
-1549.120985784098
 31
0.0
  0
LINE
  5
837E
330
1E
100
AcDbEntity
  8
002
100
AcDbLine
 10
465.6041558227375
 20
-1478.802453066912
 30
0.0
 11
461.2104598534719
 21
-1482.258670477166
 31
0.0
  0
ARC
  5
837F
330
1E
100
AcDbEntity
  8
002
100
AcDbCircle
 10
463.8899656839762
 20
-1469.19211748129
 30
0.0
 40
2.5
100
AcDbArc
 50
128.1896849999834
 51
211.8103150000215
  0
LINE
  5
8380
330
1E
100
AcDbEntity
  8
002
100
AcDbLine
 10
461.7654710777628
 20
-1470.509889786796
 30
0.0
 11
464.7120987840385
 21
-1475.260404308182
 31
0.0
  0
LINE
  5
8381
330
1E
100
AcDbEntity
  8
002
100
AcDbLine
 10
464.1332715830317
 20
-1478.543096489953
 30
0.0
 11
459.7395756137662
 21
-1481.999313900206
 31
0.0
  0
ARC
  5
8382
330
1E
100
AcDbEntity
  8
002
100
AcDbCircle
 10
461.2852430189727
 20
-1483.964233776472
 30
0.0
 40
2.5
100
AcDbArc
 50
128.1896849999834
 51
211.8103150000215
  0
ARC
  5
8383
330
1E
100
AcDbEntity
  8
002
100
AcDbCircle
 10
462.7561272586767
 20
-1484.223590353431
 30
0.0
 40
2.5
100
AcDbArc
 50
128.1896849999834
 51
211.8103150000215
  0
ARC
  5
8384
330
1E
100
AcDbEntity
  8
002
100
AcDbCircle
 10
469.0994110139841
 20
-1439.647884890924
 30
0.0
 40
2.5
100
AcDbArc
 50
128.1896849999834
 51
211.8103150000215
  0
ARC
  5
8385
330
1E
100
AcDbEntity
  8
002
100
AcDbCircle
 10
470.5702952536889
 20
-1439.907241467882
 30
0.0
 40
2.5
100
AcDbArc
 50
128.1896849999834
 51
211.8103150000215
  0
LINE
  5
8386
330
1E
100
AcDbEntity
  8
002
100
AcDbLine
 10
464.3701937427672
 20
-1455.737773491613
 30
0.0
 11
467.3168214490429
 21
-1460.488288012998
 31
0.0
  0
LINE
  5
8387
330
1E
100
AcDbEntity
  8
002
100
AcDbLine
 10
465.8410779824721
 20
-1455.997130068572
 30
0.0
 11
468.7877056887487
 21
-1460.747644589957
 31
0.0
  0
LINE
  5
8388
330
1E
100
AcDbEntity
  8
002
100
AcDbLine
 10
466.737994248036
 20
-1463.77098019477
 30
0.0
 11
462.3442982787706
 21
-1467.227197605024
 31
0.0
  0
LINE
  5
8389
330
1E
100
AcDbEntity
  8
002
100
AcDbLine
 10
463.2363553174687
 20
-1470.769246363755
 30
0.0
 11
466.1829830237443
 21
-1475.51976088514
 31
0.0
  0
ARC
  5
838A
330
1E
100
AcDbEntity
  8
002
100
AcDbCircle
 10
462.5876043514749
 20
-1476.578175628881
 30
0.0
 40
2.5
100
AcDbArc
 50
308.1896849999834
 51
31.81031499999344
  0
LINE
  5
838B
330
1E
100
AcDbEntity
  8
002
100
AcDbLine
 10
468.2088784877419
 20
-1464.030336771729
 30
0.0
 11
463.8151825184754
 21
-1467.486554181983
 31
0.0
  0
ARC
  5
838C
330
1E
100
AcDbEntity
  8
002
100
AcDbCircle
 10
465.3608499236811
 20
-1469.451474058248
 30
0.0
 40
2.5
100
AcDbArc
 50
128.1896849999834
 51
211.8103150000215
  0
ARC
  5
838D
330
1E
100
AcDbEntity
  8
002
100
AcDbCircle
 10
466.6632112561833
 20
-1462.065415910656
 30
0.0
 40
2.5
100
AcDbArc
 50
308.1896849999834
 51
31.81031499999344
  0
ARC
  5
838E
330
1E
100
AcDbEntity
  8
002
100
AcDbCircle
 10
465.1923270164784
 20
-1461.806059333697
 30
0.0
 40
2.5
100
AcDbArc
 50
308.1896849999834
 51
31.81031499999344
  0
ARC
  5
838F
330
1E
100
AcDbEntity
  8
002
100
AcDbCircle
 10
464.0584885911789
 20
-1476.837532205839
 30
0.0
 40
2.5
100
AcDbArc
 50
308.1896849999834
 51
31.81031499999344
  0
LINE
  5
8390
330
1E
100
AcDbEntity
  8
002
100
AcDbLine
 10
469.3427169130395
 20
-1448.998863899586
 30
0.0
 11
464.949020943774
 21
-1452.45508130984
 31
0.0
  0
ARC
  5
8391
330
1E
100
AcDbEntity
  8
002
100
AcDbCircle
 10
467.9655725886854
 20
-1454.679357763065
 30
0.0
 40
2.5
100
AcDbArc
 50
128.1896849999834
 51
211.8103150000215
  0
ARC
  5
8392
330
1E
100
AcDbEntity
  8
002
100
AcDbCircle
 10
466.4946883489806
 20
-1454.420001186106
 30
0.0
 40
2.5
100
AcDbArc
 50
128.1896849999834
 51
211.8103150000215
  0
LINE
  5
8393
330
1E
100
AcDbEntity
  8
002
100
AcDbLine
 10
466.9749164077707
 20
-1440.965657196429
 30
0.0
 11
469.9215441140473
 21
-1445.716171717814
 31
0.0
  0
LINE
  5
8394
330
1E
100
AcDbEntity
  8
002
100
AcDbLine
 10
468.4458006474764
 20
-1441.225013773388
 30
0.0
 11
471.392428353753
 21
-1445.975528294773
 31
0.0
  0
LINE
  5
8395
330
1E
100
AcDbEntity
  8
002
100
AcDbLine
 10
470.8136011527454
 20
-1449.258220476546
 30
0.0
 11
466.4199051834798
 21
-1452.7144378868
 31
0.0
  0
ARC
  5
8396
330
1E
100
AcDbEntity
  8
002
100
AcDbCircle
 10
467.7970496814828
 20
-1447.033943038515
 30
0.0
 40
2.5
100
AcDbArc
 50
308.1896849999834
 51
31.81031499999344
  0
ARC
  5
8397
330
1E
100
AcDbEntity
  8
002
100
AcDbCircle
 10
469.2679339211868
 20
-1447.293299615473
 30
0.0
 40
2.5
100
AcDbArc
 50
308.1896849999834
 51
31.81031499999344
  0
LINE
  5
8398
330
1E
100
AcDbEntity
  8
002
100
AcDbLine
 10
466.6036164843667
 20
-1502.841210327028
 30
0.0
 11
458.7341004538971
 21
-1501.45360232574
 31
0.0
  0
LINE
  5
8399
330
1E
100
AcDbEntity
  8
002
100
AcDbLine
 10
462.999433157734
 20
-1493.574569362096
 30
0.0
 11
458.6057371884676
 21
-1497.030786772349
 31
0.0
  0
ARC
  5
839A
330
1E
100
AcDbEntity
  8
002
100
AcDbCircle
 10
459.9828816864706
 20
-1491.350291924065
 30
0.0
 40
2.5
100
AcDbArc
 50
308.1896849999834
 51
31.81031499999344
  0
ARC
  5
839B
330
1E
100
AcDbEntity
  8
002
100
AcDbCircle
 10
456.0757976889649
 20
-1513.508466366838
 30
0.0
 40
2.5
100
AcDbArc
 50
128.1896849999834
 51
211.8103150000215
  0
LINE
  5
839C
330
1E
100
AcDbEntity
  8
002
100
AcDbLine
 10
453.9513030827516
 20
-1514.826238672345
 30
0.0
 11
456.8979307890272
 21
-1519.57675319373
 31
0.0
  0
ARC
  5
839D
330
1E
100
AcDbEntity
  8
002
100
AcDbCircle
 10
454.7734363564627
 20
-1520.894524514431
 30
0.0
 40
2.5
100
AcDbArc
 50
308.1896849999834
 51
31.81031499999344
  0
LINE
  5
839E
330
1E
100
AcDbEntity
  8
002
100
AcDbLine
 10
456.556025747755
 20
-1500.054122377163
 30
0.0
 11
459.5026534540306
 21
-1504.804636898548
 31
0.0
  0
LINE
  5
839F
330
1E
100
AcDbEntity
  8
002
100
AcDbLine
 10
458.0269099874608
 20
-1500.313478954121
 30
0.0
 11
458.7341004538971
 21
-1501.45360232574
 31
0.0
  0
ARC
  5
83A0
330
1E
100
AcDbEntity
  8
002
100
AcDbCircle
 10
460.1514045936733
 20
-1498.995706648614
 30
0.0
 40
2.5
100
AcDbArc
 50
128.1896849999834
 51
211.8103150000215
  0
LINE
  5
83A1
330
1E
100
AcDbEntity
  8
002
100
AcDbLine
 10
458.9238262530239
 20
-1508.08732908032
 30
0.0
 11
454.5301302837583
 21
-1511.543546490574
 31
0.0
  0
LINE
  5
83A2
330
1E
100
AcDbEntity
  8
002
100
AcDbLine
 10
461.5285489180283
 20
-1493.315212785137
 30
0.0
 11
457.1348529487627
 21
-1496.77143019539
 31
0.0
  0
ARC
  5
83A3
330
1E
100
AcDbEntity
  8
002
100
AcDbCircle
 10
458.6805203539683
 20
-1498.736350071656
 30
0.0
 40
2.5
100
AcDbArc
 50
128.1896849999834
 51
211.8103150000215
  0
ARC
  5
83A4
330
1E
100
AcDbEntity
  8
002
100
AcDbCircle
 10
457.3781590214662
 20
-1506.122408219247
 30
0.0
 40
2.5
100
AcDbArc
 50
308.1896849999834
 51
31.81031499999344
  0
ARC
  5
83A5
330
1E
100
AcDbEntity
  8
002
100
AcDbCircle
 10
452.1687136914583
 20
-1535.666640809613
 30
0.0
 40
2.5
100
AcDbArc
 50
308.1896849999834
 51
31.81031499999344
  0
ARC
  5
83A6
330
1E
100
AcDbEntity
  8
002
100
AcDbCircle
 10
461.4537659261754
 20
-1491.609648501023
 30
0.0
 40
2.5
100
AcDbArc
 50
308.1896849999834
 51
31.81031499999344
  0
LINE
  5
83A7
330
1E
100
AcDbEntity
  8
002
100
AcDbLine
 10
460.6316326524643
 20
-1485.541362658938
 30
0.0
 11
463.5782603587408
 21
-1490.291877180323
 31
0.0
  0
LINE
  5
83A8
330
1E
100
AcDbEntity
  8
002
100
AcDbLine
 10
459.1607484127593
 20
-1485.282006081979
 30
0.0
 11
462.107376119035
 21
-1490.032520603364
 31
0.0
  0
LINE
  5
83A9
330
1E
100
AcDbEntity
  8
002
100
AcDbLine
 10
416.084624929214
 20
-1365.989595980068
 30
0.0
 11
418.5558197655796
 21
-1366.425334304307
 31
0.0
  0
LINE
  5
83AA
330
1E
100
AcDbEntity
  8
002
100
AcDbLine
 10
416.084624929214
 20
-1365.989595980068
 30
0.0
 11
415.2163840408788
 21
-1370.91363474513
 31
0.0
  0
LINE
  5
83AB
330
1E
100
AcDbEntity
  8
002
100
AcDbLine
 10
419.3244547531971
 20
-1336.098067034368
 30
0.0
 11
420.9520502194277
 21
-1335.505670181758
 31
0.0
  0
LINE
  5
83AC
330
1E
100
AcDbEntity
  8
002
100
AcDbLine
 10
422.8379796245685
 20
-1371.242101070695
 30
0.0
 11
439.1788408843276
 21
-1326.345955517924
 31
0.0
  0
LINE
  5
83AD
330
1E
100
AcDbEntity
  8
002
100
AcDbLine
 10
485.8251144993168
 20
-1327.515395344807
 30
0.0
 11
482.3521509459783
 21
-1347.211550405052
 31
0.0
  0
LINE
  5
83AE
330
1E
100
AcDbEntity
  8
002
100
AcDbLine
 10
484.3479028697989
 20
-1327.254923078307
 30
0.0
 11
480.8749393164602
 21
-1346.951078138552
 31
0.0
  0
LINE
  5
83AF
330
1E
100
AcDbEntity
  8
002
100
AcDbLine
 10
482.3521509459783
 20
-1347.211550405052
 30
0.0
 11
481.0253231531728
 21
-1346.098209019442
 31
0.0
  0
LINE
  5
83B0
330
1E
100
AcDbEntity
  8
002
100
AcDbLine
 10
485.8251144993168
 20
-1327.515395344807
 30
0.0
 11
484.1975192067352
 21
-1328.107791212608
 31
0.0
  0
LINE
  5
83B1
330
1E
100
AcDbEntity
  8
002
100
AcDbLine
 10
484.3479028697989
 20
-1327.254923078307
 30
0.0
 11
485.6747308362533
 21
-1328.36826347911
 31
0.0
  0
LINE
  5
83B2
330
1E
100
AcDbEntity
  8
002
100
AcDbLine
 10
476.2599686424887
 20
-1396.908664887839
 30
0.0
 11
479.2065963487643
 21
-1401.659179409225
 31
0.0
  0
LINE
  5
83B3
330
1E
100
AcDbEntity
  8
002
100
AcDbLine
 10
478.6277691477575
 20
-1404.941871590996
 30
0.0
 11
474.2340731784911
 21
-1408.39808900125
 31
0.0
  0
LINE
  5
83B4
330
1E
100
AcDbEntity
  8
002
100
AcDbLine
 10
479.7616075730552
 20
-1389.910398718855
 30
0.0
 11
475.3679116037897
 21
-1393.366616129108
 31
0.0
  0
LINE
  5
83B5
330
1E
100
AcDbEntity
  8
002
100
AcDbLine
 10
474.7890844027828
 20
-1396.649308310881
 30
0.0
 11
477.7357121090585
 21
-1401.399822832266
 31
0.0
  0
ARC
  5
83B6
330
1E
100
AcDbEntity
  8
002
100
AcDbCircle
 10
474.4773792511946
 20
-1417.749067025107
 30
0.0
 40
2.5
100
AcDbArc
 50
308.1896849999834
 51
31.81031499999344
  0
LINE
  5
83B7
330
1E
100
AcDbEntity
  8
002
100
AcDbLine
 10
477.1568849080518
 20
-1404.682515014037
 30
0.0
 11
472.7631889387862
 21
-1408.138732424291
 31
0.0
  0
ARC
  5
83B8
330
1E
100
AcDbEntity
  8
002
100
AcDbCircle
 10
478.3844632487012
 20
-1395.590892582332
 30
0.0
 40
2.5
100
AcDbArc
 50
128.1896849999834
 51
211.8103150000215
  0
ARC
  5
83B9
330
1E
100
AcDbEntity
  8
002
100
AcDbCircle
 10
473.0064950114906
 20
-1417.489710448149
 30
0.0
 40
2.5
100
AcDbArc
 50
308.1896849999834
 51
31.81031499999344
  0
LINE
  5
83BA
330
1E
100
AcDbEntity
  8
002
100
AcDbLine
 10
472.1843617377794
 20
-1411.421424606063
 30
0.0
 11
475.130989444055
 21
-1416.171939127448
 31
0.0
  0
LINE
  5
83BB
330
1E
100
AcDbEntity
  8
002
100
AcDbLine
 10
473.6552459774843
 20
-1411.680781183022
 30
0.0
 11
476.6018736837609
 21
-1416.431295704408
 31
0.0
  0
ARC
  5
83BC
330
1E
100
AcDbEntity
  8
002
100
AcDbCircle
 10
474.3088563439918
 20
-1410.103652300556
 30
0.0
 40
2.5
100
AcDbArc
 50
128.1896849999834
 51
211.8103150000215
  0
ARC
  5
83BD
330
1E
100
AcDbEntity
  8
002
100
AcDbCircle
 10
475.7797405836968
 20
-1410.363008877515
 30
0.0
 40
2.5
100
AcDbArc
 50
128.1896849999834
 51
211.8103150000215
  0
LINE
  5
83BE
330
1E
100
AcDbEntity
  8
002
100
AcDbLine
 10
475.1730901099468
 20
-1376.408486640084
 30
0.0
 11
474.3048492216116
 21
-1381.332525405146
 31
0.0
  0
LINE
  5
83BF
330
1E
100
AcDbEntity
  8
002
100
AcDbLine
 10
475.1730901099468
 20
-1376.408486640084
 30
0.0
 11
472.7202461812508
 21
-1375.975984075988
 31
0.0
  0
ARC
  5
83C0
330
1E
100
AcDbEntity
  8
002
100
AcDbCircle
 10
476.9135790089962
 20
-1395.331536005374
 30
0.0
 40
2.5
100
AcDbArc
 50
128.1896849999834
 51
211.8103150000215
  0
LINE
  5
83C1
330
1E
100
AcDbEntity
  8
002
100
AcDbLine
 10
477.3938070677872
 20
-1381.877192015697
 30
0.0
 11
480.3404347740629
 21
-1386.627706537082
 31
0.0
  0
LINE
  5
83C2
330
1E
100
AcDbEntity
  8
002
100
AcDbLine
 10
481.232491812761
 20
-1390.169755295813
 30
0.0
 11
476.8387958434955
 21
-1393.625972706067
 31
0.0
  0
ARC
  5
83C3
330
1E
100
AcDbEntity
  8
002
100
AcDbCircle
 10
475.6112176764941
 20
-1402.717594152965
 30
0.0
 40
2.5
100
AcDbArc
 50
308.1896849999834
 51
31.81031499999344
  0
ARC
  5
83C4
330
1E
100
AcDbEntity
  8
002
100
AcDbCircle
 10
477.0821019161989
 20
-1402.976950729924
 30
0.0
 40
2.5
100
AcDbArc
 50
308.1896849999834
 51
31.81031499999344
  0
LINE
  5
83C5
330
1E
100
AcDbEntity
  8
002
100
AcDbLine
 10
478.8646913074922
 20
-1382.136548592656
 30
0.0
 11
481.8113190137687
 21
-1386.887063114042
 31
0.0
  0
ARC
  5
83C6
330
1E
100
AcDbEntity
  8
002
100
AcDbCircle
 10
478.2159403414985
 20
-1387.945477857781
 30
0.0
 40
2.5
100
AcDbArc
 50
308.1896849999834
 51
31.81031499999344
  0
ARC
  5
83C7
330
1E
100
AcDbEntity
  8
002
100
AcDbCircle
 10
479.6868245812024
 20
-1388.20483443474
 30
0.0
 40
2.5
100
AcDbArc
 50
308.1896849999834
 51
31.81031499999344
  0
LINE
  5
83C8
330
1E
100
AcDbEntity
  8
002
100
AcDbLine
 10
469.5796390727751
 20
-1426.193540901247
 30
0.0
 11
472.5262667790507
 21
-1430.944055422632
 31
0.0
  0
LINE
  5
83C9
330
1E
100
AcDbEntity
  8
002
100
AcDbLine
 10
471.0505233124799
 20
-1426.452897478205
 30
0.0
 11
473.9971510187565
 21
-1431.203411999591
 31
0.0
  0
ARC
  5
83CA
330
1E
100
AcDbEntity
  8
002
100
AcDbCircle
 10
470.4017723464862
 20
-1432.261826743331
 30
0.0
 40
2.5
100
AcDbArc
 50
308.1896849999834
 51
31.81031499999344
  0
ARC
  5
83CB
330
1E
100
AcDbEntity
  8
002
100
AcDbCircle
 10
471.8726565861912
 20
-1432.52118332029
 30
0.0
 40
2.5
100
AcDbArc
 50
308.1896849999834
 51
31.81031499999344
  0
ARC
  5
83CC
330
1E
100
AcDbEntity
  8
002
100
AcDbCircle
 10
473.1750179186933
 20
-1425.135125172698
 30
0.0
 40
2.5
100
AcDbArc
 50
128.1896849999834
 51
211.8103150000215
  0
LINE
  5
83CD
330
1E
100
AcDbEntity
  8
002
100
AcDbLine
 10
474.5521622430474
 20
-1419.454631309221
 30
0.0
 11
470.1584662737818
 21
-1422.910848719475
 31
0.0
  0
ARC
  5
83CE
330
1E
100
AcDbEntity
  8
002
100
AcDbCircle
 10
471.7041336789884
 20
-1424.87576859574
 30
0.0
 40
2.5
100
AcDbArc
 50
128.1896849999834
 51
211.8103150000215
  0
LINE
  5
83CF
330
1E
100
AcDbEntity
  8
002
100
AcDbLine
 10
476.0230464827531
 20
-1419.71398788618
 30
0.0
 11
471.6293505134877
 21
-1423.170205296434
 31
0.0
  0
LINE
  5
83D0
330
1E
100
AcDbEntity
  8
002
100
AcDbLine
 10
462.6643319635018
 20
-1379.279988143139
 30
0.0
 11
479.759428578935
 21
-1332.311596104985
 31
0.0
  0
LINE
  5
83D1
330
1E
100
AcDbEntity
  8
002
100
AcDbLine
 10
472.7202461812508
 20
-1375.975984075988
 30
0.0
 11
481.4026550645971
 21
-1326.735596425377
 31
0.0
  0
LINE
  5
83D2
330
1E
100
AcDbEntity
  8
003
100
AcDbLine
 10
409.2055372118652
 20
-1214.09135980838
 30
0.0
 11
135.9810808845532
 21
-1214.09135980838
 31
0.0
  0
LINE
  5
83D3
330
1E
100
AcDbEntity
  8
003
 48
0.25
100
AcDbLine
 10
62.59713272977979
 20
-1229.355221024573
 30
0.0
 11
135.9810808845532
 21
-1214.09135980838
 31
0.0
  0
LINE
  5
83D4
330
1E
100
AcDbEntity
  8
001
100
AcDbLine
 10
203.5899783616327
 20
-1008.041006714937
 30
0.0
 11
427.8098986002119
 21
-1008.041006714937
 31
0.0
  0
TEXT
  5
83D5
330
1E
100
AcDbEntity
  8
001
100
AcDbText
 10
203.5899783616327
 20
-1004.39945805533
 30
0.0
 40
18.0
  1
10°振りアンカー頭部構造図
 41
0.787037
100
AcDbText
  0
LWPOLYLINE
  5
83D6
330
1E
100
AcDbEntity
  8
003
100
AcDbPolyline
 90
        3
 70
     0
 43
0.0
 10
405.1417824742245
 20
-1246.270590630864
 10
288.5158260405814
 20
-1225.706287860682
 10
287.4997791878736
 20
-1214.09135980838
  0
LINE
  5
83D7
330
1E
100
AcDbEntity
  8
002
100
AcDbLine
 10
413.4537884785545
 20
-1253.790613369066
 30
0.0
 11
405.2160036703467
 21
-1300.509412585782
 31
0.0
  0
LINE
  5
83D8
330
1E
100
AcDbEntity
  8
002
100
AcDbLine
 10
412.466112353742
 20
-1314.580223988692
 30
0.0
 11
411.5301953436314
 21
-1312.384343344335
 31
0.0
  0
LINE
  5
83D9
330
1E
100
AcDbEntity
  8
002
100
AcDbLine
 10
412.4626097000823
 20
-1247.840937027971
 30
0.0
 11
411.9020734322716
 21
-1248.278013094098
 31
0.0
  0
ARC
  5
83DA
330
1E
100
AcDbEntity
  8
002
100
AcDbCircle
 10
417.0263008192473
 20
-1254.849675154946
 30
0.0
 40
8.333332999999999
100
AcDbArc
 50
127.945188000028
 51
161.4692340000226
  0
LINE
  5
83DB
330
1E
100
AcDbEntity
  8
002
100
AcDbLine
 10
404.6415328093585
 20
-1300.408117873359
 30
0.0
 11
402.7131700169998
 21
-1302.706250994575
 31
0.0
  0
LINE
  5
83DC
330
1E
100
AcDbEntity
  8
002
100
AcDbLine
 10
404.6415328093585
 20
-1300.408117873359
 30
0.0
 11
405.2160036703467
 21
-1300.509412585782
 31
0.0
  0
LINE
  5
83DD
330
1E
100
AcDbEntity
  8
002
100
AcDbLine
 10
403.2650594451938
 20
-1313.973256721875
 30
0.0
 11
400.5022725628873
 21
-1315.24487353112
 31
0.0
  0
LINE
  5
83DE
330
1E
100
AcDbEntity
  8
002
100
AcDbLine
 10
403.6123558005279
 20
-1312.003641215851
 30
0.0
 11
403.2650594451938
 21
-1313.973256721875
 31
0.0
  0
LINE
  5
83DF
330
1E
100
AcDbEntity
  8
002
100
AcDbLine
 10
404.7708117312072
 20
-1311.192481640505
 30
0.0
 11
411.5301953436314
 21
-1312.384343344335
 31
0.0
  0
LINE
  5
83E0
330
1E
100
AcDbEntity
  8
002
100
AcDbLine
 10
403.6123558005279
 20
-1312.003641215851
 30
0.0
 11
404.7708117312072
 21
-1311.192481640505
 31
0.0
  0
LINE
  5
83E1
330
1E
100
AcDbEntity
  8
002
100
AcDbLine
 10
409.1250250342532
 20
-1252.201226121792
 30
0.0
 11
396.5323345341644
 21
-1289.76975879182
 31
0.0
  0
LINE
  5
83E2
330
1E
100
AcDbEntity
  8
002
100
AcDbLine
 10
446.7361394480254
 20
-1101.029336921422
 30
0.0
 11
415.4753874116236
 21
-1243.067493047361
 31
0.0
  0
LINE
  5
83E3
330
1E
100
AcDbEntity
  8
002
100
AcDbLine
 10
419.5634880689071
 20
-1243.877923536778
 30
0.0
 11
450.2968668267117
 21
-1104.80818493424
 31
0.0
  0
LINE
  5
83E4
330
1E
100
AcDbEntity
  8
002
100
AcDbLine
 10
458.0717428027106
 20
-1259.219438886802
 30
0.0
 11
444.1584517537826
 21
-1304.727764980828
 31
0.0
  0
LINE
  5
83E5
330
1E
100
AcDbEntity
  8
002
100
AcDbLine
 10
434.1576125770684
 20
-1281.686371193105
 30
0.0
 11
459.1717294846262
 21
-1212.960649877408
 31
0.0
  0
LINE
  5
83E6
330
1E
100
AcDbEntity
  8
002
100
AcDbLine
 10
457.68041464524
 20
-1258.58084884779
 30
0.0
 11
451.8176512211616
 21
-1257.547085474614
 31
0.0
  0
ARC
  5
83E7
330
1E
100
AcDbEntity
  8
002
100
AcDbCircle
 10
411.426481985582
 20
-1242.079705282893
 30
0.0
 40
8.333332999999999
100
AcDbArc
 50
306.8434549999981
 51
347.5383480000127
  0
ARC
  5
83E8
330
1E
100
AcDbEntity
  8
002
100
AcDbCircle
 10
407.3383823131066
 20
-1241.269274967123
 30
0.0
 40
8.333332999999999
100
AcDbArc
 50
307.9451879999888
 51
347.5383480000127
  0
ARC
  5
83E9
330
1E
100
AcDbEntity
  8
002
100
AcDbCircle
 10
421.6605204101957
 20
-1255.237681632057
 30
0.0
 40
8.333332999999999
100
AcDbArc
 50
126.8434549999982
 51
169.9999999999948
  0
LINE
  5
83EA
330
1E
100
AcDbEntity
  8
002
100
AcDbLine
 10
431.255868914362
 20
-1256.96776831813
 30
0.0
 11
426.3318301493013
 21
-1256.099527429794
 31
0.0
  0
LINE
  5
83EB
330
1E
100
AcDbEntity
  8
002
100
AcDbLine
 10
426.3318301493013
 20
-1256.099527429794
 30
0.0
 11
425.173374218622
 21
-1256.910687005139
 31
0.0
  0
LINE
  5
83EC
330
1E
100
AcDbEntity
  8
002
100
AcDbLine
 10
432.4630205960079
 20
-1254.134341893753
 30
0.0
 11
438.3257850048935
 21
-1255.168105440577
 31
0.0
  0
LINE
  5
83ED
330
1E
100
AcDbEntity
  8
002
100
AcDbLine
 10
431.7221041644147
 20
-1257.553906983031
 30
0.0
 11
431.255868914362
 21
-1256.96776831813
 31
0.0
  0
ARC
  5
83EE
330
1E
100
AcDbEntity
  8
002
100
AcDbCircle
 10
432.376196507174
 20
-1254.62674577026
 30
0.0
 40
0.5
100
AcDbArc
 50
79.99999999999772
 51
176.9999999999944
  0
LINE
  5
83EF
330
1E
100
AcDbEntity
  8
002
100
AcDbLine
 10
451.8176512211616
 20
-1257.547085474614
 30
0.0
 11
451.2751194569668
 21
-1257.744550763881
 31
0.0
  0
LINE
  5
83F0
330
1E
100
AcDbEntity
  8
002
100
AcDbLine
 10
438.3257850048935
 20
-1255.168105440577
 30
0.0
 11
438.7680609937119
 21
-1255.539218907511
 31
0.0
  0
LINE
  5
83F1
330
1E
100
AcDbEntity
  8
002
100
AcDbLine
 10
412.466112353742
 20
-1314.580223988692
 30
0.0
 11
427.238228648926
 21
-1317.184946653696
 31
0.0
  0
LINE
  5
83F2
330
1E
100
AcDbEntity
  8
002
100
AcDbLine
 10
418.4010952896119
 20
-1295.318189372615
 30
0.0
 11
415.6884362949926
 21
-1296.30551680376
 31
0.0
  0
LINE
  5
83F3
330
1E
100
AcDbEntity
  8
002
100
AcDbLine
 10
413.4509201067544
 20
-1314.75387216636
 30
0.0
 11
412.6397605314091
 21
-1313.59541623568
 31
0.0
  0
LINE
  5
83F4
330
1E
100
AcDbEntity
  8
002
100
AcDbLine
 10
412.6397605314091
 20
-1313.59541623568
 30
0.0
 11
415.6884362949926
 21
-1296.30551680376
 31
0.0
  0
ARC
  5
83F5
330
1E
100
AcDbEntity
  8
002
100
AcDbCircle
 10
430.6882397206496
 20
-1293.572682439347
 30
0.0
 40
0.8526290000000001
100
AcDbArc
 50
176.9999999999944
 51
319.9999999999827
  0
LINE
  5
83F6
330
1E
100
AcDbEntity
  8
002
100
AcDbLine
 10
431.3413911466446
 20
-1294.120741238857
 30
0.0
 11
432.1310310735448
 21
-1293.179686030016
 31
0.0
  0
LINE
  5
83F7
330
1E
100
AcDbEntity
  8
002
100
AcDbLine
 10
445.0582475269725
 20
-1296.539393109212
 30
0.0
 11
444.6380895367997
 21
-1295.385017886386
 31
0.0
  0
ARC
  5
83F8
330
1E
100
AcDbEntity
  8
002
100
AcDbCircle
 10
445.859457236203
 20
-1296.247777417536
 30
0.0
 40
0.8526290000000001
100
AcDbArc
 50
199.9999999999895
 51
342.9999999999914
  0
LINE
  5
83F9
330
1E
100
AcDbEntity
  8
002
100
AcDbLine
 10
427.6140656607545
 20
-1312.174083799801
 30
0.0
 11
426.1412286422669
 21
-1316.991515954684
 31
0.0
  0
LINE
  5
83FA
330
1E
100
AcDbEntity
  8
002
100
AcDbLine
 10
422.806593760371
 20
-1316.403529854196
 30
0.0
 11
424.1334217268245
 21
-1317.516870254997
 31
0.0
  0
LINE
  5
83FB
330
1E
100
AcDbEntity
  8
002
100
AcDbLine
 10
442.3861819559374
 20
-1314.778806464806
 30
0.0
 11
442.1225362129466
 21
-1319.809451666396
 31
0.0
  0
LINE
  5
83FC
330
1E
100
AcDbEntity
  8
002
100
AcDbLine
 10
424.2746299360537
 20
-1316.662384240623
 30
0.0
 11
422.6470346434721
 21
-1317.254780108427
 31
0.0
  0
LINE
  5
83FD
330
1E
100
AcDbEntity
  8
002
100
AcDbLine
 10
429.3863354585996
 20
-1302.123042315824
 30
0.0
 11
427.6140656607545
 21
-1312.174083799801
 31
0.0
  0
LINE
  5
83FE
330
1E
100
AcDbEntity
  8
002
100
AcDbLine
 10
444.1584517537826
 20
-1304.727764980828
 30
0.0
 11
442.3861819559374
 21
-1314.778806464806
 31
0.0
  0
LINE
  5
83FF
330
1E
100
AcDbEntity
  8
002
100
AcDbLine
 10
431.8768817574569
 20
-1254.600578128614
 30
0.0
 11
429.3863354585996
 21
-1302.123042315824
 31
0.0
  0
LINE
  5
8400
330
1E
100
AcDbEntity
  8
002
100
AcDbLine
 10
444.9801097502418
 20
-1296.324710109519
 30
0.0
 11
451.8176512211616
 21
-1257.547085474614
 31
0.0
  0
LINE
  5
8401
330
1E
100
AcDbEntity
  8
002
100
AcDbLine
 10
431.4882435339746
 20
-1293.945730075483
 30
0.0
 11
438.3257850048935
 21
-1255.168105440577
 31
0.0
  0
LINE
  5
8402
330
1E
100
AcDbEntity
  8
002
100
AcDbLine
 10
418.4010952896119
 20
-1295.318189372615
 30
0.0
 11
425.173374218622
 21
-1256.910687005139
 31
0.0
  0
LINE
  5
8403
330
1E
100
AcDbEntity
  8
002
100
AcDbLine
 10
471.6329867878625
 20
-1264.087343602473
 30
0.0
 11
457.8456782456919
 21
-1261.656269115137
 31
0.0
  0
ARC
  5
8404
330
1E
100
AcDbEntity
  8
002
100
AcDbCircle
 10
457.593590556406
 20
-1259.073252724296
 30
0.0
 40
0.5
100
AcDbArc
 50
342.9999999999914
 51
79.99999999999772
  0
LINE
  5
8405
330
1E
100
AcDbEntity
  8
002
100
AcDbLine
 10
457.2070882066795
 20
-1262.047597272606
 30
0.0
 11
457.8456782456919
 21
-1261.656269115137
 31
0.0
  0
LINE
  5
8406
330
1E
100
AcDbEntity
  8
002
100
AcDbLine
 10
471.8653614074751
 20
-1301.065305359828
 30
0.0
 11
478.702902878394
 21
-1262.287680724922
 31
0.0
  0
LINE
  5
8407
330
1E
100
AcDbEntity
  8
002
100
AcDbLine
 10
472.8401384695084
 20
-1261.253917178098
 30
0.0
 11
478.702902878394
 21
-1262.287680724922
 31
0.0
  0
ARC
  5
8408
330
1E
100
AcDbEntity
  8
002
100
AcDbCircle
 10
471.0653575941501
 20
-1300.692257723691
 30
0.0
 40
0.8526290000000001
100
AcDbArc
 50
176.9999999999944
 51
319.9999999999827
  0
LINE
  5
8409
330
1E
100
AcDbEntity
  8
002
100
AcDbLine
 10
471.7185090201451
 20
-1301.2403165232
 30
0.0
 11
472.5081489470453
 21
-1300.299261314359
 31
0.0
  0
ARC
  5
840A
330
1E
100
AcDbEntity
  8
002
100
AcDbCircle
 10
472.7533143806745
 20
-1261.746321054604
 30
0.0
 40
0.5
100
AcDbArc
 50
79.99999999999772
 51
176.9999999999944
  0
LINE
  5
840B
330
1E
100
AcDbEntity
  8
002
100
AcDbLine
 10
472.0992220379153
 20
-1264.673482267374
 30
0.0
 11
471.6329867878625
 21
-1264.087343602473
 31
0.0
  0
LINE
  5
840C
330
1E
100
AcDbEntity
  8
002
100
AcDbLine
 10
485.3572276237423
 20
-1303.444285393865
 30
0.0
 11
492.1947690946621
 21
-1264.666660758959
 31
0.0
  0
ARC
  5
840D
330
1E
100
AcDbEntity
  8
002
100
AcDbCircle
 10
486.2365751097036
 20
-1303.36735270188
 30
0.0
 40
0.8526290000000001
100
AcDbArc
 50
199.9999999999895
 51
342.9999999999914
  0
LINE
  5
840E
330
1E
100
AcDbEntity
  8
002
100
AcDbLine
 10
485.435365400473
 20
-1303.658968393555
 30
0.0
 11
485.0152074103002
 21
-1302.504593170729
 31
0.0
  0
LINE
  5
840F
330
1E
100
AcDbEntity
  8
002
100
AcDbLine
 10
478.702902878394
 20
-1262.287680724922
 30
0.0
 11
479.1451788672125
 21
-1262.658794191856
 31
0.0
  0
LINE
  5
8410
330
1E
100
AcDbEntity
  8
002
100
AcDbLine
 10
492.1947690946621
 20
-1264.666660758959
 30
0.0
 11
491.6522373304673
 21
-1264.864126048226
 31
0.0
  0
LINE
  5
8411
330
1E
100
AcDbEntity
  8
002
100
AcDbLine
 10
469.7634533321002
 20
-1309.242617600167
 30
0.0
 11
467.991183534255
 21
-1319.293659084147
 31
0.0
  0
LINE
  5
8412
330
1E
100
AcDbEntity
  8
002
100
AcDbLine
 10
484.5355696272831
 20
-1311.847340265172
 30
0.0
 11
482.7632998294379
 21
-1321.898381749151
 31
0.0
  0
LINE
  5
8413
330
1E
100
AcDbEntity
  8
002
100
AcDbLine
 10
472.2539996309574
 20
-1261.720153412957
 30
0.0
 11
469.7634533321002
 21
-1309.242617600167
 31
0.0
  0
LINE
  5
8414
330
1E
100
AcDbEntity
  8
002
100
AcDbLine
 10
459.1350256684304
 20
-1140.032422426981
 30
0.0
 11
471.6420841316862
 21
-1142.237754283351
 31
0.0
  0
LINE
  5
8415
330
1E
100
AcDbEntity
  8
002
100
AcDbLine
 10
491.0706440108392
 20
-1094.924995179074
 30
0.0
 11
490.4541356003233
 21
-1099.050147956934
 31
0.0
  0
LINE
  5
8416
330
1E
100
AcDbEntity
  8
002
100
AcDbLine
 10
491.7422393991778
 20
-1095.029733707989
 30
0.0
 11
491.1257576115099
 21
-1099.154712465092
 31
0.0
  0
LINE
  5
8417
330
1E
100
AcDbEntity
  8
002
100
AcDbLine
 10
508.3746157983746
 20
-1318.699059196394
 30
0.0
 11
502.714019305527
 21
-1350.801897174474
 31
0.0
  0
LINE
  5
8418
330
1E
100
AcDbEntity
  8
002
100
AcDbLine
 10
496.3484195374471
 20
-1328.35551133737
 30
0.0
 11
499.3970953010307
 21
-1311.065611905448
 31
0.0
  0
LINE
  5
8419
330
1E
100
AcDbEntity
  8
002
100
AcDbLine
 10
512.6873765540135
 20
-1350.868091120675
 30
0.0
 11
519.6333036606906
 21
-1311.475781000186
 31
0.0
  0
LINE
  5
841A
330
1E
100
AcDbEntity
  8
002
100
AcDbLine
 10
509.4006762650528
 20
-1321.518136850608
 30
0.0
 11
504.191230935045
 21
-1351.062369440974
 31
0.0
  0
LINE
  5
841B
330
1E
100
AcDbEntity
  8
003
 62
     3
100
AcDbLine
 10
809.507757092731
 20
-1422.149267536802
 30
0.0
 11
809.507757092731
 21
-1195.128733872265
 31
0.0
  0
DIMENSION
  5
841C
330
1E
100
AcDbEntity
  8
001
100
AcDbDimension
  2
*D9
 10
670.2671277319013
 20
-1404.716269576871
 30
0.0
 11
666.8921757452973
 21
-1348.272710829321
 31
0.0
 70
    33
 71
     5
 42
109.9999999999995
  3
ISO-25
100
AcDbAlignedDimension
 13
584.3648924449914
 23
-1277.87246048519
 33
0.0
 14
565.2635929016291
 24
-1386.201313316533
 34
0.0
  0
LINE
  5
841E
330
1E
100
AcDbEntity
  8
003
100
AcDbLine
 10
1064.341846969807
 20
-1423.690177382063
 30
0.0
 11
1064.341846969807
 21
-1195.099046437156
 31
0.0
  0
CIRCLE
  5
841F
330
1E
100
AcDbEntity
  8
002
100
AcDbCircle
 10
836.7833067275618
 20
-2045.717327650278
 30
0.0
 40
50.5
  0
CIRCLE
  5
8420
330
1E
100
AcDbEntity
  8
002
100
AcDbCircle
 10
836.7833067275618
 20
-2045.717327650278
 30
0.0
 40
51.5
  0
CIRCLE
  5
8421
330
1E
100
AcDbEntity
  8
002
100
AcDbCircle
 10
836.7833067275618
 20
-2045.717327650278
 30
0.0
 40
53.0
  0
CIRCLE
  5
8422
330
1E
100
AcDbEntity
  8
002
100
AcDbCircle
 10
836.7833067275618
 20
-2045.717327650278
 30
0.0
 40
49.5
  0
CIRCLE
  5
8423
330
1E
100
AcDbEntity
  8
002
100
AcDbCircle
 10
836.7833067275618
 20
-2045.717327650278
 30
0.0
 40
43.803009
  0
CIRCLE
  5
8424
330
1E
100
AcDbEntity
  8
002
100
AcDbCircle
 10
836.7833067275618
 20
-2045.717327650278
 30
0.0
 40
42.5
  0
CIRCLE
  5
8425
330
1E
100
AcDbEntity
  8
002
100
AcDbCircle
 10
836.7833067275618
 20
-2045.717327650278
 30
0.0
 40
31.990683
  0
CIRCLE
  5
8426
330
1E
100
AcDbEntity
  8
002
100
AcDbCircle
 10
836.7833067275618
 20
-2045.717327650278
 30
0.0
 40
30.490683
  0
LINE
  5
8427
330
1E
100
AcDbEntity
  8
004
  6
CENTER
 62
     6
100
AcDbLine
 10
897.0437397275619
 20
-2045.717327650278
 30
0.0
 11
775.7309847275619
 21
-2045.717327650278
 31
0.0
  0
TEXT
  5
8428
330
1E
100
AcDbEntity
  8
001
100
AcDbText
 10
713.4698177275618
 20
-1950.574470650278
 30
0.0
 40
16.0
  1
両ネジジョイントプレート
 41
0.703125
100
AcDbText
  0
LINE
  5
8429
330
1E
100
AcDbEntity
  8
001
100
AcDbLine
 10
713.4698177275618
 20
-1950.574470650278
 30
0.0
 11
875.9698177275618
 21
-1950.574470650278
 31
0.0
  0
LINE
  5
842A
330
1E
100
AcDbEntity
  8
003
 62
     3
100
AcDbLine
 10
809.507757092731
 20
-1422.149267536802
 30
0.0
 11
829.2316400927306
 21
-1422.149267536802
 31
0.0
  0
LINE
  5
842B
330
1E
100
AcDbEntity
  8
003
 62
     3
100
AcDbLine
 10
829.2316400927306
 20
-1422.149267536802
 30
0.0
 11
791.1073590927312
 21
-1468.751304536802
 31
0.0
  0
ARC
  5
842C
330
1E
100
AcDbEntity
  8
002
100
AcDbCircle
 10
595.8717550164415
 20
-2045.717327650278
 30
0.0
 40
60.83333299999999
100
AcDbArc
 50
270.0
 51
90.0
  0
ARC
  5
842D
330
1E
100
AcDbEntity
  8
002
100
AcDbCircle
 10
595.8717550164415
 20
-2045.717327650278
 30
0.0
 40
62.5
100
AcDbArc
 50
270.0
 51
90.0
  0
LINE
  5
842E
330
1E
100
AcDbEntity
  8
004
  6
CENTER
 62
     6
100
AcDbLine
 10
584.7326620164417
 20
-2045.717327650278
 30
0.0
 11
666.9242800164416
 21
-2045.717327650278
 31
0.0
  0
LINE
  5
842F
330
1E
100
AcDbEntity
  8
001
  6
Continuous
100
AcDbLine
 10
501.8283550657647
 20
-2003.550660650278
 30
0.0
 11
501.8283550657647
 21
-2085.550660650278
 31
0.0
  0
ARC
  5
8430
330
1E
100
AcDbEntity
  8
002
100
AcDbCircle
 10
595.8717550164415
 20
-2045.717327650278
 30
0.0
 40
52.083333
100
AcDbArc
 50
270.0
 51
90.0
  0
ARC
  5
8431
330
1E
100
AcDbEntity
  8
002
100
AcDbCircle
 10
595.8717550164415
 20
-2045.717327650278
 30
0.0
 40
52.666667
100
AcDbArc
 50
270.0
 51
90.0
  0
ARC
  5
8432
330
1E
100
AcDbEntity
  8
002
100
AcDbCircle
 10
595.8717550164415
 20
-2045.717327650278
 30
0.0
 40
54.166667
100
AcDbArc
 50
270.0
 51
90.0
  0
LINE
  5
8433
330
1E
100
AcDbEntity
  8
004
  6
CENTER
 62
     6
100
AcDbLine
 10
595.8717550164415
 20
-1975.210017650278
 30
0.0
 11
595.8717550164415
 21
-2115.640858650278
 31
0.0
  0
ARC
  5
8434
330
1E
100
AcDbEntity
  8
001
 62
     3
100
AcDbCircle
 10
595.8717550164415
 20
-2045.717327650278
 30
0.0
 40
3.480626999999999
100
AcDbArc
 50
270.0
 51
90.0
  0
ARC
  5
8435
330
1E
100
AcDbEntity
  8
001
 62
     3
100
AcDbCircle
 10
595.8717550164415
 20
-2045.717327650278
 30
0.0
 40
3.980626999999999
100
AcDbArc
 50
270.0
 51
90.0
  0
INSERT
  5
8436
330
1E
100
AcDbEntity
  8
001
  6
Continuous
100
AcDbBlockReference
  2
_Open30
 10
501.8283550657647
 20
-1991.550660650278
 30
0.0
 41
12.0
 42
12.0
 43
12.0
 50
90.0
  0
LINE
  5
8437
330
1E
100
AcDbEntity
  8
003
100
AcDbLine
 10
524.1063017542514
 20
-1401.283557895863
 30
0.0
 11
495.378869915306
 21
-1564.204919808379
 31
0.0
  0
LINE
  5
8438
330
1E
100
AcDbEntity
  8
002
100
AcDbLine
 10
510.2000221087041
 20
-1376.492120131588
 30
0.0
 11
547.9499407648768
 21
-1383.148449310222
 31
0.0
  0
LINE
  5
8439
330
1E
100
AcDbEntity
  8
002
100
AcDbLine
 10
511.0863490864153
 20
-1376.64840349149
 30
0.0
 11
547.9499397800691
 21
-1383.148449136574
 31
0.0
  0
LINE
  5
843A
330
1E
100
AcDbEntity
  8
002
100
AcDbLine
 10
510.2000221087041
 20
-1376.492120131589
 30
0.0
 11
547.9499407648768
 21
-1383.148449310223
 31
0.0
  0
LINE
  5
843B
330
1E
100
AcDbEntity
  8
002
100
AcDbLine
 10
502.714019305527
 20
-1350.801897174474
 30
0.0
 11
504.3416147717575
 21
-1350.209500321865
 31
0.0
  0
LINE
  5
843C
330
1E
100
AcDbEntity
  8
002
100
AcDbLine
 10
497.8052810805588
 20
-1327.596968722691
 30
0.0
 11
504.5646637081749
 21
-1328.788830252873
 31
0.0
  0
LINE
  5
843D
330
1E
100
AcDbEntity
  8
002
100
AcDbLine
 10
496.1747713597801
 20
-1329.340319090382
 30
0.0
 11
497.8052810805588
 21
-1327.596968722691
 31
0.0
  0
LINE
  5
843E
330
1E
100
AcDbEntity
  8
002
100
AcDbLine
 10
496.3484195374471
 20
-1328.35551133737
 30
0.0
 11
495.1899636067678
 21
-1329.166670912714
 31
0.0
  0
LINE
  5
843F
330
1E
100
AcDbEntity
  8
002
100
AcDbLine
 10
502.8644031422386
 20
-1349.949028055365
 30
0.0
 11
504.191230935045
 21
-1351.062369440974
 31
0.0
  0
LINE
  5
8440
330
1E
100
AcDbEntity
  8
002
100
AcDbLine
 10
512.6873765540135
 20
-1350.868091120675
 30
0.0
 11
510.7566162833959
 21
-1352.220024016638
 31
0.0
  0
LINE
  5
8441
330
1E
100
AcDbEntity
  8
002
100
AcDbLine
 10
505.0285269281862
 20
-1331.916901689575
 30
0.0
 11
507.1897788109404
 21
-1334.056759387156
 31
0.0
  0
LINE
  5
8442
330
1E
100
AcDbEntity
  8
002
100
AcDbLine
 10
505.3758232835202
 20
-1329.947286183552
 30
0.0
 11
504.5646637081749
 21
-1328.788830252873
 31
0.0
  0
LINE
  5
8443
330
1E
100
AcDbEntity
  8
002
100
AcDbLine
 10
505.3758232835202
 20
-1329.947286183552
 30
0.0
 11
505.0285269281862
 21
-1331.916901689575
 31
0.0
  0
LINE
  5
8444
330
1E
100
AcDbEntity
  8
002
100
AcDbLine
 10
551.7902729871743
 20
-1359.455364810642
 30
0.0
 11
547.6227167231682
 21
-1383.090750882933
 31
0.0
  0
LINE
  5
8445
330
1E
100
AcDbEntity
  8
003
 62
     3
100
AcDbLine
 10
809.507757092731
 20
-1468.751304536802
 30
0.0
 11
809.507757092731
 21
-1607.788079907889
 31
0.0
  0
LINE
  5
8446
330
1E
100
AcDbEntity
  8
003
 62
     3
100
AcDbLine
 10
791.1073590927312
 20
-1468.751304536802
 30
0.0
 11
809.507757092731
 21
-1468.751304536802
 31
0.0
  0
DIMENSION
  5
8447
330
1E
100
AcDbEntity
  8
001
  6
Continuous
100
AcDbDimension
  2
*D10
 10
999.3983897275615
 20
-1965.870029949939
 30
0.0
 11
1059.898389727561
 21
-1965.870029949939
 31
0.0
 70
   160
 71
     5
 42
20.0
  3
ISO-25
100
AcDbAlignedDimension
 13
1019.398389727561
 23
-1994.217327650278
 33
0.0
 14
999.3983897275615
 24
-1994.217327650278
 34
0.0
100
AcDbRotatedDimension
  0
DIMENSION
  5
8448
330
1E
100
AcDbEntity
  8
001
  6
Continuous
100
AcDbDimension
  2
*D11
 10
962.437666004685
 20
-2098.717327650278
 30
0.0
 11
949.3126660046854
 21
-2045.717327650278
 31
0.0
 70
    32
  1
M106
 71
     5
 42
106.0000000000002
  3
ISO-25
100
AcDbAlignedDimension
 13
1002.130439727561
 23
-1992.717327650278
 33
0.0
 14
1002.130439727561
 24
-2098.717327650278
 34
0.0
 50
90.0
100
AcDbRotatedDimension
  0
LINE
  5
8449
330
1E
100
AcDbEntity
  8
004
  6
CENTER
 62
     6
100
AcDbLine
 10
836.7833067275618
 20
-1987.882059650278
 30
0.0
 11
836.7833067275618
 21
-2105.733520650278
 31
0.0
  0
LINE
  5
844A
330
1E
100
AcDbEntity
  8
002
100
AcDbLine
 10
999.3983897275615
 20
-2045.717327650278
 30
0.0
 11
999.3983897275615
 21
-2003.217327650278
 31
0.0
  0
LINE
  5
844B
330
1E
100
AcDbEntity
  8
002
100
AcDbLine
 10
1007.083804727561
 20
-2013.726644650278
 30
0.0
 11
1019.398389727561
 21
-2001.412059650278
 31
0.0
  0
LINE
  5
844C
330
1E
100
AcDbEntity
  8
002
100
AcDbLine
 10
999.3983897275615
 20
-2011.512564650278
 30
0.0
 11
1016.693626727561
 21
-1994.217327650278
 31
0.0
  0
LINE
  5
844D
330
1E
100
AcDbEntity
  8
002
100
AcDbLine
 10
997.3983897275616
 20
-2095.217327650277
 30
0.0
 11
997.3983897275616
 21
-1996.217327650278
 31
0.0
  0
LINE
  5
844E
330
1E
100
AcDbEntity
  8
002
100
AcDbLine
 10
1019.398389727561
 20
-2097.226644650278
 30
0.0
 11
1019.398389727561
 21
-1994.217327650278
 31
0.0
  0
INSERT
  5
844F
330
1E
100
AcDbEntity
  8
001
  6
ByBlock
100
AcDbBlockReference
  2
PART0
 10
-235.1320958552
 20
-2600.663697758224
 30
0.0
  0
LINE
  5
8450
330
1E
100
AcDbEntity
  8
004
  6
CENTER
 62
     6
100
AcDbLine
 10
987.2295007275621
 20
-2045.717327650278
 30
0.0
 11
1033.274835727561
 21
-2045.717327650278
 31
0.0
  0
LINE
  5
8451
330
1E
100
AcDbEntity
  8
002
100
AcDbLine
 10
1000.264414727561
 20
-2015.226644650278
 30
0.0
 11
1018.532363727562
 21
-2015.226644650278
 31
0.0
  0
LINE
  5
8452
330
1E
100
AcDbEntity
  8
002
100
AcDbLine
 10
999.3983897275615
 20
-2013.726644650278
 30
0.0
 11
1019.398389727561
 21
-2013.726644650278
 31
0.0
  0
LINE
  5
8453
330
1E
100
AcDbEntity
  8
002
100
AcDbLine
 10
1000.264414727561
 20
-2015.226644650278
 30
0.0
 11
1000.264414727561
 21
-2027.469358650278
 31
0.0
  0
LINE
  5
8454
330
1E
100
AcDbEntity
  8
002
100
AcDbLine
 10
999.3983897275615
 20
-2013.726644650278
 30
0.0
 11
1000.264414727561
 21
-2015.226644650278
 31
0.0
  0
LINE
  5
8455
330
1E
100
AcDbEntity
  8
002
100
AcDbLine
 10
1018.532363727562
 20
-2015.226644650278
 30
0.0
 11
1018.532363727562
 21
-2027.469358650278
 31
0.0
  0
LINE
  5
8456
330
1E
100
AcDbEntity
  8
002
100
AcDbLine
 10
1019.398389727561
 20
-2013.726644650278
 30
0.0
 11
1018.532363727562
 21
-2015.226644650278
 31
0.0
  0
LINE
  5
8457
330
1E
100
AcDbEntity
  8
002
100
AcDbLine
 10
1016.983299727562
 20
-2013.726644650278
 30
0.0
 11
1019.398389727561
 21
-2011.311554650278
 31
0.0
  0
LINE
  5
8458
330
1E
100
AcDbEntity
  8
002
100
AcDbLine
 10
1002.130439727561
 20
-2098.717327650278
 30
0.0
 11
1018.537742727562
 21
-2098.717327650278
 31
0.0
  0
LINE
  5
8459
330
1E
100
AcDbEntity
  8
002
100
AcDbLine
 10
1001.091209727561
 20
-2097.217327650278
 30
0.0
 11
1019.398389727561
 21
-2097.217327650278
 31
0.0
  0
LINE
  5
845A
330
1E
100
AcDbEntity
  8
002
100
AcDbLine
 10
1002.130439727561
 20
-2098.717327650278
 30
0.0
 11
1002.130439727561
 21
-2071.732929650277
 31
0.0
  0
LINE
  5
845B
330
1E
100
AcDbEntity
  8
002
100
AcDbLine
 10
998.3983897275615
 20
-2096.217327650278
 30
0.0
 11
997.3983897275616
 21
-2095.217327650277
 31
0.0
  0
LINE
  5
845C
330
1E
100
AcDbEntity
  8
002
100
AcDbLine
 10
998.3983897275615
 20
-2096.217327650278
 30
0.0
 11
1000.398389727561
 21
-2096.217327650278
 31
0.0
  0
LINE
  5
845D
330
1E
100
AcDbEntity
  8
002
100
AcDbLine
 10
1000.398389727561
 20
-2096.217327650278
 30
0.0
 11
1002.130439727561
 21
-2098.717327650278
 31
0.0
  0
LINE
  5
845E
330
1E
100
AcDbEntity
  8
002
100
AcDbLine
 10
1018.537742727562
 20
-2098.717327650278
 30
0.0
 11
1018.537742727562
 21
-2071.732929650277
 31
0.0
  0
LINE
  5
845F
330
1E
100
AcDbEntity
  8
002
100
AcDbLine
 10
1019.398389727561
 20
-2097.226644650278
 30
0.0
 11
1018.532363727562
 21
-2098.726644650278
 31
0.0
  0
LINE
  5
8460
330
1E
100
AcDbEntity
  8
002
100
AcDbLine
 10
998.3983897275615
 20
-2096.217327650278
 30
0.0
 11
998.3983897275615
 21
-2045.717327650278
 31
0.0
  0
LINE
  5
8461
330
1E
100
AcDbEntity
  8
002
100
AcDbLine
 10
1000.398389727561
 20
-2096.217327650278
 30
0.0
 11
1000.398389727561
 21
-2045.717327650278
 31
0.0
  0
LINE
  5
8462
330
1E
100
AcDbEntity
  8
002
100
AcDbLine
 10
1002.130439727561
 20
-1992.717327650278
 30
0.0
 11
1018.532363727562
 21
-1992.717327650278
 31
0.0
  0
LINE
  5
8463
330
1E
100
AcDbEntity
  8
002
100
AcDbLine
 10
1001.091209727561
 20
-1994.217327650278
 30
0.0
 11
1019.398389727561
 21
-1994.217327650278
 31
0.0
  0
LINE
  5
8464
330
1E
100
AcDbEntity
  8
002
100
AcDbLine
 10
1000.398389727561
 20
-1995.217327650277
 30
0.0
 11
1002.130439727561
 21
-1992.717327650278
 31
0.0
  0
LINE
  5
8465
330
1E
100
AcDbEntity
  8
002
100
AcDbLine
 10
998.3983897275615
 20
-1995.217327650277
 30
0.0
 11
1000.398389727561
 21
-1995.217327650277
 31
0.0
  0
LINE
  5
8466
330
1E
100
AcDbEntity
  8
002
100
AcDbLine
 10
1019.398389727561
 20
-1994.217327650278
 30
0.0
 11
1018.532363727562
 21
-1992.717327650278
 31
0.0
  0
LINE
  5
8467
330
1E
100
AcDbEntity
  8
002
100
AcDbLine
 10
999.3983897275615
 20
-2003.217327650278
 30
0.0
 11
997.3983897275616
 21
-2001.914318650278
 31
0.0
  0
LINE
  5
8468
330
1E
100
AcDbEntity
  8
002
100
AcDbLine
 10
998.4269977275616
 20
-2002.584461650278
 30
0.0
 11
1006.794131727561
 21
-1994.217327650278
 31
0.0
  0
LINE
  5
8469
330
1E
100
AcDbEntity
  8
002
100
AcDbLine
 10
998.3983897275615
 20
-1995.217327650277
 30
0.0
 11
997.3983897275616
 21
-1996.217327650278
 31
0.0
  0
LINE
  5
846A
330
1E
100
AcDbEntity
  8
003
100
AcDbLine
 10
1064.341846969807
 20
-1470.292214382063
 30
0.0
 11
1064.341846969807
 21
-1607.788079907888
 31
0.0
  0
LINE
  5
846B
330
1E
100
AcDbEntity
  8
003
100
AcDbLine
 10
1084.065729969807
 20
-1423.690177382063
 30
0.0
 11
1045.941448969807
 21
-1470.292214382063
 31
0.0
  0
LINE
  5
846C
330
1E
100
AcDbEntity
  8
003
100
AcDbLine
 10
1045.941448969807
 20
-1470.292214382063
 30
0.0
 11
1064.341846969807
 21
-1470.292214382063
 31
0.0
  0
LINE
  5
846D
330
1E
100
AcDbEntity
  8
003
100
AcDbLine
 10
1064.341846969807
 20
-1423.690177382063
 30
0.0
 11
1084.065729969807
 21
-1423.690177382063
 31
0.0
  0
LWPOLYLINE
  5
846E
330
1E
100
AcDbEntity
  8
003
100
AcDbPolyline
 90
        3
 70
     0
 43
0.0
 10
677.6122135316336
 20
-1214.09135980838
 10
643.0466171249766
 20
-1288.219631820777
 10
526.6307991816965
 20
-1267.692382136133
  0
LINE
  5
846F
330
1E
100
AcDbEntity
  8
003
100
AcDbLine
 10
684.6253093188038
 20
-1214.09135980838
 30
0.0
 11
532.5196641065012
 21
-1214.09135980838
 31
0.0
  0
LINE
  5
8470
330
1E
100
AcDbEntity
  8
003
100
AcDbLine
 10
735.9810808845536
 20
-1214.09135980838
 30
0.0
 11
579.9228827181973
 21
-1214.09135980838
 31
0.0
  0
LINE
  5
8471
330
1E
100
AcDbEntity
  8
002
100
AcDbLine
 10
517.80577129533
 20
-1261.111100672312
 30
0.0
 11
536.5024080526141
 21
-1119.826825977052
 31
0.0
  0
LINE
  5
8472
330
1E
100
AcDbEntity
  8
002
100
AcDbLine
 10
513.6870307073126
 20
-1260.474443623792
 30
0.0
 11
532.3717524210801
 21
-1119.280201703089
 31
0.0
  0
LINE
  5
8473
330
1E
100
AcDbEntity
  8
002
100
AcDbLine
 10
503.1468348842532
 20
-1269.644085287816
 30
0.0
 11
498.2227961191925
 21
-1268.77584439948
 31
0.0
  0
LINE
  5
8474
330
1E
100
AcDbEntity
  8
002
100
AcDbLine
 10
503.9579944595984
 20
-1270.802541218495
 30
0.0
 11
497.1857155305883
 21
-1309.210043585971
 31
0.0
  0
LINE
  5
8475
330
1E
100
AcDbEntity
  8
002
100
AcDbLine
 10
497.5842060801801
 20
-1269.167172556951
 30
0.0
 11
498.2227961191925
 21
-1268.77584439948
 31
0.0
  0
ARC
  5
8476
330
1E
100
AcDbEntity
  8
002
100
AcDbCircle
 10
497.9707084299065
 20
-1266.19282800864
 30
0.0
 40
0.5
100
AcDbArc
 50
342.9999999999914
 51
79.99999999999772
  0
LINE
  5
8477
330
1E
100
AcDbEntity
  8
002
100
AcDbLine
 10
497.1857155305883
 20
-1309.210043585971
 30
0.0
 11
499.3970953010307
 21
-1311.065611905448
 31
0.0
  0
LINE
  5
8478
330
1E
100
AcDbEntity
  8
002
100
AcDbLine
 10
520.2540179956099
 20
-1287.275047391021
 30
0.0
 11
513.5159362609906
 21
-1286.268034995805
 31
0.0
  0
LINE
  5
8479
330
1E
100
AcDbEntity
  8
002
100
AcDbLine
 10
520.2669408260949
 20
-1286.77120390226
 30
0.0
 11
513.5880305802625
 21
-1285.773033863506
 31
0.0
  0
LINE
  5
847A
330
1E
100
AcDbEntity
  8
002
100
AcDbLine
 10
520.0922448887554
 20
-1293.582331605428
 30
0.0
 11
512.4839806761015
 21
-1292.034412012924
 31
0.0
  0
LINE
  5
847B
330
1E
100
AcDbEntity
  8
002
100
AcDbLine
 10
520.0792203102095
 20
-1294.090149810697
 30
0.0
 11
512.3970885171825
 21
-1292.527201934069
 31
0.0
  0
LINE
  5
847C
330
1E
100
AcDbEntity
  8
002
  6
CENTER
100
AcDbLine
 10
509.2875975593837
 20
-1288.496833137569
 30
0.0
 11
523.1029012315489
 21
-1290.932843921652
 31
0.0
  0
LINE
  5
847D
330
1E
100
AcDbEntity
  8
002
100
AcDbLine
 10
519.0042422845285
 20
-1266.627101421337
 30
0.0
 11
519.3814862450994
 21
-1267.229533443703
 31
0.0
  0
LINE
  5
847E
330
1E
100
AcDbEntity
  8
002
100
AcDbLine
 10
503.1468348842532
 20
-1269.644085287816
 30
0.0
 11
503.9579944595984
 21
-1270.802541218495
 31
0.0
  0
ARC
  5
847F
330
1E
100
AcDbEntity
  8
002
100
AcDbCircle
 10
507.8311987987631
 20
-1270.431897177913
 30
0.0
 40
8.333332999999999
100
AcDbArc
 50
349.9999999999948
 51
33.15654500000699
  0
ARC
  5
8480
330
1E
100
AcDbEntity
  8
002
100
AcDbCircle
 10
521.9483411592196
 20
-1261.567691013267
 30
0.0
 40
8.333332999999999
100
AcDbArc
 50
172.4616519999925
 51
213.1565450000069
  0
ARC
  5
8481
330
1E
100
AcDbEntity
  8
002
100
AcDbCircle
 10
526.0670817472377
 20
-1262.204348061787
 30
0.0
 40
8.333332999999999
100
AcDbArc
 50
172.4616519999925
 51
212.0548120000108
  0
ARC
  5
8482
330
1E
100
AcDbEntity
  8
002
100
AcDbCircle
 10
512.318645797583
 20
-1271.652286629606
 30
0.0
 40
8.333332999999999
100
AcDbArc
 50
358.5307659999837
 51
32.05481199997838
  0
LINE
  5
8483
330
1E
100
AcDbEntity
  8
002
100
AcDbLine
 10
508.3746157983746
 20
-1318.699059196394
 30
0.0
 11
507.8001449373873
 21
-1318.597764483971
 31
0.0
  0
LINE
  5
8484
330
1E
100
AcDbEntity
  8
002
100
AcDbLine
 10
508.3746157983746
 20
-1318.699059196394
 30
0.0
 11
509.4006762650528
 21
-1321.518136850608
 31
0.0
  0
LINE
  5
8485
330
1E
100
AcDbEntity
  8
002
100
AcDbLine
 10
516.0379297455952
 20
-1271.878965267254
 30
0.0
 11
507.8001449373873
 21
-1318.597764483971
 31
0.0
  0
LINE
  5
8486
330
1E
100
AcDbEntity
  8
002
100
AcDbLine
 10
520.649240250254
 20
-1271.865954266711
 30
0.0
 11
519.6333036606906
 21
-1311.475781000186
 31
0.0
  0
LINE
  5
8487
330
1E
100
AcDbEntity
  8
002
100
AcDbLine
 10
497.4335710313657
 20
-1096.06535346556
 30
0.0
 11
496.6056279158533
 21
-1100.134822023784
 31
0.0
  0
LINE
  5
8488
330
1E
100
AcDbEntity
  8
002
100
AcDbLine
 10
496.7674171045814
 20
-1095.93033075171
 30
0.0
 11
495.9387474847257
 21
-1100.003372437618
 31
0.0
  0
LINE
  5
8489
330
1E
100
AcDbEntity
  8
002
100
AcDbLine
 10
494.7453116148121
 20
-1174.186044956769
 30
0.0
 11
504.2789754757636
 21
-1147.992518793763
 31
0.0
  0
LINE
  5
848A
330
1E
100
AcDbEntity
  8
002
100
AcDbLine
 10
499.5121435419309
 20
-1147.151997711326
 30
0.0
 11
512.0192020051868
 21
-1149.357329567697
 31
0.0
  0
LINE
  5
848B
330
1E
100
AcDbEntity
  8
003
 48
0.25
100
AcDbLine
 10
809.507757092731
 20
-1229.384908459681
 30
0.0
 11
735.9810808845536
 21
-1214.09135980838
 31
0.0
  0
LINE
  5
848C
330
1E
100
AcDbEntity
  8
003
 48
0.25
100
AcDbLine
 10
1064.341846969807
 20
-1229.355221024572
 30
0.0
 11
1137.725795124581
 21
-1214.09135980838
 31
0.0
  0
LINE
  5
848D
330
1E
100
AcDbEntity
  8
001
 62
     3
100
AcDbLine
 10
1926.236585227538
 20
-2172.703257552221
 30
0.0
 11
1541.236585227538
 21
-2172.703257552221
 31
0.0
  0
TEXT
  5
848E
330
1E
100
AcDbEntity
  8
001
100
AcDbText
 10
1611.315943227538
 20
-2228.222166552221
 30
0.0
 40
22.0
  1
ＰＵＣ受圧板　アンカー頭部図面
 41
0.681818
100
AcDbText
  0
LWPOLYLINE
  5
848F
330
1E
100
AcDbEntity
  8
003
100
AcDbPolyline
 90
       64
 70
     0
 43
0.0
 10
1809.38257481855
 20
-1564.204919808379
 10
1502.847223771102
 20
-1564.204919808379
 10
1504.730137124581
 20
-1566.40011234931
 10
1505.779947124581
 20
-1568.76270434931
 10
1505.333974124581
 20
-1570.92585134931
 10
1503.926680124581
 20
-1573.12238034931
 10
1502.140135124581
 20
-1575.34390634931
 10
1500.556412124581
 20
-1577.58204434931
 10
1499.757579124581
 20
-1579.82840734931
 10
1500.099135124581
 20
-1581.96995634931
 10
1501.224929124581
 20
-1584.121159349311
 10
1502.680091124581
 20
-1586.29181334931
 10
1504.009749124581
 20
-1588.49171734931
 10
1504.759029124581
 20
-1590.73067034931
 10
1504.427158124581
 20
-1593.63658834931
 10
1503.102480124581
 20
-1596.57858934931
 10
1501.463343124581
 20
-1599.51390634931
 10
1500.188093124582
 20
-1602.39977034931
 10
1499.955078124581
 20
-1605.193414349311
 10
1500.852388124581
 20
-1607.361564349311
 10
1502.399125124581
 20
-1609.47338734931
 10
1504.123054124582
 20
-1611.56055234931
 10
1505.551937124581
 20
-1613.65473234931
 10
1506.213540124582
 20
-1615.78760034931
 10
1505.639585124581
 20
-1618.32400634931
 10
1504.087868124581
 20
-1620.91833434931
 10
1502.230907124581
 20
-1623.53483334931
 10
1500.741217124581
 20
-1626.13774934931
 10
1500.291316124581
 20
-1628.691332349311
 10
1501.084758124581
 20
-1630.81888534931
 10
1502.617218124581
 20
-1632.90630834931
 10
1504.372489124581
 20
-1634.97584434931
 10
1505.834359124581
 20
-1637.04973634931
 10
1506.486620124581
 20
-1639.15022834931
 10
1505.869240124581
 20
-1641.51724434931
 10
1504.281123124581
 20
-1643.913921349311
 10
1502.368031124581
 20
-1646.31036734931
 10
1500.775721124581
 20
-1648.67669134931
 10
1500.149954124581
 20
-1650.98300234931
 10
1500.762012124581
 20
-1652.94620034931
 10
1502.171176124581
 20
-1654.87471434931
 10
1503.928797124581
 20
-1656.803325349311
 10
1505.586225124581
 20
-1658.76681334931
 10
1506.694812124582
 20
-1660.79996134931
 10
1506.552630124581
 20
-1664.61429634931
 10
1504.527745124581
 20
-1668.61587634931
 10
1501.851633124581
 20
-1672.66588334931
 10
1499.755773124581
 20
-1676.62549934931
 10
1499.471645124581
 20
-1680.35590634931
 10
1500.639553124581
 20
-1682.53704934931
 10
1502.511029124581
 20
-1684.62454934931
 10
1504.585564124581
 20
-1686.67037534931
 10
1506.362647124581
 20
-1688.72649634931
 10
1507.341771124581
 20
-1690.84488334931
 10
1506.942427124581
 20
-1693.70262834931
 10
1505.225118124581
 20
-1696.69941134931
 10
1502.997277124581
 20
-1699.78728634931
 10
1501.066334124581
 20
-1702.91830634931
 10
1500.239722124581
 20
-1706.04452634931
 10
1500.829982124581
 20
-1708.64232334931
 10
1502.280885124581
 20
-1711.20963534931
 10
1504.099225124581
 20
-1713.75333334931
 10
1505.791794124581
 20
-1716.28028434931
 10
1506.865387124581
 20
-1718.79736034931
  0
LINE
  5
8490
330
1E
100
AcDbEntity
  8
003
 48
0.25
100
AcDbLine
 10
1811.252471332758
 20
-1229.384908459681
 30
0.0
 11
1737.725795124581
 21
-1214.09135980838
 31
0.0
  0
LINE
  5
8491
330
1E
100
AcDbEntity
  8
002
100
AcDbLine
 10
1465.225795124581
 20
-1370.091359808379
 30
0.0
 11
1465.225795124581
 21
-1320.09135980838
 31
0.0
  0
LINE
  5
8492
330
1E
100
AcDbEntity
  8
002
100
AcDbLine
 10
1469.716478124581
 20
-1320.09135980838
 30
0.0
 11
1469.716478124581
 21
-1340.091359808379
 31
0.0
  0
LINE
  5
8493
330
1E
100
AcDbEntity
  8
002
100
AcDbLine
 10
1468.216478124581
 20
-1320.09135980838
 30
0.0
 11
1468.216478124581
 21
-1340.091359808379
 31
0.0
  0
LINE
  5
8494
330
1E
100
AcDbEntity
  8
002
100
AcDbLine
 10
1491.892461124581
 20
-1310.091359808379
 30
0.0
 11
1491.892461124581
 21
-1340.091359808379
 31
0.0
  0
LINE
  5
8495
330
1E
100
AcDbEntity
  8
002
100
AcDbLine
 10
1490.392461124581
 20
-1307.493283808379
 30
0.0
 11
1490.392461124581
 21
-1340.091359808379
 31
0.0
  0
LINE
  5
8496
330
1E
100
AcDbEntity
  8
002
100
AcDbLine
 10
1500.225795124581
 20
-1338.424692808379
 30
0.0
 11
1500.225795124581
 21
-1298.424692808379
 31
0.0
  0
LINE
  5
8497
330
1E
100
AcDbEntity
  8
003
100
AcDbLine
 10
1542.725795124581
 20
-1364.091359808379
 30
0.0
 11
1614.884886033672
 21
-1239.091359808379
 31
0.0
  0
DIMENSION
  5
8498
330
1E
100
AcDbEntity
  8
001
100
AcDbDimension
  2
*D6
 10
1704.153671276052
 20
-1364.091359808379
 30
0.0
 11
1691.028671276052
 21
-1301.591359808379
 31
0.0
 70
    32
 71
     5
 42
125.0
  3
ISO-25
100
AcDbAlignedDimension
 13
1614.884886033672
 23
-1239.091359808379
 33
0.0
 14
1540.558067124581
 24
-1364.091359808379
 34
0.0
 50
90.0
100
AcDbRotatedDimension
  0
LINE
  5
8499
330
1E
100
AcDbEntity
  8
002
100
AcDbLine
 10
1451.875795124581
 20
-1340.305565808379
 30
0.0
 11
1464.575795124581
 21
-1268.280285808379
 31
0.0
  0
LINE
  5
849A
330
1E
100
AcDbEntity
  8
002
100
AcDbLine
 10
1385.059128124581
 20
-1307.493283808379
 30
0.0
 11
1385.059128124581
 21
-1340.091359808379
 31
0.0
  0
LINE
  5
849B
330
1E
100
AcDbEntity
  8
002
100
AcDbLine
 10
1410.225795124581
 20
-1370.091359808379
 30
0.0
 11
1410.225795124581
 21
-1320.09135980838
 31
0.0
  0
LINE
  5
849C
330
1E
100
AcDbEntity
  8
002
100
AcDbLine
 10
1405.716478124581
 20
-1320.09135980838
 30
0.0
 11
1405.716478124581
 21
-1340.091359808379
 31
0.0
  0
LINE
  5
849D
330
1E
100
AcDbEntity
  8
002
100
AcDbLine
 10
1407.216478124581
 20
-1320.09135980838
 30
0.0
 11
1407.216478124581
 21
-1340.091359808379
 31
0.0
  0
LINE
  5
849E
330
1E
100
AcDbEntity
  8
002
100
AcDbLine
 10
1410.875795124581
 20
-1342.477300808379
 30
0.0
 11
1423.575795124581
 21
-1270.452021808379
 31
0.0
  0
LINE
  5
849F
330
1E
100
AcDbEntity
  8
002
100
AcDbLine
 10
1383.559128124581
 20
-1310.091359808379
 30
0.0
 11
1383.559128124581
 21
-1340.091359808379
 31
0.0
  0
LINE
  5
84A0
330
1E
100
AcDbEntity
  8
002
100
AcDbLine
 10
1375.225795124581
 20
-1338.300388808379
 30
0.0
 11
1375.225795124581
 21
-1298.424692808379
 31
0.0
  0
LINE
  5
84A1
330
1E
100
AcDbEntity
  8
003
100
AcDbLine
 10
1260.56670421549
 20
-1239.091359808379
 30
0.0
 11
1332.725795124581
 21
-1364.091359808379
 31
0.0
  0
LINE
  5
84A2
330
1E
100
AcDbEntity
  8
002
  6
CENTER
100
AcDbLine
 10
1417.225795124581
 20
-1375.091359808379
 30
0.0
 11
1417.225795124581
 21
-1135.091359808379
 31
0.0
  0
LINE
  5
84A3
330
1E
100
AcDbEntity
  8
002
100
AcDbLine
 10
1423.575795124581
 20
-1375.091359808379
 30
0.0
 11
1423.575795124581
 21
-1140.091359808379
 31
0.0
  0
LINE
  5
84A4
330
1E
100
AcDbEntity
  8
002
100
AcDbLine
 10
1410.875795124581
 20
-1375.091359808379
 30
0.0
 11
1410.875795124581
 21
-1140.091359808379
 31
0.0
  0
LINE
  5
84A5
330
1E
100
AcDbEntity
  8
002
  6
CENTER
100
AcDbLine
 10
1458.225795124581
 20
-1375.091359808379
 30
0.0
 11
1458.225795124581
 21
-1135.091359808379
 31
0.0
  0
LINE
  5
84A6
330
1E
100
AcDbEntity
  8
002
100
AcDbLine
 10
1464.575795124581
 20
-1375.091359808379
 30
0.0
 11
1464.575795124581
 21
-1140.091359808379
 31
0.0
  0
LINE
  5
84A7
330
1E
100
AcDbEntity
  8
002
100
AcDbLine
 10
1451.875795124581
 20
-1375.091359808379
 30
0.0
 11
1451.875795124581
 21
-1140.091359808379
 31
0.0
  0
LWPOLYLINE
  5
84A8
330
1E
100
AcDbEntity
  8
003
100
AcDbPolyline
 90
        4
 70
     0
 43
0.0
 10
1379.593059008514
 20
-1239.091359808379
 10
1239.76670421549
 20
-1239.091359808379
 10
1324.625795124581
 20
-1386.091359808379
 10
1393.86244084253
 20
-1386.091359808379
  0
LWPOLYLINE
  5
84A9
330
1E
100
AcDbEntity
  8
003
100
AcDbPolyline
 90
        4
 70
     0
 43
0.0
 10
1481.570515406632
 20
-1386.091359808379
 10
1550.825795124581
 20
-1386.091359808379
 10
1635.684886033672
 20
-1239.091359808379
 10
1496.192751196739
 20
-1239.091359808379
  0
LINE
  5
84AA
330
1E
100
AcDbEntity
  8
004
  6
CENTER
 62
     6
100
AcDbLine
 10
1437.725795124581
 20
-1670.867675724998
 30
0.0
 11
1437.725795124581
 21
-1072.67272580838
 31
0.0
  0
LINE
  5
84AB
330
1E
100
AcDbEntity
  8
004
  6
CENTER
 62
     6
100
AcDbLine
 10
1546.740860909653
 20
-2045.717327650278
 30
0.0
 11
1306.374115909653
 21
-2045.717327650278
 31
0.0
  0
CIRCLE
  5
84AC
330
1E
100
AcDbEntity
  8
002
100
AcDbCircle
 10
1428.225334909653
 20
-2045.717327650278
 30
0.0
 40
102.4999999999999
  0
CIRCLE
  5
84AD
330
1E
100
AcDbEntity
  8
002
100
AcDbCircle
 10
1428.225334909653
 20
-2045.717327650278
 30
0.0
 40
44.5
  0
LINE
  5
84AE
330
1E
100
AcDbEntity
  8
002
100
AcDbLine
 10
1470.216478124581
 20
-1598.42469280838
 30
0.0
 11
1405.216478124581
 21
-1605.924692808379
 31
0.0
  0
LINE
  5
84AF
330
1E
100
AcDbEntity
  8
002
100
AcDbLine
 10
1470.216478124581
 20
-1628.42469280838
 30
0.0
 11
1405.216478124581
 21
-1635.924692808379
 31
0.0
  0
LINE
  5
84B0
330
1E
100
AcDbEntity
  8
002
100
AcDbLine
 10
1400.216478124581
 20
-1643.424692808379
 30
0.0
 11
1475.216478124581
 21
-1635.924692808379
 31
0.0
  0
LINE
  5
84B1
330
1E
100
AcDbEntity
  8
002
100
AcDbLine
 10
1470.216478124581
 20
-1643.424692808379
 30
0.0
 11
1405.216478124581
 21
-1650.924692808379
 31
0.0
  0
LINE
  5
84B2
330
1E
100
AcDbEntity
  8
002
100
AcDbLine
 10
1470.216478124581
 20
-1613.424692808379
 30
0.0
 11
1405.216478124581
 21
-1620.92469280838
 31
0.0
  0
LINE
  5
84B3
330
1E
100
AcDbEntity
  8
002
100
AcDbLine
 10
1400.216478124581
 20
-1628.42469280838
 30
0.0
 11
1475.216478124581
 21
-1620.92469280838
 31
0.0
  0
LINE
  5
84B4
330
1E
100
AcDbEntity
  8
002
100
AcDbLine
 10
1400.216478124581
 20
-1613.424692808379
 30
0.0
 11
1475.216478124581
 21
-1605.924692808379
 31
0.0
  0
LWPOLYLINE
  5
84B5
330
1E
100
AcDbEntity
  8
002
100
AcDbPolyline
 90
       24
 70
     0
 43
0.0
 10
1478.680861124581
 20
-1639.827548655322
 10
1476.263595124581
 20
-1642.668688655322
 10
1473.717442124581
 20
-1645.371351655322
 10
1471.039771124581
 20
-1647.925982655322
 10
1468.227949124581
 20
-1650.323031655321
 10
1465.279344124581
 20
-1652.552944655321
 10
1462.515574124581
 20
-1654.407676655322
 10
1459.655794124581
 20
-1656.127459655322
 10
1456.716436124581
 20
-1657.719852655322
 10
1453.713934124581
 20
-1659.192413655322
 10
1450.664720124581
 20
-1660.552699655321
 10
1445.816946124581
 20
-1662.482435655322
 10
1440.901547124581
 20
-1664.206582655322
 10
1435.925415124581
 20
-1665.777276655322
 10
1430.895445124581
 20
-1667.246650655322
 10
1425.818529124581
 20
-1668.666835655321
 10
1420.597898124581
 20
-1670.130863655322
 10
1415.412320124581
 20
-1671.704802655322
 10
1410.338717124581
 20
-1673.495481655321
 10
1405.454013124581
 20
-1675.609731655321
 10
1400.835130124581
 20
-1678.154384655321
 10
1398.949035124581
 20
-1679.403734655321
 10
1397.120277124581
 20
-1680.742955655322
 10
1395.34289512458
 20
-1682.162707655322
  0
LINE
  5
84B6
330
1E
100
AcDbEntity
  8
002
100
AcDbLine
 10
1400.216478124581
 20
-1658.42469280838
 30
0.0
 11
1466.246244628492
 21
-1651.821716157988
 31
0.0
  0
LINE
  5
84B7
330
1E
100
AcDbEntity
  8
002
100
AcDbLine
 10
1399.801208124581
 20
-1375.091359808379
 30
0.0
 11
1472.346663124581
 21
-1375.091359808379
 31
0.0
  0
LINE
  5
84B8
330
1E
100
AcDbEntity
  8
002
100
AcDbLine
 10
1400.216478124581
 20
-1418.424692808379
 30
0.0
 11
1475.216478124581
 21
-1410.924692808379
 31
0.0
  0
LINE
  5
84B9
330
1E
100
AcDbEntity
  8
002
100
AcDbLine
 10
1470.216478124581
 20
-1403.424692808379
 30
0.0
 11
1405.216478124581
 21
-1410.924692808379
 31
0.0
  0
LINE
  5
84BA
330
1E
100
AcDbEntity
  8
002
100
AcDbLine
 10
1400.216478124581
 20
-1388.424692808379
 30
0.0
 11
1475.216478124581
 21
-1380.924692808379
 31
0.0
  0
LINE
  5
84BB
330
1E
100
AcDbEntity
  8
002
100
AcDbLine
 10
1470.216478124581
 20
-1388.424692808379
 30
0.0
 11
1405.216478124581
 21
-1395.924692808379
 31
0.0
  0
LINE
  5
84BC
330
1E
100
AcDbEntity
  8
002
100
AcDbLine
 10
1400.216478124581
 20
-1403.424692808379
 30
0.0
 11
1475.216478124581
 21
-1395.924692808379
 31
0.0
  0
LINE
  5
84BD
330
1E
100
AcDbEntity
  8
002
100
AcDbLine
 10
1400.216478124581
 20
-1568.424692808379
 30
0.0
 11
1475.216478124581
 21
-1560.924692808379
 31
0.0
  0
LINE
  5
84BE
330
1E
100
AcDbEntity
  8
002
100
AcDbLine
 10
1400.216478124581
 20
-1598.42469280838
 30
0.0
 11
1475.216478124581
 21
-1590.924692808379
 31
0.0
  0
LINE
  5
84BF
330
1E
100
AcDbEntity
  8
002
100
AcDbLine
 10
1470.216478124581
 20
-1568.424692808379
 30
0.0
 11
1405.216478124581
 21
-1575.92469280838
 31
0.0
  0
LINE
  5
84C0
330
1E
100
AcDbEntity
  8
002
100
AcDbLine
 10
1400.216478124581
 20
-1583.424692808379
 30
0.0
 11
1475.216478124581
 21
-1575.92469280838
 31
0.0
  0
LINE
  5
84C1
330
1E
100
AcDbEntity
  8
002
100
AcDbLine
 10
1470.216478124581
 20
-1583.424692808379
 30
0.0
 11
1405.216478124581
 21
-1590.924692808379
 31
0.0
  0
LINE
  5
84C2
330
1E
100
AcDbEntity
  8
002
100
AcDbLine
 10
1470.216478124581
 20
-1478.424692808379
 30
0.0
 11
1405.216478124581
 21
-1485.924692808379
 31
0.0
  0
LINE
  5
84C3
330
1E
100
AcDbEntity
  8
002
100
AcDbLine
 10
1470.216478124581
 20
-1538.42469280838
 30
0.0
 11
1405.216478124581
 21
-1545.924692808379
 31
0.0
  0
LINE
  5
84C4
330
1E
100
AcDbEntity
  8
002
100
AcDbLine
 10
1470.216478124581
 20
-1553.42469280838
 30
0.0
 11
1405.216478124581
 21
-1560.924692808379
 31
0.0
  0
LINE
  5
84C5
330
1E
100
AcDbEntity
  8
002
100
AcDbLine
 10
1400.216478124581
 20
-1553.42469280838
 30
0.0
 11
1475.216478124581
 21
-1545.924692808379
 31
0.0
  0
LINE
  5
84C6
330
1E
100
AcDbEntity
  8
002
100
AcDbLine
 10
1470.216478124581
 20
-1493.424692808379
 30
0.0
 11
1405.216478124581
 21
-1500.924692808379
 31
0.0
  0
LINE
  5
84C7
330
1E
100
AcDbEntity
  8
002
100
AcDbLine
 10
1470.216478124581
 20
-1508.424692808379
 30
0.0
 11
1405.216478124581
 21
-1515.924692808379
 31
0.0
  0
LINE
  5
84C8
330
1E
100
AcDbEntity
  8
002
100
AcDbLine
 10
1400.216478124581
 20
-1523.424692808379
 30
0.0
 11
1475.216478124581
 21
-1515.924692808379
 31
0.0
  0
LINE
  5
84C9
330
1E
100
AcDbEntity
  8
002
100
AcDbLine
 10
1470.216478124581
 20
-1523.424692808379
 30
0.0
 11
1405.216478124581
 21
-1530.924692808379
 31
0.0
  0
LINE
  5
84CA
330
1E
100
AcDbEntity
  8
002
100
AcDbLine
 10
1400.216478124581
 20
-1538.42469280838
 30
0.0
 11
1475.216478124581
 21
-1530.924692808379
 31
0.0
  0
LINE
  5
84CB
330
1E
100
AcDbEntity
  8
002
100
AcDbLine
 10
1400.216478124581
 20
-1508.424692808379
 30
0.0
 11
1475.216478124581
 21
-1500.924692808379
 31
0.0
  0
LINE
  5
84CC
330
1E
100
AcDbEntity
  8
002
100
AcDbLine
 10
1400.216478124581
 20
-1493.424692808379
 30
0.0
 11
1475.216478124581
 21
-1485.924692808379
 31
0.0
  0
LINE
  5
84CD
330
1E
100
AcDbEntity
  8
002
100
AcDbLine
 10
1400.216478124581
 20
-1433.424692808379
 30
0.0
 11
1475.216478124581
 21
-1425.924692808379
 31
0.0
  0
LINE
  5
84CE
330
1E
100
AcDbEntity
  8
002
100
AcDbLine
 10
1470.216478124581
 20
-1433.424692808379
 30
0.0
 11
1405.216478124581
 21
-1440.924692808379
 31
0.0
  0
LINE
  5
84CF
330
1E
100
AcDbEntity
  8
002
100
AcDbLine
 10
1470.216478124581
 20
-1448.424692808379
 30
0.0
 11
1405.216478124581
 21
-1455.924692808379
 31
0.0
  0
LINE
  5
84D0
330
1E
100
AcDbEntity
  8
002
100
AcDbLine
 10
1400.216478124581
 20
-1463.424692808379
 30
0.0
 11
1475.216478124581
 21
-1455.924692808379
 31
0.0
  0
LINE
  5
84D1
330
1E
100
AcDbEntity
  8
002
100
AcDbLine
 10
1470.216478124581
 20
-1463.424692808379
 30
0.0
 11
1405.216478124581
 21
-1470.924692808379
 31
0.0
  0
LINE
  5
84D2
330
1E
100
AcDbEntity
  8
002
100
AcDbLine
 10
1400.216478124581
 20
-1478.424692808379
 30
0.0
 11
1475.216478124581
 21
-1470.924692808379
 31
0.0
  0
LINE
  5
84D3
330
1E
100
AcDbEntity
  8
002
100
AcDbLine
 10
1400.216478124581
 20
-1448.424692808379
 30
0.0
 11
1475.216478124581
 21
-1440.924692808379
 31
0.0
  0
LINE
  5
84D4
330
1E
100
AcDbEntity
  8
002
100
AcDbLine
 10
1470.216478124581
 20
-1418.424692808379
 30
0.0
 11
1405.216478124581
 21
-1425.924692808379
 31
0.0
  0
LINE
  5
84D5
330
1E
100
AcDbEntity
  8
001
100
AcDbLine
 10
1285.725229909653
 20
-1913.038720650278
 30
0.0
 11
1434.725229909653
 21
-1913.038720650278
 31
0.0
  0
TEXT
  5
84D6
330
1E
100
AcDbEntity
  8
001
100
AcDbText
 10
1285.725229909653
 20
-1913.038720650278
 30
0.0
 40
16.0
  1
メッキ付　円形プレート
 41
0.703125
100
AcDbText
  0
LINE
  5
84D7
330
1E
100
AcDbEntity
  8
004
  6
CENTER
 62
     6
100
AcDbLine
 10
1428.225334909653
 20
-1931.232201650278
 30
0.0
 11
1428.225334909653
 21
-2163.574469650278
 31
0.0
  0
LINE
  5
84D8
330
1E
100
AcDbEntity
  8
001
100
AcDbLine
 10
1337.924856124581
 20
-1532.914192808379
 30
0.0
 11
1232.049856124581
 21
-1532.914192808379
 31
0.0
  0
TEXT
  5
84D9
330
1E
100
AcDbEntity
  8
001
100
AcDbText
 10
1242.549856124581
 20
-1529.414140808379
 30
0.0
 40
11.19999999999999
  1
ジョイントコネクタ
 41
0.716146
100
AcDbText
  0
ARC
  5
84DA
330
1E
100
AcDbEntity
  8
002
100
AcDbCircle
 10
1402.716478124581
 20
-1553.42469280838
 30
0.0
 40
2.5
100
AcDbArc
 50
138.1896849999962
 51
221.8103149999756
  0
LINE
  5
84DB
330
1E
100
AcDbEntity
  8
003
100
AcDbLine
 10
1355.225795124581
 20
-1386.091359808379
 30
0.0
 11
1355.225795124581
 21
-1564.204919808379
 31
0.0
  0
LINE
  5
84DC
330
1E
100
AcDbEntity
  8
003
100
AcDbLine
 10
1364.725795124581
 20
-1386.091359808379
 30
0.0
 11
1364.725795124581
 21
-1564.204919808379
 31
0.0
  0
ARC
  5
84DD
330
1E
100
AcDbEntity
  8
002
100
AcDbCircle
 10
1402.716478124581
 20
-1665.924692808379
 30
0.0
 40
2.5
100
AcDbArc
 50
318.1896850000243
 51
41.81031500000377
  0
LINE
  5
84DE
330
1E
100
AcDbEntity
  8
002
100
AcDbLine
 10
1400.216478124581
 20
-1673.42469280838
 30
0.0
 11
1414.620410145905
 21
-1671.984299606247
 31
0.0
  0
LINE
  5
84DF
330
1E
100
AcDbEntity
  8
002
100
AcDbLine
 10
1404.579868124581
 20
-1667.59135980838
 30
0.0
 11
1400.853088124581
 21
-1671.758026808379
 31
0.0
  0
LINE
  5
84E0
330
1E
100
AcDbEntity
  8
002
100
AcDbLine
 10
1400.853088124581
 20
-1675.091359808379
 30
0.0
 11
1402.682451973413
 21
-1677.136650912207
 31
0.0
  0
ARC
  5
84E1
330
1E
100
AcDbEntity
  8
002
100
AcDbCircle
 10
1402.716478124581
 20
-1673.42469280838
 30
0.0
 40
2.5
100
AcDbArc
 50
138.1896849999962
 51
221.8103149999756
  0
LINE
  5
84E2
330
1E
100
AcDbEntity
  8
002
100
AcDbLine
 10
1450.212037172461
 20
-1660.732897533624
 30
0.0
 11
1405.216478124581
 21
-1665.924692808379
 31
0.0
  0
ARC
  5
84E3
330
1E
100
AcDbEntity
  8
002
100
AcDbCircle
 10
1402.716478124581
 20
-1560.924692808379
 30
0.0
 40
2.5
100
AcDbArc
 50
318.1896850000243
 51
41.81031500000377
  0
LINE
  5
84E4
330
1E
100
AcDbEntity
  8
002
100
AcDbLine
 10
1400.853088124581
 20
-1570.09135980838
 30
0.0
 11
1404.579868124581
 21
-1574.258026808379
 31
0.0
  0
ARC
  5
84E5
330
1E
100
AcDbEntity
  8
002
100
AcDbCircle
 10
1402.716478124581
 20
-1598.42469280838
 30
0.0
 40
2.5
100
AcDbArc
 50
138.1896849999962
 51
221.8103149999756
  0
ARC
  5
84E6
330
1E
100
AcDbEntity
  8
002
100
AcDbCircle
 10
1402.716478124581
 20
-1575.92469280838
 30
0.0
 40
2.5
100
AcDbArc
 50
318.1896850000243
 51
41.81031500000377
  0
LINE
  5
84E7
330
1E
100
AcDbEntity
  8
002
100
AcDbLine
 10
1400.853088124581
 20
-1585.091359808379
 30
0.0
 11
1404.579868124581
 21
-1589.258026808379
 31
0.0
  0
ARC
  5
84E8
330
1E
100
AcDbEntity
  8
002
100
AcDbCircle
 10
1402.716478124581
 20
-1590.924692808379
 30
0.0
 40
2.5
100
AcDbArc
 50
318.1896850000243
 51
41.81031500000377
  0
LINE
  5
84E9
330
1E
100
AcDbEntity
  8
002
100
AcDbLine
 10
1404.579868124581
 20
-1592.59135980838
 30
0.0
 11
1400.853088124581
 21
-1596.758026808379
 31
0.0
  0
ARC
  5
84EA
330
1E
100
AcDbEntity
  8
002
100
AcDbCircle
 10
1402.716478124581
 20
-1583.424692808379
 30
0.0
 40
2.5
100
AcDbArc
 50
138.1896849999962
 51
221.8103149999756
  0
LINE
  5
84EB
330
1E
100
AcDbEntity
  8
002
100
AcDbLine
 10
1404.579868124581
 20
-1577.591359808379
 30
0.0
 11
1400.853088124581
 21
-1581.75802680838
 31
0.0
  0
ARC
  5
84EC
330
1E
100
AcDbEntity
  8
002
100
AcDbCircle
 10
1402.716478124581
 20
-1568.424692808379
 30
0.0
 40
2.5
100
AcDbArc
 50
138.1896849999962
 51
221.8103149999756
  0
LINE
  5
84ED
330
1E
100
AcDbEntity
  8
002
100
AcDbLine
 10
1404.579868124581
 20
-1562.591359808379
 30
0.0
 11
1400.853088124581
 21
-1566.758026808379
 31
0.0
  0
LINE
  5
84EE
330
1E
100
AcDbEntity
  8
002
100
AcDbLine
 10
1400.853088124581
 20
-1555.091359808379
 30
0.0
 11
1404.579868124581
 21
-1559.25802680838
 31
0.0
  0
ARC
  5
84EF
330
1E
100
AcDbEntity
  8
002
100
AcDbCircle
 10
1402.716478124581
 20
-1628.42469280838
 30
0.0
 40
2.5
100
AcDbArc
 50
138.1896849999962
 51
221.8103149999756
  0
LINE
  5
84F0
330
1E
100
AcDbEntity
  8
002
100
AcDbLine
 10
1400.853088124581
 20
-1630.091359808379
 30
0.0
 11
1404.579868124581
 21
-1634.258026808379
 31
0.0
  0
LINE
  5
84F1
330
1E
100
AcDbEntity
  8
002
100
AcDbLine
 10
1400.853088124581
 20
-1645.091359808379
 30
0.0
 11
1404.579868124581
 21
-1649.25802680838
 31
0.0
  0
LINE
  5
84F2
330
1E
100
AcDbEntity
  8
002
100
AcDbLine
 10
1404.579868124581
 20
-1637.591359808379
 30
0.0
 11
1400.853088124581
 21
-1641.758026808379
 31
0.0
  0
ARC
  5
84F3
330
1E
100
AcDbEntity
  8
002
100
AcDbCircle
 10
1402.716478124581
 20
-1643.424692808379
 30
0.0
 40
2.5
100
AcDbArc
 50
138.1896849999962
 51
221.8103149999756
  0
ARC
  5
84F4
330
1E
100
AcDbEntity
  8
002
100
AcDbCircle
 10
1402.716478124581
 20
-1635.924692808379
 30
0.0
 40
2.5
100
AcDbArc
 50
318.1896850000243
 51
41.81031500000377
  0
ARC
  5
84F5
330
1E
100
AcDbEntity
  8
002
100
AcDbCircle
 10
1402.716478124581
 20
-1605.924692808379
 30
0.0
 40
2.5
100
AcDbArc
 50
318.1896850000243
 51
41.81031500000377
  0
LINE
  5
84F6
330
1E
100
AcDbEntity
  8
002
100
AcDbLine
 10
1400.853088124581
 20
-1615.091359808379
 30
0.0
 11
1404.579868124581
 21
-1619.258026808379
 31
0.0
  0
ARC
  5
84F7
330
1E
100
AcDbEntity
  8
002
100
AcDbCircle
 10
1402.716478124581
 20
-1620.92469280838
 30
0.0
 40
2.5
100
AcDbArc
 50
318.1896850000243
 51
41.81031500000377
  0
LINE
  5
84F8
330
1E
100
AcDbEntity
  8
002
100
AcDbLine
 10
1404.579868124581
 20
-1622.59135980838
 30
0.0
 11
1400.853088124581
 21
-1626.758026808379
 31
0.0
  0
ARC
  5
84F9
330
1E
100
AcDbEntity
  8
002
100
AcDbCircle
 10
1402.716478124581
 20
-1613.424692808379
 30
0.0
 40
2.5
100
AcDbArc
 50
138.1896849999962
 51
221.8103149999756
  0
LINE
  5
84FA
330
1E
100
AcDbEntity
  8
002
100
AcDbLine
 10
1404.579868124581
 20
-1607.591359808379
 30
0.0
 11
1400.853088124581
 21
-1611.758026808379
 31
0.0
  0
ARC
  5
84FB
330
1E
100
AcDbEntity
  8
002
100
AcDbCircle
 10
1402.716478124581
 20
-1658.42469280838
 30
0.0
 40
2.5
100
AcDbArc
 50
138.1896849999962
 51
221.8103149999756
  0
LINE
  5
84FC
330
1E
100
AcDbEntity
  8
002
100
AcDbLine
 10
1400.853088124581
 20
-1660.091359808379
 30
0.0
 11
1404.579868124581
 21
-1664.258026808379
 31
0.0
  0
LINE
  5
84FD
330
1E
100
AcDbEntity
  8
002
100
AcDbLine
 10
1404.579868124581
 20
-1652.591359808379
 30
0.0
 11
1400.853088124581
 21
-1656.758026808379
 31
0.0
  0
ARC
  5
84FE
330
1E
100
AcDbEntity
  8
002
100
AcDbCircle
 10
1402.716478124581
 20
-1650.924692808379
 30
0.0
 40
2.5
100
AcDbArc
 50
318.1896850000243
 51
41.81031500000377
  0
LINE
  5
84FF
330
1E
100
AcDbEntity
  8
002
100
AcDbLine
 10
1400.853088124581
 20
-1600.091359808379
 30
0.0
 11
1404.579868124581
 21
-1604.25802680838
 31
0.0
  0
LINE
  5
8500
330
1E
100
AcDbEntity
  8
002
100
AcDbLine
 10
1335.225795124581
 20
-1340.091359808379
 30
0.0
 11
1407.216478124581
 21
-1340.091359808379
 31
0.0
  0
LINE
  5
8501
330
1E
100
AcDbEntity
  8
002
100
AcDbLine
 10
1335.225795124581
 20
-1364.09135980838
 30
0.0
 11
1393.225795124581
 21
-1364.091359808379
 31
0.0
  0
LINE
  5
8502
330
1E
100
AcDbEntity
  8
002
100
AcDbLine
 10
1385.049811124581
 20
-1340.091359808379
 30
0.0
 11
1383.549811124581
 21
-1339.225333808379
 31
0.0
  0
LINE
  5
8503
330
1E
100
AcDbEntity
  8
002
100
AcDbLine
 10
1385.059128124581
 20
-1339.225333808379
 30
0.0
 11
1383.559128124581
 21
-1340.091359808379
 31
0.0
  0
LINE
  5
8504
330
1E
100
AcDbEntity
  8
001
100
AcDbLine
 10
1394.136804124581
 20
-1474.436535808379
 30
0.0
 11
1337.924856124581
 21
-1531.914192808379
 31
0.0
  0
LWPOLYLINE
  5
8505
330
1E
100
AcDbEntity
  8
003
100
AcDbPolyline
 90
        4
 70
     0
 43
0.0
 10
1393.86244084253
 20
-1386.091359808379
 10
1372.725795124581
 20
-1386.091359808379
 10
1372.725795124581
 20
-1364.091359808379
 10
1393.225795124581
 20
-1364.091359808379
  0
LINE
  5
8506
330
1E
100
AcDbEntity
  8
003
100
AcDbLine
 10
1372.725795124581
 20
-1364.091359808379
 30
0.0
 11
1332.725795124581
 21
-1364.091359808379
 31
0.0
  0
LINE
  5
8507
330
1E
100
AcDbEntity
  8
004
  6
CENTER
100
AcDbLine
 10
1307.982668491497
 20
-1368.630150126818
 30
0.0
 11
1332.595528491497
 21
-1354.339622126818
 31
0.0
  0
LINE
  5
8508
330
1E
100
AcDbEntity
  8
003
 62
     3
100
AcDbLine
 10
1314.832450491496
 20
-1369.856590126818
 30
0.0
 11
1330.398874491497
 21
-1360.818534126819
 31
0.0
  0
LINE
  5
8509
330
1E
100
AcDbEntity
  8
003
 62
     3
100
AcDbLine
 10
1310.313422491497
 20
-1362.073378126818
 30
0.0
 11
1325.879846491497
 21
-1353.035322126818
 31
0.0
  0
LINE
  5
850A
330
1E
100
AcDbEntity
  8
002
100
AcDbLine
 10
1335.225795124581
 20
-1340.091359808379
 30
0.0
 11
1335.225795124581
 21
-1364.091359808379
 31
0.0
  0
LINE
  5
850B
330
1E
100
AcDbEntity
  8
002
100
AcDbLine
 10
1335.225795124581
 20
-1340.091359808379
 30
0.0
 11
1335.225795124581
 21
-1364.09135980838
 31
0.0
  0
LINE
  5
850C
330
1E
100
AcDbEntity
  8
002
100
AcDbLine
 10
1376.892461124581
 20
-1339.967054808379
 30
0.0
 11
1375.225795124581
 21
-1338.300388808379
 31
0.0
  0
LINE
  5
850D
330
1E
100
AcDbEntity
  8
002
100
AcDbLine
 10
1400.853088124581
 20
-1435.091359808379
 30
0.0
 11
1404.579868124581
 21
-1439.258026808379
 31
0.0
  0
LINE
  5
850E
330
1E
100
AcDbEntity
  8
002
100
AcDbLine
 10
1399.801208124581
 20
-1435.091359808379
 30
0.0
 11
1403.527988124581
 21
-1439.258026808379
 31
0.0
  0
LINE
  5
850F
330
1E
100
AcDbEntity
  8
002
100
AcDbLine
 10
1394.200950124581
 20
-1496.09135980838
 30
0.0
 11
1393.716478124581
 21
-1340.091359808379
 31
0.0
  0
LWPOLYLINE
  5
8510
330
1E
100
AcDbEntity
  8
001
100
AcDbPolyline
 90
        3
 70
     0
 43
0.0
 10
1390.583429124581
 20
-1481.752512808379
 10
1394.136804124581
 20
-1475.436535808379
 10
1387.901503124581
 20
-1479.129644808379
  0
ARC
  5
8511
330
1E
100
AcDbEntity
  8
002
100
AcDbCircle
 10
1402.716478124581
 20
-1455.924692808379
 30
0.0
 40
2.5
100
AcDbArc
 50
318.1896850000243
 51
41.81031500000377
  0
ARC
  5
8512
330
1E
100
AcDbEntity
  8
002
100
AcDbCircle
 10
1401.664598124581
 20
-1455.924692808379
 30
0.0
 40
2.5
100
AcDbArc
 50
318.1896850000243
 51
41.81031500000377
  0
LINE
  5
8513
330
1E
100
AcDbEntity
  8
002
100
AcDbLine
 10
1400.853088124581
 20
-1480.09135980838
 30
0.0
 11
1404.579868124581
 21
-1484.25802680838
 31
0.0
  0
LINE
  5
8514
330
1E
100
AcDbEntity
  8
002
100
AcDbLine
 10
1399.801208124581
 20
-1480.09135980838
 30
0.0
 11
1403.527988124581
 21
-1484.25802680838
 31
0.0
  0
LINE
  5
8515
330
1E
100
AcDbEntity
  8
002
100
AcDbLine
 10
1404.579868124581
 20
-1457.59135980838
 30
0.0
 11
1400.853088124581
 21
-1461.75802680838
 31
0.0
  0
LINE
  5
8516
330
1E
100
AcDbEntity
  8
002
100
AcDbLine
 10
1403.527988124581
 20
-1457.59135980838
 30
0.0
 11
1399.801208124581
 21
-1461.75802680838
 31
0.0
  0
LINE
  5
8517
330
1E
100
AcDbEntity
  8
002
100
AcDbLine
 10
1400.853088124581
 20
-1465.091359808379
 30
0.0
 11
1404.579868124581
 21
-1469.258026808379
 31
0.0
  0
ARC
  5
8518
330
1E
100
AcDbEntity
  8
002
100
AcDbCircle
 10
1402.716478124581
 20
-1470.924692808379
 30
0.0
 40
2.5
100
AcDbArc
 50
318.1896850000243
 51
41.81031500000377
  0
LINE
  5
8519
330
1E
100
AcDbEntity
  8
002
100
AcDbLine
 10
1404.579868124581
 20
-1472.591359808379
 30
0.0
 11
1400.853088124581
 21
-1476.758026808379
 31
0.0
  0
ARC
  5
851A
330
1E
100
AcDbEntity
  8
002
100
AcDbCircle
 10
1401.664598124581
 20
-1470.924692808379
 30
0.0
 40
2.5
100
AcDbArc
 50
318.1896850000243
 51
41.81031500000377
  0
ARC
  5
851B
330
1E
100
AcDbEntity
  8
002
100
AcDbCircle
 10
1401.664598124581
 20
-1478.424692808379
 30
0.0
 40
2.5
100
AcDbArc
 50
138.1896849999962
 51
221.8103149999756
  0
LINE
  5
851C
330
1E
100
AcDbEntity
  8
002
100
AcDbLine
 10
1399.801208124581
 20
-1465.091359808379
 30
0.0
 11
1403.527988124581
 21
-1469.258026808379
 31
0.0
  0
LINE
  5
851D
330
1E
100
AcDbEntity
  8
002
100
AcDbLine
 10
1403.527988124581
 20
-1472.591359808379
 30
0.0
 11
1399.801208124581
 21
-1476.758026808379
 31
0.0
  0
ARC
  5
851E
330
1E
100
AcDbEntity
  8
002
100
AcDbCircle
 10
1402.716478124581
 20
-1478.424692808379
 30
0.0
 40
2.5
100
AcDbArc
 50
138.1896849999962
 51
221.8103149999756
  0
ARC
  5
851F
330
1E
100
AcDbEntity
  8
002
100
AcDbCircle
 10
1402.716478124581
 20
-1463.424692808379
 30
0.0
 40
2.5
100
AcDbArc
 50
138.1896849999962
 51
221.8103149999756
  0
ARC
  5
8520
330
1E
100
AcDbEntity
  8
002
100
AcDbCircle
 10
1401.664598124581
 20
-1463.424692808379
 30
0.0
 40
2.5
100
AcDbArc
 50
138.1896849999962
 51
221.8103149999756
  0
ARC
  5
8521
330
1E
100
AcDbEntity
  8
002
100
AcDbCircle
 10
1402.716478124581
 20
-1440.924692808379
 30
0.0
 40
2.5
100
AcDbArc
 50
318.1896850000243
 51
41.81031500000377
  0
ARC
  5
8522
330
1E
100
AcDbEntity
  8
002
100
AcDbCircle
 10
1401.664598124581
 20
-1440.924692808379
 30
0.0
 40
2.5
100
AcDbArc
 50
318.1896850000243
 51
41.81031500000377
  0
LINE
  5
8523
330
1E
100
AcDbEntity
  8
002
100
AcDbLine
 10
1400.853088124581
 20
-1450.091359808379
 30
0.0
 11
1404.579868124581
 21
-1454.258026808379
 31
0.0
  0
LINE
  5
8524
330
1E
100
AcDbEntity
  8
002
100
AcDbLine
 10
1404.579868124581
 20
-1442.591359808379
 30
0.0
 11
1400.853088124581
 21
-1446.758026808379
 31
0.0
  0
ARC
  5
8525
330
1E
100
AcDbEntity
  8
002
100
AcDbCircle
 10
1401.664598124581
 20
-1448.424692808379
 30
0.0
 40
2.5
100
AcDbArc
 50
138.1896849999962
 51
221.8103149999756
  0
ARC
  5
8526
330
1E
100
AcDbEntity
  8
002
100
AcDbCircle
 10
1402.716478124581
 20
-1448.424692808379
 30
0.0
 40
2.5
100
AcDbArc
 50
138.1896849999962
 51
221.8103149999756
  0
LINE
  5
8527
330
1E
100
AcDbEntity
  8
002
100
AcDbLine
 10
1399.801208124581
 20
-1450.091359808379
 30
0.0
 11
1403.527988124581
 21
-1454.258026808379
 31
0.0
  0
LINE
  5
8528
330
1E
100
AcDbEntity
  8
002
100
AcDbLine
 10
1403.527988124581
 20
-1442.591359808379
 30
0.0
 11
1399.801208124581
 21
-1446.758026808379
 31
0.0
  0
ARC
  5
8529
330
1E
100
AcDbEntity
  8
002
100
AcDbCircle
 10
1402.716478124581
 20
-1515.924692808379
 30
0.0
 40
2.5
100
AcDbArc
 50
318.1896850000243
 51
41.81031500000377
  0
LINE
  5
852A
330
1E
100
AcDbEntity
  8
002
100
AcDbLine
 10
1400.853088124581
 20
-1525.091359808379
 30
0.0
 11
1404.579868124581
 21
-1529.258026808379
 31
0.0
  0
ARC
  5
852B
330
1E
100
AcDbEntity
  8
002
100
AcDbCircle
 10
1402.716478124581
 20
-1530.924692808379
 30
0.0
 40
2.5
100
AcDbArc
 50
318.1896850000243
 51
41.81031500000377
  0
LINE
  5
852C
330
1E
100
AcDbEntity
  8
002
100
AcDbLine
 10
1404.579868124581
 20
-1532.59135980838
 30
0.0
 11
1400.853088124581
 21
-1536.75802680838
 31
0.0
  0
ARC
  5
852D
330
1E
100
AcDbEntity
  8
002
100
AcDbCircle
 10
1402.716478124581
 20
-1523.424692808379
 30
0.0
 40
2.5
100
AcDbArc
 50
138.1896849999962
 51
221.8103149999756
  0
LINE
  5
852E
330
1E
100
AcDbEntity
  8
002
100
AcDbLine
 10
1404.579868124581
 20
-1517.591359808379
 30
0.0
 11
1400.853088124581
 21
-1521.758026808379
 31
0.0
  0
LINE
  5
852F
330
1E
100
AcDbEntity
  8
002
100
AcDbLine
 10
1400.695635124581
 20
-1496.09135980838
 30
0.0
 11
1394.200950124581
 21
-1496.09135980838
 31
0.0
  0
LINE
  5
8530
330
1E
100
AcDbEntity
  8
002
100
AcDbLine
 10
1400.853088124581
 20
-1510.091359808379
 30
0.0
 11
1404.579868124581
 21
-1514.258026808379
 31
0.0
  0
LINE
  5
8531
330
1E
100
AcDbEntity
  8
002
100
AcDbLine
 10
1404.579868124581
 20
-1487.591359808379
 30
0.0
 11
1400.853088124581
 21
-1491.758026808379
 31
0.0
  0
LINE
  5
8532
330
1E
100
AcDbEntity
  8
002
100
AcDbLine
 10
1403.527988124581
 20
-1487.591359808379
 30
0.0
 11
1399.801208124581
 21
-1491.758026808379
 31
0.0
  0
LINE
  5
8533
330
1E
100
AcDbEntity
  8
002
100
AcDbLine
 10
1400.853088124581
 20
-1495.091359808379
 30
0.0
 11
1404.579868124581
 21
-1499.258026808379
 31
0.0
  0
ARC
  5
8534
330
1E
100
AcDbEntity
  8
002
100
AcDbCircle
 10
1402.716478124581
 20
-1500.924692808379
 30
0.0
 40
2.5
100
AcDbArc
 50
318.1896850000243
 51
41.81031500000377
  0
LINE
  5
8535
330
1E
100
AcDbEntity
  8
002
100
AcDbLine
 10
1404.579868124581
 20
-1502.59135980838
 30
0.0
 11
1400.853088124581
 21
-1506.75802680838
 31
0.0
  0
ARC
  5
8536
330
1E
100
AcDbEntity
  8
002
100
AcDbCircle
 10
1402.716478124581
 20
-1508.424692808379
 30
0.0
 40
2.5
100
AcDbArc
 50
138.1896849999962
 51
221.8103149999756
  0
LINE
  5
8537
330
1E
100
AcDbEntity
  8
002
100
AcDbLine
 10
1399.801208124581
 20
-1495.091359808379
 30
0.0
 11
1400.695635124581
 21
-1496.09135980838
 31
0.0
  0
ARC
  5
8538
330
1E
100
AcDbEntity
  8
002
100
AcDbCircle
 10
1402.716478124581
 20
-1493.424692808379
 30
0.0
 40
2.5
100
AcDbArc
 50
138.1896849999962
 51
221.8103149999756
  0
ARC
  5
8539
330
1E
100
AcDbEntity
  8
002
100
AcDbCircle
 10
1401.664598124581
 20
-1493.424692808379
 30
0.0
 40
2.5
100
AcDbArc
 50
138.1896849999962
 51
221.8103149999756
  0
LINE
  5
853A
330
1E
100
AcDbEntity
  8
002
100
AcDbLine
 10
1400.853088124581
 20
-1540.091359808379
 30
0.0
 11
1404.579868124581
 21
-1544.258026808379
 31
0.0
  0
ARC
  5
853B
330
1E
100
AcDbEntity
  8
002
100
AcDbCircle
 10
1402.716478124581
 20
-1545.924692808379
 30
0.0
 40
2.5
100
AcDbArc
 50
318.1896850000243
 51
41.81031500000377
  0
LINE
  5
853C
330
1E
100
AcDbEntity
  8
002
100
AcDbLine
 10
1404.579868124581
 20
-1547.591359808379
 30
0.0
 11
1400.853088124581
 21
-1551.758026808379
 31
0.0
  0
ARC
  5
853D
330
1E
100
AcDbEntity
  8
002
100
AcDbCircle
 10
1402.716478124581
 20
-1538.42469280838
 30
0.0
 40
2.5
100
AcDbArc
 50
138.1896849999962
 51
221.8103149999756
  0
ARC
  5
853E
330
1E
100
AcDbEntity
  8
002
100
AcDbCircle
 10
1402.716478124581
 20
-1485.924692808379
 30
0.0
 40
2.5
100
AcDbArc
 50
318.1896850000243
 51
41.81031500000377
  0
ARC
  5
853F
330
1E
100
AcDbEntity
  8
002
100
AcDbCircle
 10
1401.664598124581
 20
-1485.924692808379
 30
0.0
 40
2.5
100
AcDbArc
 50
318.1896850000243
 51
41.81031500000377
  0
LINE
  5
8540
330
1E
100
AcDbEntity
  8
002
100
AcDbLine
 10
1455.772033124581
 20
-1375.091359808379
 30
0.0
 11
1405.216478124581
 21
-1380.924692808379
 31
0.0
  0
LINE
  5
8541
330
1E
100
AcDbEntity
  8
002
100
AcDbLine
 10
1393.225795124581
 20
-1340.091359808379
 30
0.0
 11
1393.225795124581
 21
-1364.09135980838
 31
0.0
  0
LINE
  5
8542
330
1E
100
AcDbEntity
  8
002
100
AcDbLine
 10
1407.716478124581
 20
-1370.091359808379
 30
0.0
 11
1410.225795124581
 21
-1370.091359808379
 31
0.0
  0
LINE
  5
8543
330
1E
100
AcDbEntity
  8
002
100
AcDbLine
 10
1405.716478124581
 20
-1340.091359808379
 30
0.0
 11
1407.216478124581
 21
-1339.225333808379
 31
0.0
  0
LINE
  5
8544
330
1E
100
AcDbEntity
  8
002
100
AcDbLine
 10
1404.579868124581
 20
-1397.591359808379
 30
0.0
 11
1400.853088124581
 21
-1401.758026808379
 31
0.0
  0
LINE
  5
8545
330
1E
100
AcDbEntity
  8
002
100
AcDbLine
 10
1403.527988124581
 20
-1397.591359808379
 30
0.0
 11
1399.801208124581
 21
-1401.758026808379
 31
0.0
  0
ARC
  5
8546
330
1E
100
AcDbEntity
  8
002
100
AcDbCircle
 10
1401.664598124581
 20
-1403.424692808379
 30
0.0
 40
2.5
100
AcDbArc
 50
138.1896849999962
 51
221.8103149999756
  0
ARC
  5
8547
330
1E
100
AcDbEntity
  8
002
100
AcDbCircle
 10
1402.716478124581
 20
-1403.424692808379
 30
0.0
 40
2.5
100
AcDbArc
 50
138.1896849999962
 51
221.8103149999756
  0
ARC
  5
8548
330
1E
100
AcDbEntity
  8
002
100
AcDbCircle
 10
1402.716478124581
 20
-1410.924692808379
 30
0.0
 40
2.5
100
AcDbArc
 50
318.1896850000243
 51
41.81031500000377
  0
LINE
  5
8549
330
1E
100
AcDbEntity
  8
002
100
AcDbLine
 10
1404.579868124581
 20
-1412.591359808379
 30
0.0
 11
1400.853088124581
 21
-1416.758026808379
 31
0.0
  0
ARC
  5
854A
330
1E
100
AcDbEntity
  8
002
100
AcDbCircle
 10
1401.664598124581
 20
-1410.924692808379
 30
0.0
 40
2.5
100
AcDbArc
 50
318.1896850000243
 51
41.81031500000377
  0
ARC
  5
854B
330
1E
100
AcDbEntity
  8
002
100
AcDbCircle
 10
1401.664598124581
 20
-1418.424692808379
 30
0.0
 40
2.5
100
AcDbArc
 50
138.1896849999962
 51
221.8103149999756
  0
ARC
  5
854C
330
1E
100
AcDbEntity
  8
002
100
AcDbCircle
 10
1402.716478124581
 20
-1418.424692808379
 30
0.0
 40
2.5
100
AcDbArc
 50
138.1896849999962
 51
221.8103149999756
  0
LINE
  5
854D
330
1E
100
AcDbEntity
  8
002
100
AcDbLine
 10
1403.527988124581
 20
-1412.591359808379
 30
0.0
 11
1399.801208124581
 21
-1416.758026808379
 31
0.0
  0
LINE
  5
854E
330
1E
100
AcDbEntity
  8
002
100
AcDbLine
 10
1400.853088124581
 20
-1405.09135980838
 30
0.0
 11
1404.579868124581
 21
-1409.258026808379
 31
0.0
  0
LINE
  5
854F
330
1E
100
AcDbEntity
  8
002
100
AcDbLine
 10
1399.801208124581
 20
-1405.09135980838
 30
0.0
 11
1403.527988124581
 21
-1409.258026808379
 31
0.0
  0
ARC
  5
8550
330
1E
100
AcDbEntity
  8
002
100
AcDbCircle
 10
1402.716478124581
 20
-1395.924692808379
 30
0.0
 40
2.5
100
AcDbArc
 50
318.1896850000243
 51
41.81031500000377
  0
LINE
  5
8551
330
1E
100
AcDbEntity
  8
002
100
AcDbLine
 10
1400.853088124581
 20
-1390.091359808379
 30
0.0
 11
1404.579868124581
 21
-1394.258026808379
 31
0.0
  0
LINE
  5
8552
330
1E
100
AcDbEntity
  8
002
100
AcDbLine
 10
1404.579868124581
 20
-1382.59135980838
 30
0.0
 11
1400.853088124581
 21
-1386.758026808379
 31
0.0
  0
ARC
  5
8553
330
1E
100
AcDbEntity
  8
002
100
AcDbCircle
 10
1401.664598124581
 20
-1395.924692808379
 30
0.0
 40
2.5
100
AcDbArc
 50
318.1896850000243
 51
41.81031500000377
  0
ARC
  5
8554
330
1E
100
AcDbEntity
  8
002
100
AcDbCircle
 10
1402.716478124581
 20
-1380.924692808379
 30
0.0
 40
2.5
100
AcDbArc
 50
318.1896850000243
 51
41.81031500000377
  0
ARC
  5
8555
330
1E
100
AcDbEntity
  8
002
100
AcDbCircle
 10
1401.664598124581
 20
-1380.924692808379
 30
0.0
 40
2.5
100
AcDbArc
 50
318.1896850000243
 51
41.81031500000377
  0
ARC
  5
8556
330
1E
100
AcDbEntity
  8
002
100
AcDbCircle
 10
1401.664598124581
 20
-1388.424692808379
 30
0.0
 40
2.5
100
AcDbArc
 50
138.1896849999962
 51
221.8103149999756
  0
ARC
  5
8557
330
1E
100
AcDbEntity
  8
002
100
AcDbCircle
 10
1402.716478124581
 20
-1388.424692808379
 30
0.0
 40
2.5
100
AcDbArc
 50
138.1896849999962
 51
221.8103149999756
  0
LINE
  5
8558
330
1E
100
AcDbEntity
  8
002
100
AcDbLine
 10
1399.801208124581
 20
-1390.091359808379
 30
0.0
 11
1403.527988124581
 21
-1394.258026808379
 31
0.0
  0
LINE
  5
8559
330
1E
100
AcDbEntity
  8
002
100
AcDbLine
 10
1403.527988124581
 20
-1382.59135980838
 30
0.0
 11
1399.801208124581
 21
-1386.758026808379
 31
0.0
  0
LINE
  5
855A
330
1E
100
AcDbEntity
  8
002
100
AcDbLine
 10
1400.853088124581
 20
-1375.091359808379
 30
0.0
 11
1404.579868124581
 21
-1379.258026808379
 31
0.0
  0
LINE
  5
855B
330
1E
100
AcDbEntity
  8
002
100
AcDbLine
 10
1399.801208124581
 20
-1375.091359808379
 30
0.0
 11
1403.527988124581
 21
-1379.258026808379
 31
0.0
  0
LINE
  5
855C
330
1E
100
AcDbEntity
  8
002
100
AcDbLine
 10
1404.579868124581
 20
-1427.59135980838
 30
0.0
 11
1400.853088124581
 21
-1431.758026808379
 31
0.0
  0
LINE
  5
855D
330
1E
100
AcDbEntity
  8
002
100
AcDbLine
 10
1403.527988124581
 20
-1427.59135980838
 30
0.0
 11
1399.801208124581
 21
-1431.758026808379
 31
0.0
  0
ARC
  5
855E
330
1E
100
AcDbEntity
  8
002
100
AcDbCircle
 10
1401.664598124581
 20
-1433.424692808379
 30
0.0
 40
2.5
100
AcDbArc
 50
138.1896849999962
 51
221.8103149999756
  0
ARC
  5
855F
330
1E
100
AcDbEntity
  8
002
100
AcDbCircle
 10
1402.716478124581
 20
-1433.424692808379
 30
0.0
 40
2.5
100
AcDbArc
 50
138.1896849999962
 51
221.8103149999756
  0
ARC
  5
8560
330
1E
100
AcDbEntity
  8
002
100
AcDbCircle
 10
1402.716478124581
 20
-1425.924692808379
 30
0.0
 40
2.5
100
AcDbArc
 50
318.1896850000243
 51
41.81031500000377
  0
ARC
  5
8561
330
1E
100
AcDbEntity
  8
002
100
AcDbCircle
 10
1401.664598124581
 20
-1425.924692808379
 30
0.0
 40
2.5
100
AcDbArc
 50
318.1896850000243
 51
41.81031500000377
  0
LINE
  5
8562
330
1E
100
AcDbEntity
  8
002
100
AcDbLine
 10
1400.853088124581
 20
-1420.091359808379
 30
0.0
 11
1404.579868124581
 21
-1424.258026808379
 31
0.0
  0
LINE
  5
8563
330
1E
100
AcDbEntity
  8
002
100
AcDbLine
 10
1399.801208124581
 20
-1420.091359808379
 30
0.0
 11
1403.527988124581
 21
-1424.258026808379
 31
0.0
  0
LINE
  5
8564
330
1E
100
AcDbEntity
  8
002
100
AcDbLine
 10
1415.279322124581
 20
-1375.091359808379
 30
0.0
 11
1423.575795124581
 21
-1328.039726808379
 31
0.0
  0
LINE
  5
8565
330
1E
100
AcDbEntity
  8
002
100
AcDbLine
 10
1407.716478124581
 20
-1370.091359808379
 30
0.0
 11
1407.716478124581
 21
-1375.091359808379
 31
0.0
  0
LINE
  5
8566
330
1E
100
AcDbEntity
  8
002
100
AcDbLine
 10
1455.896387124581
 20
-1375.091359808379
 30
0.0
 11
1464.575795124581
 21
-1325.867990808379
 31
0.0
  0
TEXT
  5
8567
330
1E
100
AcDbEntity
  8
001
100
AcDbText
 10
1582.803899227538
 20
-2195.898624552221
 30
0.0
 40
16.0
  1
ＶＳＬ工法　Ｅ５－４用
 41
0.729167
100
AcDbText
  0
DIMENSION
  5
8568
330
1E
100
AcDbEntity
  8
001
  6
Continuous
100
AcDbDimension
  2
*D7
 10
1616.663398933965
 20
-2148.217327650278
 30
0.0
 11
1603.538398933966
 21
-2045.717327650277
 31
0.0
 70
    32
  1
φ205
 71
     5
 42
205.0
  3
ISO-25
100
AcDbAlignedDimension
 13
1671.439619909653
 23
-1943.217327650278
 33
0.0
 14
1671.439619909653
 24
-2148.217327650278
 34
0.0
 50
90.0
100
AcDbRotatedDimension
  0
LINE
  5
8569
330
1E
100
AcDbEntity
  8
002
100
AcDbLine
 10
1671.439619909653
 20
-2148.217327650278
 30
0.0
 11
1671.439619909653
 21
-1943.217327650278
 31
0.0
  0
INSERT
  5
856A
330
1E
100
AcDbEntity
  8
001
  6
ByBlock
100
AcDbBlockReference
  2
PART1
 10
382.2252299096535
 20
-2352.253006650278
 30
0.0
  0
LINE
  5
856B
330
1E
100
AcDbEntity
  8
002
100
AcDbLine
 10
1695.439619909653
 20
-1943.217327650278
 30
0.0
 11
1695.439619909653
 21
-2148.217327650278
 31
0.0
  0
LINE
  5
856C
330
1E
100
AcDbEntity
  8
004
  6
CENTER
 62
     6
100
AcDbLine
 10
1662.832475909653
 20
-2045.717327650278
 30
0.0
 11
1723.543790909653
 21
-2045.717327650278
 31
0.0
  0
LINE
  5
856D
330
1E
100
AcDbEntity
  8
002
100
AcDbLine
 10
1671.439619909653
 20
-2148.217327650278
 30
0.0
 11
1695.439619909653
 21
-2148.217327650278
 31
0.0
  0
LINE
  5
856E
330
1E
100
AcDbEntity
  8
002
100
AcDbLine
 10
1671.439619909653
 20
-2090.667301827134
 30
0.0
 11
1695.439619909653
 21
-2090.667301827134
 31
0.0
  0
DIMENSION
  5
856F
330
1E
100
AcDbEntity
  8
001
  6
Continuous
100
AcDbDimension
  2
*D8
 10
1670.439619909653
 20
-1892.581683252979
 30
0.0
 11
1736.939619909653
 21
-1892.581683252979
 31
0.0
 70
   160
 71
     5
 42
25.0
  3
ISO-25
100
AcDbAlignedDimension
 13
1695.439619909653
 23
-1943.217327650278
 33
0.0
 14
1670.439619909653
 24
-1943.217327650278
 34
0.0
100
AcDbRotatedDimension
  0
LINE
  5
8570
330
1E
100
AcDbEntity
  8
002
100
AcDbLine
 10
1671.439619909653
 20
-1943.217327650278
 30
0.0
 11
1695.439619909653
 21
-1943.217327650278
 31
0.0
  0
LINE
  5
8571
330
1E
100
AcDbEntity
  8
002
100
AcDbLine
 10
1671.439619909653
 20
-1987.191645650278
 30
0.0
 11
1695.439619909653
 21
-1962.191645650278
 31
0.0
  0
LINE
  5
8572
330
1E
100
AcDbEntity
  8
002
100
AcDbLine
 10
1671.439619909653
 20
-1997.091140650278
 30
0.0
 11
1695.439619909653
 21
-1972.091140650278
 31
0.0
  0
LINE
  5
8573
330
1E
100
AcDbEntity
  8
002
100
AcDbLine
 10
1671.439619909653
 20
-1977.292150650278
 30
0.0
 11
1695.439619909653
 21
-1952.292150650277
 31
0.0
  0
LINE
  5
8574
330
1E
100
AcDbEntity
  8
002
100
AcDbLine
 10
1671.439619909653
 20
-2001.217327650278
 30
0.0
 11
1695.439619909653
 21
-2001.217327650278
 31
0.0
  0
LINE
  5
8575
330
1E
100
AcDbEntity
  8
002
100
AcDbLine
 10
1677.212927909653
 20
-2001.217327650278
 30
0.0
 11
1695.439619909653
 21
-1981.990635650278
 31
0.0
  0
LINE
  5
8576
330
1E
100
AcDbEntity
  8
002
100
AcDbLine
 10
1686.112422909653
 20
-2001.217327650278
 30
0.0
 11
1695.439619909653
 21
-1991.890130650278
 31
0.0
  0
LINE
  5
8577
330
1E
100
AcDbEntity
  8
002
100
AcDbLine
 10
1671.439619909653
 20
-1967.392655650278
 30
0.0
 11
1694.614948909653
 21
-1943.217327650278
 31
0.0
  0
LINE
  5
8578
330
1E
100
AcDbEntity
  8
002
100
AcDbLine
 10
1671.439619909653
 20
-1957.493160650278
 30
0.0
 11
1685.715453909653
 21
-1943.217327650278
 31
0.0
  0
LINE
  5
8579
330
1E
100
AcDbEntity
  8
002
100
AcDbLine
 10
1671.439619909653
 20
-1947.593665650278
 30
0.0
 11
1675.815958909653
 21
-1943.217327650278
 31
0.0
  0
LINE
  5
857A
330
1E
100
AcDbEntity
  8
001
100
AcDbLine
 10
1537.847696124581
 20
-1668.239254407045
 30
0.0
 11
1634.097696124581
 21
-1668.239254407045
 31
0.0
  0
LINE
  5
857B
330
1E
100
AcDbEntity
  8
001
100
AcDbLine
 10
1540.225795124581
 20
-1351.231447621273
 30
0.0
 11
1650.918002124581
 21
-1426.312636414593
 31
0.0
  0
ARC
  5
857C
330
1E
100
AcDbEntity
  8
002
100
AcDbCircle
 10
1472.716478124581
 20
-1553.42469280838
 30
0.0
 40
2.5
100
AcDbArc
 50
138.1896849999962
 51
221.8103149999756
  0
LINE
  5
857D
330
1E
100
AcDbEntity
  8
003
100
AcDbLine
 10
1510.725795124581
 20
-1386.091359808379
 30
0.0
 11
1510.725795124581
 21
-1564.204919808379
 31
0.0
  0
LINE
  5
857E
330
1E
100
AcDbEntity
  8
003
100
AcDbLine
 10
1520.225795124581
 20
-1386.091359808379
 30
0.0
 11
1520.225795124581
 21
-1564.204919808379
 31
0.0
  0
LINE
  5
857F
330
1E
100
AcDbEntity
  8
001
100
AcDbLine
 10
1472.168619124581
 20
-1616.167279407045
 30
0.0
 11
1537.847696124581
 21
-1668.239254407045
 31
0.0
  0
LINE
  5
8580
330
1E
100
AcDbEntity
  8
002
100
AcDbLine
 10
1470.853088124581
 20
-1570.09135980838
 30
0.0
 11
1474.579868124581
 21
-1574.258026808379
 31
0.0
  0
LINE
  5
8581
330
1E
100
AcDbEntity
  8
002
100
AcDbLine
 10
1470.853088124581
 20
-1585.091359808379
 30
0.0
 11
1474.579868124581
 21
-1589.258026808379
 31
0.0
  0
LINE
  5
8582
330
1E
100
AcDbEntity
  8
002
100
AcDbLine
 10
1474.579868124581
 20
-1592.59135980838
 30
0.0
 11
1470.853088124581
 21
-1596.758026808379
 31
0.0
  0
LINE
  5
8583
330
1E
100
AcDbEntity
  8
002
100
AcDbLine
 10
1474.579868124581
 20
-1577.591359808379
 30
0.0
 11
1470.853088124581
 21
-1581.75802680838
 31
0.0
  0
LINE
  5
8584
330
1E
100
AcDbEntity
  8
002
100
AcDbLine
 10
1474.579868124581
 20
-1562.591359808379
 30
0.0
 11
1470.853088124581
 21
-1566.758026808379
 31
0.0
  0
LINE
  5
8585
330
1E
100
AcDbEntity
  8
002
100
AcDbLine
 10
1470.853088124581
 20
-1555.091359808379
 30
0.0
 11
1474.579868124581
 21
-1559.25802680838
 31
0.0
  0
ARC
  5
8586
330
1E
100
AcDbEntity
  8
002
100
AcDbCircle
 10
1472.716478124581
 20
-1598.42469280838
 30
0.0
 40
2.5
100
AcDbArc
 50
138.1896849999962
 51
221.8103149999756
  0
ARC
  5
8587
330
1E
100
AcDbEntity
  8
002
100
AcDbCircle
 10
1472.716478124581
 20
-1583.424692808379
 30
0.0
 40
2.5
100
AcDbArc
 50
138.1896849999962
 51
221.8103149999756
  0
ARC
  5
8588
330
1E
100
AcDbEntity
  8
002
100
AcDbCircle
 10
1472.716478124581
 20
-1568.424692808379
 30
0.0
 40
2.5
100
AcDbArc
 50
138.1896849999962
 51
221.8103149999756
  0
ARC
  5
8589
330
1E
100
AcDbEntity
  8
002
100
AcDbCircle
 10
1472.716478124581
 20
-1560.924692808379
 30
0.0
 40
2.5
100
AcDbArc
 50
318.1896850000243
 51
41.81031500000377
  0
ARC
  5
858A
330
1E
100
AcDbEntity
  8
002
100
AcDbCircle
 10
1472.716478124581
 20
-1575.92469280838
 30
0.0
 40
2.5
100
AcDbArc
 50
318.1896850000243
 51
41.81031500000377
  0
ARC
  5
858B
330
1E
100
AcDbEntity
  8
002
100
AcDbCircle
 10
1472.716478124581
 20
-1590.924692808379
 30
0.0
 40
2.5
100
AcDbArc
 50
318.1896850000243
 51
41.81031500000377
  0
LINE
  5
858C
330
1E
100
AcDbEntity
  8
002
100
AcDbLine
 10
1470.853088124581
 20
-1630.091359808379
 30
0.0
 11
1474.579868124581
 21
-1634.258026808379
 31
0.0
  0
LINE
  5
858D
330
1E
100
AcDbEntity
  8
002
100
AcDbLine
 10
1474.579868124581
 20
-1637.591359808379
 30
0.0
 11
1470.853088124581
 21
-1641.758026808379
 31
0.0
  0
LWPOLYLINE
  5
858E
330
1E
100
AcDbEntity
  8
001
100
AcDbPolyline
 90
        3
 70
     0
 43
0.0
 10
1478.819112124581
 20
-1619.046340407045
 10
1472.168619124581
 20
-1616.167279407045
 10
1476.488584124581
 20
-1621.985865407045
  0
LINE
  5
858F
330
1E
100
AcDbEntity
  8
002
100
AcDbLine
 10
1470.853088124581
 20
-1615.091359808379
 30
0.0
 11
1474.579868124581
 21
-1619.258026808379
 31
0.0
  0
LINE
  5
8590
330
1E
100
AcDbEntity
  8
002
100
AcDbLine
 10
1474.579868124581
 20
-1622.59135980838
 30
0.0
 11
1470.853088124581
 21
-1626.758026808379
 31
0.0
  0
LINE
  5
8591
330
1E
100
AcDbEntity
  8
002
100
AcDbLine
 10
1474.579868124581
 20
-1607.591359808379
 30
0.0
 11
1470.853088124581
 21
-1611.758026808379
 31
0.0
  0
ARC
  5
8592
330
1E
100
AcDbEntity
  8
002
100
AcDbCircle
 10
1472.716478124581
 20
-1628.42469280838
 30
0.0
 40
2.5
100
AcDbArc
 50
138.1896849999962
 51
221.8103149999756
  0
ARC
  5
8593
330
1E
100
AcDbEntity
  8
002
100
AcDbCircle
 10
1472.716478124581
 20
-1643.424692808379
 30
0.0
 40
2.5
100
AcDbArc
 50
138.1896849999962
 51
221.8103149999756
  0
LINE
  5
8594
330
1E
100
AcDbEntity
  8
002
100
AcDbLine
 10
1470.853088124581
 20
-1645.091359808379
 30
0.0
 11
1472.30704855637
 21
-1646.716937103106
 31
0.0
  0
ARC
  5
8595
330
1E
100
AcDbEntity
  8
002
100
AcDbCircle
 10
1472.716478124581
 20
-1613.424692808379
 30
0.0
 40
2.5
100
AcDbArc
 50
138.1896849999962
 51
221.8103149999756
  0
ARC
  5
8596
330
1E
100
AcDbEntity
  8
002
100
AcDbCircle
 10
1472.716478124581
 20
-1635.924692808379
 30
0.0
 40
2.5
100
AcDbArc
 50
318.1896850000243
 51
41.81031500000377
  0
ARC
  5
8597
330
1E
100
AcDbEntity
  8
002
100
AcDbCircle
 10
1472.716478124581
 20
-1605.924692808379
 30
0.0
 40
2.5
100
AcDbArc
 50
318.1896850000243
 51
41.81031500000377
  0
ARC
  5
8598
330
1E
100
AcDbEntity
  8
002
100
AcDbCircle
 10
1472.716478124581
 20
-1620.92469280838
 30
0.0
 40
2.5
100
AcDbArc
 50
318.1896850000243
 51
41.81031500000377
  0
LINE
  5
8599
330
1E
100
AcDbEntity
  8
002
100
AcDbLine
 10
1470.853088124581
 20
-1600.091359808379
 30
0.0
 11
1474.579868124581
 21
-1604.25802680838
 31
0.0
  0
TEXT
  5
859A
330
1E
100
AcDbEntity
  8
001
100
AcDbText
 10
1547.472696124581
 20
-1664.739218407045
 30
0.0
 40
11.19999999999999
  1
コルゲートシース
 41
0.716146
100
AcDbText
  0
LWPOLYLINE
  5
859B
330
1E
100
AcDbEntity
  8
001
100
AcDbPolyline
 90
        3
 70
     0
 43
0.0
 10
1548.094999178021
 20
-1353.814201716199
 10
1540.225795124581
 20
-1351.231447621273
 10
1545.749349375895
 20
-1357.402780318125
  0
LINE
  5
859C
330
1E
100
AcDbEntity
  8
002
100
AcDbLine
 10
1470.853088124581
 20
-1435.091359808379
 30
0.0
 11
1474.579868124581
 21
-1439.258026808379
 31
0.0
  0
LINE
  5
859D
330
1E
100
AcDbEntity
  8
002
100
AcDbLine
 10
1472.346663124581
 20
-1435.091359808379
 30
0.0
 11
1476.073443124581
 21
-1439.258026808379
 31
0.0
  0
LINE
  5
859E
330
1E
100
AcDbEntity
  8
002
100
AcDbLine
 10
1481.232006124581
 20
-1496.09135980838
 30
0.0
 11
1481.716478124581
 21
-1340.091359808379
 31
0.0
  0
LINE
  5
859F
330
1E
100
AcDbEntity
  8
002
100
AcDbLine
 10
1470.853088124581
 20
-1480.09135980838
 30
0.0
 11
1474.579868124581
 21
-1484.25802680838
 31
0.0
  0
LINE
  5
85A0
330
1E
100
AcDbEntity
  8
002
100
AcDbLine
 10
1472.346663124581
 20
-1480.09135980838
 30
0.0
 11
1476.073443124581
 21
-1484.25802680838
 31
0.0
  0
LINE
  5
85A1
330
1E
100
AcDbEntity
  8
002
100
AcDbLine
 10
1474.579868124581
 20
-1457.59135980838
 30
0.0
 11
1470.853088124581
 21
-1461.75802680838
 31
0.0
  0
LINE
  5
85A2
330
1E
100
AcDbEntity
  8
002
100
AcDbLine
 10
1476.073443124581
 20
-1457.59135980838
 30
0.0
 11
1472.346663124581
 21
-1461.75802680838
 31
0.0
  0
LINE
  5
85A3
330
1E
100
AcDbEntity
  8
002
100
AcDbLine
 10
1470.853088124581
 20
-1465.091359808379
 30
0.0
 11
1474.579868124581
 21
-1469.258026808379
 31
0.0
  0
LINE
  5
85A4
330
1E
100
AcDbEntity
  8
002
100
AcDbLine
 10
1472.346663124581
 20
-1465.091359808379
 30
0.0
 11
1476.073443124581
 21
-1469.258026808379
 31
0.0
  0
LINE
  5
85A5
330
1E
100
AcDbEntity
  8
002
100
AcDbLine
 10
1474.579868124581
 20
-1472.591359808379
 30
0.0
 11
1470.853088124581
 21
-1476.758026808379
 31
0.0
  0
LINE
  5
85A6
330
1E
100
AcDbEntity
  8
002
100
AcDbLine
 10
1476.073443124581
 20
-1472.591359808379
 30
0.0
 11
1472.346663124581
 21
-1476.758026808379
 31
0.0
  0
LINE
  5
85A7
330
1E
100
AcDbEntity
  8
002
100
AcDbLine
 10
1470.853088124581
 20
-1450.091359808379
 30
0.0
 11
1474.579868124581
 21
-1454.258026808379
 31
0.0
  0
LINE
  5
85A8
330
1E
100
AcDbEntity
  8
002
100
AcDbLine
 10
1472.346663124581
 20
-1450.091359808379
 30
0.0
 11
1476.073443124581
 21
-1454.258026808379
 31
0.0
  0
LINE
  5
85A9
330
1E
100
AcDbEntity
  8
002
100
AcDbLine
 10
1474.579868124581
 20
-1442.591359808379
 30
0.0
 11
1470.853088124581
 21
-1446.758026808379
 31
0.0
  0
LINE
  5
85AA
330
1E
100
AcDbEntity
  8
002
100
AcDbLine
 10
1476.073443124581
 20
-1442.591359808379
 30
0.0
 11
1472.346663124581
 21
-1446.758026808379
 31
0.0
  0
ARC
  5
85AB
330
1E
100
AcDbEntity
  8
002
100
AcDbCircle
 10
1472.716478124581
 20
-1478.424692808379
 30
0.0
 40
2.5
100
AcDbArc
 50
138.1896849999962
 51
221.8103149999756
  0
ARC
  5
85AC
330
1E
100
AcDbEntity
  8
002
100
AcDbCircle
 10
1472.716478124581
 20
-1463.424692808379
 30
0.0
 40
2.5
100
AcDbArc
 50
138.1896849999962
 51
221.8103149999756
  0
ARC
  5
85AD
330
1E
100
AcDbEntity
  8
002
100
AcDbCircle
 10
1474.210053124581
 20
-1478.424692808379
 30
0.0
 40
2.5
100
AcDbArc
 50
138.1896849999962
 51
221.8103149999756
  0
ARC
  5
85AE
330
1E
100
AcDbEntity
  8
002
100
AcDbCircle
 10
1474.210053124581
 20
-1463.424692808379
 30
0.0
 40
2.5
100
AcDbArc
 50
138.1896849999962
 51
221.8103149999756
  0
ARC
  5
85AF
330
1E
100
AcDbEntity
  8
002
100
AcDbCircle
 10
1472.716478124581
 20
-1448.424692808379
 30
0.0
 40
2.5
100
AcDbArc
 50
138.1896849999962
 51
221.8103149999756
  0
ARC
  5
85B0
330
1E
100
AcDbEntity
  8
002
100
AcDbCircle
 10
1474.210053124581
 20
-1448.424692808379
 30
0.0
 40
2.5
100
AcDbArc
 50
138.1896849999962
 51
221.8103149999756
  0
ARC
  5
85B1
330
1E
100
AcDbEntity
  8
002
100
AcDbCircle
 10
1472.716478124581
 20
-1455.924692808379
 30
0.0
 40
2.5
100
AcDbArc
 50
318.1896850000243
 51
41.81031500000377
  0
ARC
  5
85B2
330
1E
100
AcDbEntity
  8
002
100
AcDbCircle
 10
1474.210053124581
 20
-1455.924692808379
 30
0.0
 40
2.5
100
AcDbArc
 50
318.1896850000243
 51
41.81031500000377
  0
ARC
  5
85B3
330
1E
100
AcDbEntity
  8
002
100
AcDbCircle
 10
1472.716478124581
 20
-1470.924692808379
 30
0.0
 40
2.5
100
AcDbArc
 50
318.1896850000243
 51
41.81031500000377
  0
ARC
  5
85B4
330
1E
100
AcDbEntity
  8
002
100
AcDbCircle
 10
1474.210053124581
 20
-1470.924692808379
 30
0.0
 40
2.5
100
AcDbArc
 50
318.1896850000243
 51
41.81031500000377
  0
ARC
  5
85B5
330
1E
100
AcDbEntity
  8
002
100
AcDbCircle
 10
1472.716478124581
 20
-1440.924692808379
 30
0.0
 40
2.5
100
AcDbArc
 50
318.1896850000243
 51
41.81031500000377
  0
ARC
  5
85B6
330
1E
100
AcDbEntity
  8
002
100
AcDbCircle
 10
1474.210053124581
 20
-1440.924692808379
 30
0.0
 40
2.5
100
AcDbArc
 50
318.1896850000243
 51
41.81031500000377
  0
LINE
  5
85B7
330
1E
100
AcDbEntity
  8
002
100
AcDbLine
 10
1470.853088124581
 20
-1525.091359808379
 30
0.0
 11
1474.579868124581
 21
-1529.258026808379
 31
0.0
  0
LINE
  5
85B8
330
1E
100
AcDbEntity
  8
002
100
AcDbLine
 10
1474.579868124581
 20
-1532.59135980838
 30
0.0
 11
1470.853088124581
 21
-1536.75802680838
 31
0.0
  0
LINE
  5
85B9
330
1E
100
AcDbEntity
  8
002
100
AcDbLine
 10
1474.579868124581
 20
-1517.591359808379
 30
0.0
 11
1470.853088124581
 21
-1521.758026808379
 31
0.0
  0
LINE
  5
85BA
330
1E
100
AcDbEntity
  8
002
100
AcDbLine
 10
1481.232006124581
 20
-1496.09135980838
 30
0.0
 11
1473.241090124581
 21
-1496.09135980838
 31
0.0
  0
LINE
  5
85BB
330
1E
100
AcDbEntity
  8
002
100
AcDbLine
 10
1470.853088124581
 20
-1510.091359808379
 30
0.0
 11
1474.579868124581
 21
-1514.258026808379
 31
0.0
  0
LINE
  5
85BC
330
1E
100
AcDbEntity
  8
002
100
AcDbLine
 10
1474.579868124581
 20
-1487.591359808379
 30
0.0
 11
1470.853088124581
 21
-1491.758026808379
 31
0.0
  0
LINE
  5
85BD
330
1E
100
AcDbEntity
  8
002
100
AcDbLine
 10
1476.073443124581
 20
-1487.591359808379
 30
0.0
 11
1472.346663124581
 21
-1491.758026808379
 31
0.0
  0
LINE
  5
85BE
330
1E
100
AcDbEntity
  8
002
100
AcDbLine
 10
1470.853088124581
 20
-1495.091359808379
 30
0.0
 11
1474.579868124581
 21
-1499.258026808379
 31
0.0
  0
LINE
  5
85BF
330
1E
100
AcDbEntity
  8
002
100
AcDbLine
 10
1474.579868124581
 20
-1502.59135980838
 30
0.0
 11
1470.853088124581
 21
-1506.75802680838
 31
0.0
  0
LINE
  5
85C0
330
1E
100
AcDbEntity
  8
002
100
AcDbLine
 10
1470.853088124581
 20
-1540.091359808379
 30
0.0
 11
1474.579868124581
 21
-1544.258026808379
 31
0.0
  0
LINE
  5
85C1
330
1E
100
AcDbEntity
  8
002
100
AcDbLine
 10
1474.579868124581
 20
-1547.591359808379
 30
0.0
 11
1470.853088124581
 21
-1551.758026808379
 31
0.0
  0
ARC
  5
85C2
330
1E
100
AcDbEntity
  8
002
100
AcDbCircle
 10
1472.716478124581
 20
-1523.424692808379
 30
0.0
 40
2.5
100
AcDbArc
 50
138.1896849999962
 51
221.8103149999756
  0
ARC
  5
85C3
330
1E
100
AcDbEntity
  8
002
100
AcDbCircle
 10
1472.716478124581
 20
-1508.424692808379
 30
0.0
 40
2.5
100
AcDbArc
 50
138.1896849999962
 51
221.8103149999756
  0
ARC
  5
85C4
330
1E
100
AcDbEntity
  8
002
100
AcDbCircle
 10
1472.716478124581
 20
-1493.424692808379
 30
0.0
 40
2.5
100
AcDbArc
 50
138.1896849999962
 51
221.8103149999756
  0
LINE
  5
85C5
330
1E
100
AcDbEntity
  8
002
100
AcDbLine
 10
1472.346663124581
 20
-1495.091359808379
 30
0.0
 11
1473.241090124581
 21
-1496.09135980838
 31
0.0
  0
ARC
  5
85C6
330
1E
100
AcDbEntity
  8
002
100
AcDbCircle
 10
1474.210053124581
 20
-1493.424692808379
 30
0.0
 40
2.5
100
AcDbArc
 50
138.1896849999962
 51
221.8103149999756
  0
ARC
  5
85C7
330
1E
100
AcDbEntity
  8
002
100
AcDbCircle
 10
1472.716478124581
 20
-1538.42469280838
 30
0.0
 40
2.5
100
AcDbArc
 50
138.1896849999962
 51
221.8103149999756
  0
ARC
  5
85C8
330
1E
100
AcDbEntity
  8
002
100
AcDbCircle
 10
1472.716478124581
 20
-1515.924692808379
 30
0.0
 40
2.5
100
AcDbArc
 50
318.1896850000243
 51
41.81031500000377
  0
ARC
  5
85C9
330
1E
100
AcDbEntity
  8
002
100
AcDbCircle
 10
1472.716478124581
 20
-1530.924692808379
 30
0.0
 40
2.5
100
AcDbArc
 50
318.1896850000243
 51
41.81031500000377
  0
ARC
  5
85CA
330
1E
100
AcDbEntity
  8
002
100
AcDbCircle
 10
1472.716478124581
 20
-1500.924692808379
 30
0.0
 40
2.5
100
AcDbArc
 50
318.1896850000243
 51
41.81031500000377
  0
ARC
  5
85CB
330
1E
100
AcDbEntity
  8
002
100
AcDbCircle
 10
1472.716478124581
 20
-1545.924692808379
 30
0.0
 40
2.5
100
AcDbArc
 50
318.1896850000243
 51
41.81031500000377
  0
ARC
  5
85CC
330
1E
100
AcDbEntity
  8
002
100
AcDbCircle
 10
1472.716478124581
 20
-1485.924692808379
 30
0.0
 40
2.5
100
AcDbArc
 50
318.1896850000243
 51
41.81031500000377
  0
ARC
  5
85CD
330
1E
100
AcDbEntity
  8
002
100
AcDbCircle
 10
1474.210053124581
 20
-1485.924692808379
 30
0.0
 40
2.5
100
AcDbArc
 50
318.1896850000243
 51
41.81031500000377
  0
LINE
  5
85CE
330
1E
100
AcDbEntity
  8
002
100
AcDbLine
 10
1468.216478124581
 20
-1340.091359808379
 30
0.0
 11
1540.225795124581
 21
-1340.091359808379
 31
0.0
  0
LINE
  5
85CF
330
1E
100
AcDbEntity
  8
003
100
AcDbLine
 10
1502.725795124581
 20
-1364.091359808379
 30
0.0
 11
1542.725795124581
 21
-1364.091359808379
 31
0.0
  0
LINE
  5
85D0
330
1E
100
AcDbEntity
  8
003
 62
     3
100
AcDbLine
 10
1502.225795124581
 20
-1364.091359808379
 30
0.0
 11
1540.558067124581
 21
-1364.091359808379
 31
0.0
  0
LINE
  5
85D1
330
1E
100
AcDbEntity
  8
002
100
AcDbLine
 10
1482.225795124581
 20
-1364.091359808379
 30
0.0
 11
1540.558067124581
 21
-1364.091359808379
 31
0.0
  0
LINE
  5
85D2
330
1E
100
AcDbEntity
  8
002
100
AcDbLine
 10
1467.716478124581
 20
-1370.091359808379
 30
0.0
 11
1465.225795124581
 21
-1370.091359808379
 31
0.0
  0
LINE
  5
85D3
330
1E
100
AcDbEntity
  8
002
100
AcDbLine
 10
1469.716478124581
 20
-1340.091359808379
 30
0.0
 11
1468.216478124581
 21
-1339.225333808379
 31
0.0
  0
LINE
  5
85D4
330
1E
100
AcDbEntity
  8
002
100
AcDbLine
 10
1482.225795124581
 20
-1340.091359808379
 30
0.0
 11
1482.225795124581
 21
-1364.091359808379
 31
0.0
  0
LINE
  5
85D5
330
1E
100
AcDbEntity
  8
002
100
AcDbLine
 10
1490.392461124581
 20
-1340.091359808379
 30
0.0
 11
1491.892461124581
 21
-1339.225333808379
 31
0.0
  0
LINE
  5
85D6
330
1E
100
AcDbEntity
  8
002
100
AcDbLine
 10
1490.392461124581
 20
-1339.225333808379
 30
0.0
 11
1491.892461124581
 21
-1340.091359808379
 31
0.0
  0
LINE
  5
85D7
330
1E
100
AcDbEntity
  8
002
100
AcDbLine
 10
1500.225795124581
 20
-1338.424692808379
 30
0.0
 11
1498.559128124581
 21
-1340.091359808379
 31
0.0
  0
LINE
  5
85D8
330
1E
100
AcDbEntity
  8
002
100
AcDbLine
 10
1474.579868124581
 20
-1397.591359808379
 30
0.0
 11
1470.853088124581
 21
-1401.758026808379
 31
0.0
  0
LINE
  5
85D9
330
1E
100
AcDbEntity
  8
002
100
AcDbLine
 10
1476.073443124581
 20
-1397.591359808379
 30
0.0
 11
1472.346663124581
 21
-1401.758026808379
 31
0.0
  0
LINE
  5
85DA
330
1E
100
AcDbEntity
  8
002
100
AcDbLine
 10
1474.579868124581
 20
-1412.591359808379
 30
0.0
 11
1470.853088124581
 21
-1416.758026808379
 31
0.0
  0
LINE
  5
85DB
330
1E
100
AcDbEntity
  8
002
100
AcDbLine
 10
1476.073443124581
 20
-1412.591359808379
 30
0.0
 11
1472.346663124581
 21
-1416.758026808379
 31
0.0
  0
LINE
  5
85DC
330
1E
100
AcDbEntity
  8
002
100
AcDbLine
 10
1470.853088124581
 20
-1405.09135980838
 30
0.0
 11
1474.579868124581
 21
-1409.258026808379
 31
0.0
  0
LINE
  5
85DD
330
1E
100
AcDbEntity
  8
002
100
AcDbLine
 10
1472.346663124581
 20
-1405.09135980838
 30
0.0
 11
1476.073443124581
 21
-1409.258026808379
 31
0.0
  0
LINE
  5
85DE
330
1E
100
AcDbEntity
  8
002
100
AcDbLine
 10
1474.579868124581
 20
-1382.59135980838
 30
0.0
 11
1470.853088124581
 21
-1386.758026808379
 31
0.0
  0
LINE
  5
85DF
330
1E
100
AcDbEntity
  8
002
100
AcDbLine
 10
1470.853088124581
 20
-1390.091359808379
 30
0.0
 11
1474.579868124581
 21
-1394.258026808379
 31
0.0
  0
LINE
  5
85E0
330
1E
100
AcDbEntity
  8
002
100
AcDbLine
 10
1472.346663124581
 20
-1390.091359808379
 30
0.0
 11
1476.073443124581
 21
-1394.258026808379
 31
0.0
  0
LINE
  5
85E1
330
1E
100
AcDbEntity
  8
002
100
AcDbLine
 10
1476.073443124581
 20
-1382.59135980838
 30
0.0
 11
1472.346663124581
 21
-1386.758026808379
 31
0.0
  0
LINE
  5
85E2
330
1E
100
AcDbEntity
  8
002
100
AcDbLine
 10
1470.853088124581
 20
-1375.091359808379
 30
0.0
 11
1474.579868124581
 21
-1379.258026808379
 31
0.0
  0
LINE
  5
85E3
330
1E
100
AcDbEntity
  8
002
100
AcDbLine
 10
1472.346663124581
 20
-1375.091359808379
 30
0.0
 11
1476.073443124581
 21
-1379.258026808379
 31
0.0
  0
LINE
  5
85E4
330
1E
100
AcDbEntity
  8
002
100
AcDbLine
 10
1474.579868124581
 20
-1427.59135980838
 30
0.0
 11
1470.853088124581
 21
-1431.758026808379
 31
0.0
  0
LINE
  5
85E5
330
1E
100
AcDbEntity
  8
002
100
AcDbLine
 10
1476.073443124581
 20
-1427.59135980838
 30
0.0
 11
1472.346663124581
 21
-1431.758026808379
 31
0.0
  0
LINE
  5
85E6
330
1E
100
AcDbEntity
  8
002
100
AcDbLine
 10
1470.853088124581
 20
-1420.091359808379
 30
0.0
 11
1474.579868124581
 21
-1424.258026808379
 31
0.0
  0
LINE
  5
85E7
330
1E
100
AcDbEntity
  8
002
100
AcDbLine
 10
1472.346663124581
 20
-1420.091359808379
 30
0.0
 11
1476.073443124581
 21
-1424.258026808379
 31
0.0
  0
ARC
  5
85E8
330
1E
100
AcDbEntity
  8
002
100
AcDbCircle
 10
1472.716478124581
 20
-1403.424692808379
 30
0.0
 40
2.5
100
AcDbArc
 50
138.1896849999962
 51
221.8103149999756
  0
ARC
  5
85E9
330
1E
100
AcDbEntity
  8
002
100
AcDbCircle
 10
1472.716478124581
 20
-1418.424692808379
 30
0.0
 40
2.5
100
AcDbArc
 50
138.1896849999962
 51
221.8103149999756
  0
ARC
  5
85EA
330
1E
100
AcDbEntity
  8
002
100
AcDbCircle
 10
1474.210053124581
 20
-1403.424692808379
 30
0.0
 40
2.5
100
AcDbArc
 50
138.1896849999962
 51
221.8103149999756
  0
ARC
  5
85EB
330
1E
100
AcDbEntity
  8
002
100
AcDbCircle
 10
1474.210053124581
 20
-1418.424692808379
 30
0.0
 40
2.5
100
AcDbArc
 50
138.1896849999962
 51
221.8103149999756
  0
ARC
  5
85EC
330
1E
100
AcDbEntity
  8
002
100
AcDbCircle
 10
1472.716478124581
 20
-1388.424692808379
 30
0.0
 40
2.5
100
AcDbArc
 50
138.1896849999962
 51
221.8103149999756
  0
ARC
  5
85ED
330
1E
100
AcDbEntity
  8
002
100
AcDbCircle
 10
1474.210053124581
 20
-1388.424692808379
 30
0.0
 40
2.5
100
AcDbArc
 50
138.1896849999962
 51
221.8103149999756
  0
ARC
  5
85EE
330
1E
100
AcDbEntity
  8
002
100
AcDbCircle
 10
1472.716478124581
 20
-1433.424692808379
 30
0.0
 40
2.5
100
AcDbArc
 50
138.1896849999962
 51
221.8103149999756
  0
ARC
  5
85EF
330
1E
100
AcDbEntity
  8
002
100
AcDbCircle
 10
1474.210053124581
 20
-1433.424692808379
 30
0.0
 40
2.5
100
AcDbArc
 50
138.1896849999962
 51
221.8103149999756
  0
ARC
  5
85F0
330
1E
100
AcDbEntity
  8
002
100
AcDbCircle
 10
1472.716478124581
 20
-1410.924692808379
 30
0.0
 40
2.5
100
AcDbArc
 50
318.1896850000243
 51
41.81031500000377
  0
ARC
  5
85F1
330
1E
100
AcDbEntity
  8
002
100
AcDbCircle
 10
1474.210053124581
 20
-1410.924692808379
 30
0.0
 40
2.5
100
AcDbArc
 50
318.1896850000243
 51
41.81031500000377
  0
ARC
  5
85F2
330
1E
100
AcDbEntity
  8
002
100
AcDbCircle
 10
1472.716478124581
 20
-1395.924692808379
 30
0.0
 40
2.5
100
AcDbArc
 50
318.1896850000243
 51
41.81031500000377
  0
ARC
  5
85F3
330
1E
100
AcDbEntity
  8
002
100
AcDbCircle
 10
1474.210053124581
 20
-1395.924692808379
 30
0.0
 40
2.5
100
AcDbArc
 50
318.1896850000243
 51
41.81031500000377
  0
ARC
  5
85F4
330
1E
100
AcDbEntity
  8
002
100
AcDbCircle
 10
1472.716478124581
 20
-1380.924692808379
 30
0.0
 40
2.5
100
AcDbArc
 50
318.1896850000243
 51
41.81031500000377
  0
ARC
  5
85F5
330
1E
100
AcDbEntity
  8
002
100
AcDbCircle
 10
1474.210053124581
 20
-1380.924692808379
 30
0.0
 40
2.5
100
AcDbArc
 50
318.1896850000243
 51
41.81031500000377
  0
ARC
  5
85F6
330
1E
100
AcDbEntity
  8
002
100
AcDbCircle
 10
1472.716478124581
 20
-1425.924692808379
 30
0.0
 40
2.5
100
AcDbArc
 50
318.1896850000243
 51
41.81031500000377
  0
ARC
  5
85F7
330
1E
100
AcDbEntity
  8
002
100
AcDbCircle
 10
1474.210053124581
 20
-1425.924692808379
 30
0.0
 40
2.5
100
AcDbArc
 50
318.1896850000243
 51
41.81031500000377
  0
LWPOLYLINE
  5
85F8
330
1E
100
AcDbEntity
  8
003
100
AcDbPolyline
 90
        4
 70
     0
 43
0.0
 10
1482.225795124581
 20
-1364.091359808379
 10
1502.725795124581
 20
-1364.091359808379
 10
1502.725795124581
 20
-1386.091359808379
 10
1481.570515406632
 20
-1386.091359808379
  0
LINE
  5
85F9
330
1E
100
AcDbEntity
  8
002
100
AcDbLine
 10
1467.716478124581
 20
-1370.091359808379
 30
0.0
 11
1467.716478124581
 21
-1375.091359808379
 31
0.0
  0
LINE
  5
85FA
330
1E
100
AcDbEntity
  8
002
100
AcDbLine
 10
1540.225795124581
 20
-1340.091359808379
 30
0.0
 11
1540.225795124581
 21
-1364.091359808379
 31
0.0
  0
TEXT
  5
85FB
330
1E
100
AcDbEntity
  8
001
100
AcDbText
 10
1660.543002124581
 20
-1422.812636414592
 30
0.0
 40
11.19999999999999
  1
メッキ付　円形プレート
 41
0.716146
100
AcDbText
  0
LINE
  5
85FC
330
1E
100
AcDbEntity
  8
001
100
AcDbLine
 10
1650.918002124581
 20
-1426.312636414593
 30
0.0
 11
1776.043002124581
 21
-1426.312636414593
 31
0.0
  0
LWPOLYLINE
  5
85FD
330
1E
100
AcDbEntity
  8
003
  6
Continuous
100
AcDbPolyline
 90
       12
 70
     1
 43
0.0
 10
1291.379820944446
 20
-1034.091359808379
 10
1591.344919468294
 20
-1034.091359808379
 10
1691.344919468294
 20
-1214.091359808379
 10
1741.36237020637
 20
-1214.091359808379
 10
1741.36237020637
 20
-1211.791359808379
 10
1692.362370206371
 20
-1211.791359808379
 10
1592.36237020637
 20
-1031.791359808379
 10
1290.36237020637
 20
-1031.791359808379
 10
1190.36237020637
 20
-1211.791359808379
 10
1141.36237020637
 20
-1211.791359808379
 10
1141.36237020637
 20
-1214.091359808379
 10
1191.379820944446
 20
-1214.091359808379
  0
LINE
  5
85FE
330
1E
100
AcDbEntity
  8
001
100
AcDbLine
 10
1464.575795124581
 20
-1186.528821808379
 30
0.0
 11
1539.34154112458
 21
-1147.060998808379
 31
0.0
  0
LINE
  5
85FF
330
1E
100
AcDbEntity
  8
002
100
AcDbLine
 10
1465.190025124581
 20
-1296.665044808379
 30
0.0
 11
1464.575795124581
 21
-1295.60116680838
 31
0.0
  0
LWPOLYLINE
  5
8600
330
1E
100
AcDbEntity
  8
001
100
AcDbPolyline
 90
        3
 70
     0
 43
0.0
 10
1469.890596124581
 20
-1181.602268808379
 10
1464.575795124581
 20
-1186.528821808379
 10
1471.641824124581
 20
-1184.919701808379
  0
LINE
  5
8601
330
1E
100
AcDbEntity
  8
002
100
AcDbLine
 10
1465.075795124581
 20
-1257.091359808379
 30
0.0
 11
1464.575795124581
 21
-1257.380034808379
 31
0.0
  0
LWPOLYLINE
  5
8602
330
1E
100
AcDbEntity
  8
002
100
AcDbPolyline
 90
       34
 70
     0
 43
0.0
 10
1483.559128124581
 20
-1106.758026808379
 10
1483.372778124581
 20
-1105.262449808379
 10
1482.815231124581
 20
-1103.77894080838
 10
1481.890987124581
 20
-1102.319467808379
 10
1480.607502124581
 20
-1100.89580880838
 10
1478.975132124581
 20
-1099.519448808379
 10
1477.007048124581
 20
-1098.201493808379
 10
1474.719130124581
 20
-1096.952578808379
 10
1472.129838124581
 20
-1095.782778808379
 10
1469.260064124581
 20
-1094.70153280838
 10
1466.132963124581
 20
-1093.717566808379
 10
1462.773766124581
 20
-1092.838817808379
 10
1459.209577124581
 20
-1092.072377808379
 10
1455.469154124581
 20
-1091.424428808379
 10
1451.582677124581
 20
-1090.900200808379
 10
1447.58150412458
 20
-1090.503922808379
 10
1443.497919124581
 20
-1090.238791808379
 10
1439.36487112458
 20
-1090.106947808379
 10
1435.215707124581
 20
-1090.109453808379
 10
1431.083905124581
 20
-1090.246290808379
 10
1427.002803124581
 20
-1090.516353808379
 10
1423.005330124581
 20
-1090.917462808379
 10
1419.123739124581
 20
-1091.446383808379
 10
1415.389350124581
 20
-1092.098846808379
 10
1411.832293124581
 20
-1092.869589808379
 10
1408.481270124581
 20
-1093.752391808379
 10
1405.363317124581
 20
-1094.740130808379
 10
1402.503593124581
 20
-1095.824836808379
 10
1399.925171124581
 20
-1096.99775780838
 10
1397.648855124581
 20
-1098.249430808379
 10
1395.693013124581
 20
-1099.569755808379
 10
1394.073424124581
 20
-1100.948079808379
 10
1392.803157124581
 20
-1102.373281808379
 10
1391.892461124581
 20
-1103.833862808379
  0
LWPOLYLINE
  5
8603
330
1E
100
AcDbEntity
  8
002
100
AcDbPolyline
 90
       37
 70
     0
 43
0.0
 10
1479.392461124581
 20
-1106.758026808379
 10
1479.233317124581
 20
-1105.666559808379
 10
1478.757101124581
 20
-1104.583430808379
 10
1477.967451124581
 20
-1103.516912808379
 10
1476.870399124581
 20
-1102.475153808379
 10
1475.474324124581
 20
-1101.466111808379
 10
1473.789893124581
 20
-1100.497492808379
 10
1471.829970124581
 20
-1099.576698808379
 10
1469.609530124581
 20
-1098.710761808379
 10
1467.145532124581
 20
-1097.906296808379
 10
1464.456800124581
 20
-1097.169449808379
 10
1461.563872124581
 20
-1096.505848808379
 10
1458.488848124581
 20
-1095.920562808379
 10
1455.255216124581
 20
-1095.418063808379
 10
1451.887679124581
 20
-1095.002189808379
 10
1448.411960124581
 20
-1094.67611680838
 10
1444.854611124581
 20
-1094.442336808379
 10
1441.242806124581
 20
-1094.302635808379
 10
1437.604134124581
 20
-1094.258079808379
 10
1433.966392124581
 20
-1094.309009808379
 10
1430.357367124581
 20
-1094.45503580838
 10
1426.804630124581
 20
-1094.695044808379
 10
1423.335318124581
 20
-1095.027200808379
 10
1419.975933124581
 20
-1095.448966808379
 10
1416.752138124581
 20
-1095.957122808379
 10
1413.688559124581
 20
-1096.547785808379
 10
1410.808598124581
 20
-1097.216443808379
 10
1408.134255124581
 20
-1097.957988808379
 10
1405.685958124581
 20
-1098.766755808379
 10
1403.482412124581
 20
-1099.636568808379
 10
1401.540447124581
 20
-1100.560780808379
 10
1399.874898124581
 20
-1101.532332808379
 10
1398.498489124581
 20
-1102.543804808379
 10
1397.421734124581
 20
-1103.587467808379
 10
1396.652858124581
 20
-1104.655350808379
 10
1396.197734124581
 20
-1105.739295808379
 10
1396.059838124581
 20
-1106.831021808379
  0
LINE
  5
8604
330
1E
100
AcDbEntity
  8
001
100
AcDbLine
 10
1314.079969124581
 20
-1202.674940808379
 30
0.0
 11
1227.454969124581
 21
-1202.674940808379
 31
0.0
  0
LINE
  5
8605
330
1E
100
AcDbEntity
  8
001
100
AcDbLine
 10
1346.746846124581
 20
-1124.773088808379
 30
0.0
 11
1211.996846124581
 21
-1124.773088808379
 31
0.0
  0
TEXT
  5
8606
330
1E
100
AcDbEntity
  8
001
100
AcDbText
 10
1221.621846124581
 20
-1121.273051808379
 30
0.0
 40
11.19999999999999
  1
ヘッドキャップ　Ｌタイプ
 41
0.716146
100
AcDbText
  0
LINE
  5
8607
330
1E
100
AcDbEntity
  8
001
100
AcDbLine
 10
1275.730375720331
 20
-1301.390633281332
 30
0.0
 11
1203.559547720331
 21
-1322.723832281331
 31
0.0
  0
LINE
  5
8608
330
1E
100
AcDbEntity
  8
003
100
AcDbLine
 10
1250.15713220812
 20
-1239.091359808379
 30
0.0
 11
1241.15713220812
 21
-1214.09135980838
 31
0.0
  0
LWPOLYLINE
  5
8609
330
1E
100
AcDbEntity
  8
001
100
AcDbPolyline
 90
        3
 70
     0
 43
0.0
 10
1268.666163720331
 20
-1305.714046281332
 10
1275.730375720331
 20
-1301.390633281332
 10
1267.45088172033
 20
-1301.602713281332
  0
TEXT
  5
860A
330
1E
100
AcDbEntity
  8
001
100
AcDbText
 10
1237.079969124581
 20
-1199.174901808379
 30
0.0
 40
11.19999999999999
  1
アンカーヘッド
 41
0.716146
100
AcDbText
  0
LINE
  5
860B
330
1E
100
AcDbEntity
  8
002
100
AcDbLine
 10
1434.493417124581
 20
-1090.123653808379
 30
0.0
 11
1434.602600124581
 21
-1094.293191808379
 31
0.0
  0
LINE
  5
860C
330
1E
100
AcDbEntity
  8
002
100
AcDbLine
 10
1435.172997124581
 20
-1090.110179808379
 30
0.0
 11
1435.282176124581
 21
-1094.279541808379
 31
0.0
  0
LINE
  5
860D
330
1E
100
AcDbEntity
  8
002
100
AcDbLine
 10
1440.278218124581
 20
-1090.124481808379
 30
0.0
 11
1440.169414124581
 21
-1094.279541808379
 31
0.0
  0
LINE
  5
860E
330
1E
100
AcDbEntity
  8
002
100
AcDbLine
 10
1440.957698124581
 20
-1090.14177680838
 30
0.0
 11
1440.848989124581
 21
-1094.293191808379
 31
0.0
  0
LINE
  5
860F
330
1E
100
AcDbEntity
  8
001
100
AcDbLine
 10
1397.725795124581
 20
-1277.441363808379
 30
0.0
 11
1314.079969124581
 21
-1202.674940808379
 31
0.0
  0
LINE
  5
8610
330
1E
100
AcDbEntity
  8
002
100
AcDbLine
 10
1386.059128124581
 20
-1321.091359808379
 30
0.0
 11
1383.559128124581
 21
-1322.823410808379
 31
0.0
  0
LINE
  5
8611
330
1E
100
AcDbEntity
  8
002
100
AcDbLine
 10
1385.059128124581
 20
-1307.493283808379
 30
0.0
 11
1383.559128124581
 21
-1310.091359808379
 31
0.0
  0
LWPOLYLINE
  5
8612
330
1E
100
AcDbEntity
  8
001
100
AcDbPolyline
 90
        3
 70
     0
 43
0.0
 10
1382.950756124581
 20
-1178.547312808379
 10
1388.551404124581
 20
-1183.146310808379
 10
1386.000599124581
 20
-1176.363137808379
  0
ARC
  5
8613
330
1E
100
AcDbEntity
  8
002
100
AcDbCircle
 10
1377.445654124581
 20
-1248.784589808379
 30
0.0
 40
8.333332999999999
100
AcDbArc
 50
317.9451880000109
 51
357.5383480000117
  0
LINE
  5
8614
330
1E
100
AcDbEntity
  8
001
100
AcDbLine
 10
1388.551404124581
 20
-1183.146310808379
 30
0.0
 11
1346.746846124581
 21
-1124.773088808379
 31
0.0
  0
LINE
  5
8615
330
1E
100
AcDbEntity
  8
002
100
AcDbLine
 10
1383.633190124581
 20
-1254.366600808379
 30
0.0
 11
1383.157067124581
 21
-1254.894372808379
 31
0.0
  0
LINE
  5
8616
330
1E
100
AcDbEntity
  8
002
100
AcDbLine
 10
1381.103467124581
 20
-1259.240212808379
 30
0.0
 11
1375.225795124581
 21
-1298.424692808379
 31
0.0
  0
ARC
  5
8617
330
1E
100
AcDbEntity
  8
002
100
AcDbCircle
 10
1389.344603124581
 20
-1260.476383808379
 30
0.0
 40
8.333332999999999
100
AcDbArc
 50
137.9451880000109
 51
171.4692340000096
  0
LINE
  5
8618
330
1E
100
AcDbEntity
  8
002
100
AcDbLine
 10
1451.875795124581
 20
-1225.130155808379
 30
0.0
 11
1464.575795124581
 21
-1153.104876808379
 31
0.0
  0
LINE
  5
8619
330
1E
100
AcDbEntity
  8
002
100
AcDbLine
 10
1410.875795124581
 20
-1227.301890808379
 30
0.0
 11
1423.575795124581
 21
-1155.276611808379
 31
0.0
  0
LINE
  5
861A
330
1E
100
AcDbEntity
  8
002
100
AcDbLine
 10
1391.892461124581
 20
-1103.833862808379
 30
0.0
 11
1385.771297124581
 21
-1249.142512808379
 31
0.0
  0
LINE
  5
861B
330
1E
100
AcDbEntity
  8
002
100
AcDbLine
 10
1389.938020124581
 20
-1249.230739808379
 30
0.0
 11
1396.055283124581
 21
-1106.936987808379
 31
0.0
  0
LINE
  5
861C
330
1E
100
AcDbEntity
  8
002
100
AcDbLine
 10
1430.029001124581
 20
-1257.091359808379
 30
0.0
 11
1424.075795124581
 21
-1257.091359808379
 31
0.0
  0
ARC
  5
861D
330
1E
100
AcDbEntity
  8
002
100
AcDbCircle
 10
1424.928424124581
 20
-1296.238730808379
 30
0.0
 40
0.8526290000000001
100
AcDbArc
 50
209.9999999999993
 51
352.9999999999939
  0
ARC
  5
861E
330
1E
100
AcDbEntity
  8
002
100
AcDbCircle
 10
1381.612376124581
 20
-1248.87281680838
 30
0.0
 40
8.333332999999999
100
AcDbArc
 50
316.8434549999681
 51
357.5383480000117
  0
LINE
  5
861F
330
1E
100
AcDbEntity
  8
002
100
AcDbLine
 10
1404.422588124581
 20
-1257.091359808379
 30
0.0
 11
1410.375795124581
 21
-1257.091359808379
 31
0.0
  0
ARC
  5
8620
330
1E
100
AcDbEntity
  8
002
100
AcDbCircle
 10
1404.422588124581
 20
-1257.59135980838
 30
0.0
 40
0.5
100
AcDbArc
 50
90.0
 51
187.0000000000059
  0
LINE
  5
8621
330
1E
100
AcDbEntity
  8
002
100
AcDbLine
 10
1410.375795124581
 20
-1257.091359808379
 30
0.0
 11
1410.875795124581
 21
-1257.380034808379
 31
0.0
  0
LINE
  5
8622
330
1E
100
AcDbEntity
  8
002
100
AcDbLine
 10
1424.075795124581
 20
-1257.091359808379
 30
0.0
 11
1423.575795124581
 21
-1257.380034808379
 31
0.0
  0
LWPOLYLINE
  5
8623
330
1E
100
AcDbEntity
  8
001
100
AcDbPolyline
 90
        3
 70
     0
 43
0.0
 10
1391.256816124581
 20
-1274.174811808379
 10
1397.725795124581
 20
-1277.441363808379
 10
1393.756771124581
 20
-1271.377957808379
  0
LINE
  5
8624
330
1E
100
AcDbEntity
  8
002
100
AcDbLine
 10
1387.059128124581
 20
-1318.091359808379
 30
0.0
 11
1393.922786124581
 21
-1318.091359808379
 31
0.0
  0
LINE
  5
8625
330
1E
100
AcDbEntity
  8
002
100
AcDbLine
 10
1385.642461124581
 20
-1260.053771808379
 30
0.0
 11
1385.642461124581
 21
-1307.493283808379
 31
0.0
  0
LINE
  5
8626
330
1E
100
AcDbEntity
  8
002
100
AcDbLine
 10
1385.059128124581
 20
-1307.493283808379
 30
0.0
 11
1385.642461124581
 21
-1307.493283808379
 31
0.0
  0
LINE
  5
8627
330
1E
100
AcDbEntity
  8
002
100
AcDbLine
 10
1386.059128124581
 20
-1319.091359808379
 30
0.0
 11
1387.059128124581
 21
-1318.091359808379
 31
0.0
  0
LINE
  5
8628
330
1E
100
AcDbEntity
  8
002
100
AcDbLine
 10
1386.059128124581
 20
-1319.091359808379
 30
0.0
 11
1386.059128124581
 21
-1321.091359808379
 31
0.0
  0
LINE
  5
8629
330
1E
100
AcDbEntity
  8
002
100
AcDbLine
 10
1397.725795124581
 20
-1300.091359808379
 30
0.0
 11
1397.725795124581
 21
-1261.091359808379
 31
0.0
  0
ARC
  5
862A
330
1E
100
AcDbEntity
  8
002
100
AcDbCircle
 10
1409.523166124581
 20
-1296.238730808379
 30
0.0
 40
0.8526290000000001
100
AcDbArc
 50
187.0000000000059
 51
330.0000000000006
  0
LINE
  5
862B
330
1E
100
AcDbEntity
  8
002
100
AcDbLine
 10
1397.725795124581
 20
-1300.091359808379
 30
0.0
 11
1395.225795124581
 21
-1301.534735808379
 31
0.0
  0
LINE
  5
862C
330
1E
100
AcDbEntity
  8
002
100
AcDbLine
 10
1410.261564124581
 20
-1296.665044808379
 30
0.0
 11
1410.875795124581
 21
-1295.60116680838
 31
0.0
  0
LINE
  5
862D
330
1E
100
AcDbEntity
  8
002
100
AcDbLine
 10
1424.190025124581
 20
-1296.665044808379
 30
0.0
 11
1423.575795124581
 21
-1295.60116680838
 31
0.0
  0
LINE
  5
862E
330
1E
100
AcDbEntity
  8
002
100
AcDbLine
 10
1404.286729124581
 20
-1260.587632808379
 30
0.0
 11
1403.725795124581
 21
-1260.091359808379
 31
0.0
  0
LINE
  5
862F
330
1E
100
AcDbEntity
  8
002
100
AcDbLine
 10
1398.725795124581
 20
-1260.091359808379
 30
0.0
 11
1397.725795124581
 21
-1261.091359808379
 31
0.0
  0
LINE
  5
8630
330
1E
100
AcDbEntity
  8
002
100
AcDbLine
 10
1403.725795124581
 20
-1260.091359808379
 30
0.0
 11
1398.725795124581
 21
-1260.091359808379
 31
0.0
  0
LINE
  5
8631
330
1E
100
AcDbEntity
  8
002
100
AcDbLine
 10
1409.725795124581
 20
-1315.091359808379
 30
0.0
 11
1409.111872124581
 21
-1320.09135980838
 31
0.0
  0
LINE
  5
8632
330
1E
100
AcDbEntity
  8
002
100
AcDbLine
 10
1395.225795124581
 20
-1320.09135980838
 30
0.0
 11
1410.225795124581
 21
-1320.09135980838
 31
0.0
  0
LINE
  5
8633
330
1E
100
AcDbEntity
  8
002
100
AcDbLine
 10
1395.225795124581
 20
-1320.09135980838
 30
0.0
 11
1393.922786124581
 21
-1318.091359808379
 31
0.0
  0
LINE
  5
8634
330
1E
100
AcDbEntity
  8
002
100
AcDbLine
 10
1396.225795124581
 20
-1320.09135980838
 30
0.0
 11
1395.225795124581
 21
-1319.091359808379
 31
0.0
  0
LINE
  5
8635
330
1E
100
AcDbEntity
  8
002
100
AcDbLine
 10
1405.725795124581
 20
-1320.09135980838
 30
0.0
 11
1407.225795124581
 21
-1320.957384808379
 31
0.0
  0
LINE
  5
8636
330
1E
100
AcDbEntity
  8
002
100
AcDbLine
 10
1407.216478124581
 20
-1320.09135980838
 30
0.0
 11
1405.716478124581
 21
-1320.957384808379
 31
0.0
  0
LINE
  5
8637
330
1E
100
AcDbEntity
  8
002
100
AcDbLine
 10
1395.225795124581
 20
-1319.091359808379
 30
0.0
 11
1395.225795124581
 21
-1301.534735808379
 31
0.0
  0
LINE
  5
8638
330
1E
100
AcDbEntity
  8
002
100
AcDbLine
 10
1409.725795124581
 20
-1304.885264808379
 30
0.0
 11
1409.725795124581
 21
-1315.091359808379
 31
0.0
  0
LINE
  5
8639
330
1E
100
AcDbEntity
  8
002
100
AcDbLine
 10
1424.075795124581
 20
-1296.467191808379
 30
0.0
 11
1424.075795124581
 21
-1257.091359808379
 31
0.0
  0
LINE
  5
863A
330
1E
100
AcDbEntity
  8
002
100
AcDbLine
 10
1403.926315124581
 20
-1257.652294808379
 30
0.0
 11
1409.725795124581
 21
-1304.885264808379
 31
0.0
  0
LINE
  5
863B
330
1E
100
AcDbEntity
  8
002
100
AcDbLine
 10
1410.375795124581
 20
-1296.467191808379
 30
0.0
 11
1410.375795124581
 21
-1257.091359808379
 31
0.0
  0
ARC
  5
863C
330
1E
100
AcDbEntity
  8
002
100
AcDbCircle
 10
1393.975795124581
 20
-1260.053771808379
 30
0.0
 40
8.333332999999999
100
AcDbArc
 50
136.843454999996
 51
180.0
  0
LINE
  5
863D
330
1E
100
AcDbEntity
  8
002
100
AcDbLine
 10
1410.875795124581
 20
-1309.889595808379
 30
0.0
 11
1423.575795124581
 21
-1237.864316808379
 31
0.0
  0
ARC
  5
863E
330
1E
100
AcDbEntity
  8
002
100
AcDbCircle
 10
1430.029001124581
 20
-1257.59135980838
 30
0.0
 40
0.5
100
AcDbArc
 50
352.9999999999939
 51
90.0
  0
LINE
  5
863F
330
1E
100
AcDbEntity
  8
002
100
AcDbLine
 10
1445.422588124581
 20
-1257.091359808379
 30
0.0
 11
1451.375795124581
 21
-1257.091359808379
 31
0.0
  0
ARC
  5
8640
330
1E
100
AcDbEntity
  8
002
100
AcDbCircle
 10
1445.422588124581
 20
-1257.59135980838
 30
0.0
 40
0.5
100
AcDbArc
 50
90.0
 51
187.0000000000059
  0
LINE
  5
8641
330
1E
100
AcDbEntity
  8
002
100
AcDbLine
 10
1451.375795124581
 20
-1257.091359808379
 30
0.0
 11
1451.875795124581
 21
-1257.380034808379
 31
0.0
  0
LINE
  5
8642
330
1E
100
AcDbEntity
  8
002
100
AcDbLine
 10
1424.725795124581
 20
-1320.09135980838
 30
0.0
 11
1450.725795124581
 21
-1320.09135980838
 31
0.0
  0
LINE
  5
8643
330
1E
100
AcDbEntity
  8
002
100
AcDbLine
 10
1444.725795124581
 20
-1260.091359808379
 30
0.0
 11
1430.725795124581
 21
-1260.091359808379
 31
0.0
  0
LINE
  5
8644
330
1E
100
AcDbEntity
  8
002
100
AcDbLine
 10
1430.164860124581
 20
-1260.587632808379
 30
0.0
 11
1430.725795124581
 21
-1260.091359808379
 31
0.0
  0
LINE
  5
8645
330
1E
100
AcDbEntity
  8
002
100
AcDbLine
 10
1424.725795124581
 20
-1315.091359808379
 30
0.0
 11
1425.339717124581
 21
-1320.09135980838
 31
0.0
  0
LINE
  5
8646
330
1E
100
AcDbEntity
  8
002
100
AcDbLine
 10
1424.725795124581
 20
-1304.885264808379
 30
0.0
 11
1424.725795124581
 21
-1315.091359808379
 31
0.0
  0
ARC
  5
8647
330
1E
100
AcDbEntity
  8
002
100
AcDbCircle
 10
1450.523166124581
 20
-1296.238730808379
 30
0.0
 40
0.8526290000000001
100
AcDbArc
 50
187.0000000000059
 51
330.0000000000006
  0
LINE
  5
8648
330
1E
100
AcDbEntity
  8
002
100
AcDbLine
 10
1445.286729124581
 20
-1260.587632808379
 30
0.0
 11
1444.725795124581
 21
-1260.091359808379
 31
0.0
  0
LINE
  5
8649
330
1E
100
AcDbEntity
  8
002
100
AcDbLine
 10
1451.261564124581
 20
-1296.665044808379
 30
0.0
 11
1451.875795124581
 21
-1295.60116680838
 31
0.0
  0
LINE
  5
864A
330
1E
100
AcDbEntity
  8
002
100
AcDbLine
 10
1450.725795124581
 20
-1315.091359808379
 30
0.0
 11
1450.111872124581
 21
-1320.09135980838
 31
0.0
  0
LINE
  5
864B
330
1E
100
AcDbEntity
  8
002
100
AcDbLine
 10
1450.725795124581
 20
-1304.885264808379
 30
0.0
 11
1450.725795124581
 21
-1315.091359808379
 31
0.0
  0
LINE
  5
864C
330
1E
100
AcDbEntity
  8
002
100
AcDbLine
 10
1430.525274124581
 20
-1257.652294808379
 30
0.0
 11
1424.725795124581
 21
-1304.885264808379
 31
0.0
  0
LINE
  5
864D
330
1E
100
AcDbEntity
  8
002
100
AcDbLine
 10
1444.926315124581
 20
-1257.652294808379
 30
0.0
 11
1450.725795124581
 21
-1304.885264808379
 31
0.0
  0
LINE
  5
864E
330
1E
100
AcDbEntity
  8
002
100
AcDbLine
 10
1451.875795124581
 20
-1307.717860808379
 30
0.0
 11
1464.575795124581
 21
-1235.692581808379
 31
0.0
  0
LINE
  5
864F
330
1E
100
AcDbEntity
  8
002
100
AcDbLine
 10
1451.375795124581
 20
-1296.467191808379
 30
0.0
 11
1451.375795124581
 21
-1257.091359808379
 31
0.0
  0
LINE
  5
8650
330
1E
100
AcDbEntity
  8
002
100
AcDbLine
 10
1410.875795124581
 20
-1140.091359808379
 30
0.0
 11
1423.575795124581
 21
-1140.091359808379
 31
0.0
  0
LINE
  5
8651
330
1E
100
AcDbEntity
  8
002
100
AcDbLine
 10
1410.875795124581
 20
-1169.714185808379
 30
0.0
 11
1416.099098124581
 21
-1140.091359808379
 31
0.0
  0
LINE
  5
8652
330
1E
100
AcDbEntity
  8
002
100
AcDbLine
 10
1451.875795124581
 20
-1140.091359808379
 30
0.0
 11
1464.575795124581
 21
-1140.091359808379
 31
0.0
  0
LINE
  5
8653
330
1E
100
AcDbEntity
  8
002
100
AcDbLine
 10
1451.875795124581
 20
-1167.542450808379
 30
0.0
 11
1456.716163124581
 21
-1140.091359808379
 31
0.0
  0
LINE
  5
8654
330
1E
100
AcDbEntity
  8
003
100
AcDbLine
 10
1496.192751196739
 20
-1214.09135980838
 30
0.0
 11
1737.725795124581
 21
-1214.09135980838
 31
0.0
  0
LINE
  5
8655
330
1E
100
AcDbEntity
  8
003
  6
Continuous
100
AcDbLine
 10
1687.708344386505
 20
-1214.09135980838
 30
0.0
 11
1509.728714609467
 21
-1214.09135980838
 31
0.0
  0
LINE
  5
8656
330
1E
100
AcDbEntity
  8
001
100
AcDbLine
 10
1582.061018124581
 20
-1184.401809694891
 30
0.0
 11
1726.436018124581
 21
-1184.401809694891
 31
0.0
  0
TEXT
  5
8657
330
1E
100
AcDbEntity
  8
001
100
AcDbText
 10
1591.686018124581
 20
-1180.901809694891
 30
0.0
 40
11.19999999999999
  1
両ネジ　ジョイントプレート
 41
0.716146
100
AcDbText
  0
LINE
  5
8658
330
1E
100
AcDbEntity
  8
001
100
AcDbLine
 10
1609.76109380867
 20
-1067.08282732389
 30
0.0
 11
1676.94237680867
 21
-1023.39330732389
 31
0.0
  0
LINE
  5
8659
330
1E
100
AcDbEntity
  8
003
100
AcDbLine
 10
1625.294458041042
 20
-1239.091359808379
 30
0.0
 11
1634.294458041042
 21
-1214.09135980838
 31
0.0
  0
LINE
  5
865A
330
1E
100
AcDbEntity
  8
001
100
AcDbLine
 10
1484.962591124581
 20
-1318.091359808379
 30
0.0
 11
1582.061018124581
 21
-1184.401809694891
 31
0.0
  0
LINE
  5
865B
330
1E
100
AcDbEntity
  8
001
100
AcDbLine
 10
1539.34154112458
 20
-1147.060998808379
 30
0.0
 11
1616.341541124581
 21
-1147.060998808379
 31
0.0
  0
LINE
  5
865C
330
1E
100
AcDbEntity
  8
002
100
AcDbLine
 10
1489.680292124581
 20
-1249.142512808379
 30
0.0
 11
1483.559128124581
 21
-1106.758026808379
 31
0.0
  0
LINE
  5
865D
330
1E
100
AcDbEntity
  8
002
100
AcDbLine
 10
1485.513570124581
 20
-1249.230739808379
 30
0.0
 11
1479.396306124581
 21
-1106.936987808379
 31
0.0
  0
LINE
  5
865E
330
1E
100
AcDbEntity
  8
002
100
AcDbLine
 10
1471.029001124581
 20
-1257.091359808379
 30
0.0
 11
1465.075795124581
 21
-1257.091359808379
 31
0.0
  0
ARC
  5
865F
330
1E
100
AcDbEntity
  8
002
100
AcDbCircle
 10
1471.029001124581
 20
-1257.59135980838
 30
0.0
 40
0.5
100
AcDbArc
 50
352.9999999999939
 51
90.0
  0
ARC
  5
8660
330
1E
100
AcDbEntity
  8
002
100
AcDbCircle
 10
1493.839213124581
 20
-1248.87281680838
 30
0.0
 40
8.333332999999999
100
AcDbArc
 50
182.4616519999882
 51
223.1565450000318
  0
ARC
  5
8661
330
1E
100
AcDbEntity
  8
002
100
AcDbCircle
 10
1498.005935124581
 20
-1248.784589808379
 30
0.0
 40
8.333332999999999
100
AcDbArc
 50
182.4616519999882
 51
222.054811999989
  0
LINE
  5
8662
330
1E
100
AcDbEntity
  8
002
100
AcDbLine
 10
1491.818399124581
 20
-1254.366600808379
 30
0.0
 11
1492.294523124581
 21
-1254.894372808379
 31
0.0
  0
LINE
  5
8663
330
1E
100
AcDbEntity
  8
002
100
AcDbLine
 10
1476.725795124581
 20
-1260.091359808379
 30
0.0
 11
1471.725795124581
 21
-1260.091359808379
 31
0.0
  0
LINE
  5
8664
330
1E
100
AcDbEntity
  8
002
100
AcDbLine
 10
1465.225795124581
 20
-1320.09135980838
 30
0.0
 11
1480.225795124581
 21
-1320.09135980838
 31
0.0
  0
ARC
  5
8665
330
1E
100
AcDbEntity
  8
002
100
AcDbCircle
 10
1465.928424124581
 20
-1296.238730808379
 30
0.0
 40
0.8526290000000001
100
AcDbArc
 50
209.9999999999993
 51
352.9999999999939
  0
LINE
  5
8666
330
1E
100
AcDbEntity
  8
002
100
AcDbLine
 10
1471.164860124581
 20
-1260.587632808379
 30
0.0
 11
1471.725795124581
 21
-1260.091359808379
 31
0.0
  0
LINE
  5
8667
330
1E
100
AcDbEntity
  8
002
100
AcDbLine
 10
1465.725795124581
 20
-1315.091359808379
 30
0.0
 11
1466.339717124581
 21
-1320.09135980838
 31
0.0
  0
LINE
  5
8668
330
1E
100
AcDbEntity
  8
002
100
AcDbLine
 10
1469.716478124581
 20
-1320.09135980838
 30
0.0
 11
1468.216478124581
 21
-1320.957384808379
 31
0.0
  0
LINE
  5
8669
330
1E
100
AcDbEntity
  8
002
100
AcDbLine
 10
1468.216478124581
 20
-1320.09135980838
 30
0.0
 11
1469.716478124581
 21
-1320.957384808379
 31
0.0
  0
LINE
  5
866A
330
1E
100
AcDbEntity
  8
002
100
AcDbLine
 10
1465.725795124581
 20
-1304.885264808379
 30
0.0
 11
1465.725795124581
 21
-1315.091359808379
 31
0.0
  0
LINE
  5
866B
330
1E
100
AcDbEntity
  8
002
  6
CENTER
100
AcDbLine
 10
1486.047011124581
 20
-1277.591359808379
 30
0.0
 11
1500.075438124581
 21
-1277.591359808379
 31
0.0
  0
LINE
  5
866C
330
1E
100
AcDbEntity
  8
002
100
AcDbLine
 10
1477.725795124581
 20
-1261.091359808379
 30
0.0
 11
1477.725795124581
 21
-1300.091359808379
 31
0.0
  0
LINE
  5
866D
330
1E
100
AcDbEntity
  8
002
100
AcDbLine
 10
1477.725795124581
 20
-1300.091359808379
 30
0.0
 11
1480.225795124581
 21
-1301.534735808379
 31
0.0
  0
LINE
  5
866E
330
1E
100
AcDbEntity
  8
002
100
AcDbLine
 10
1476.725795124581
 20
-1260.091359808379
 30
0.0
 11
1477.725795124581
 21
-1261.091359808379
 31
0.0
  0
LINE
  5
866F
330
1E
100
AcDbEntity
  8
002
100
AcDbLine
 10
1494.348123124581
 20
-1259.240212808379
 30
0.0
 11
1500.225795124581
 21
-1298.424692808379
 31
0.0
  0
LINE
  5
8670
330
1E
100
AcDbEntity
  8
002
100
AcDbLine
 10
1489.809128124581
 20
-1260.053771808379
 30
0.0
 11
1489.809128124581
 21
-1307.493283808379
 31
0.0
  0
LINE
  5
8671
330
1E
100
AcDbEntity
  8
002
100
AcDbLine
 10
1490.392461124581
 20
-1307.493283808379
 30
0.0
 11
1489.809128124581
 21
-1307.493283808379
 31
0.0
  0
LINE
  5
8672
330
1E
100
AcDbEntity
  8
002
100
AcDbLine
 10
1497.645954124581
 20
-1281.225755808379
 30
0.0
 11
1489.809128124581
 21
-1281.020540808379
 31
0.0
  0
LINE
  5
8673
330
1E
100
AcDbEntity
  8
002
100
AcDbLine
 10
1496.634666124581
 20
-1274.483836808379
 30
0.0
 11
1489.824085124581
 21
-1274.662178808379
 31
0.0
  0
LINE
  5
8674
330
1E
100
AcDbEntity
  8
002
100
AcDbLine
 10
1496.559901124581
 20
-1273.985403808379
 30
0.0
 11
1489.809128124581
 21
-1274.162178808379
 31
0.0
  0
LINE
  5
8675
330
1E
100
AcDbEntity
  8
002
100
AcDbLine
 10
1497.570599124581
 20
-1280.72339080838
 30
0.0
 11
1489.809128124581
 21
-1280.520148808379
 31
0.0
  0
LWPOLYLINE
  5
8676
330
1E
100
AcDbEntity
  8
001
100
AcDbPolyline
 90
        3
 70
     0
 43
0.0
 10
1487.430302983301
 20
-1311.277518115154
 10
1484.962591124581
 20
-1318.091359808379
 10
1490.50661357256
 20
-1313.424256173668
  0
LINE
  5
8677
330
1E
100
AcDbEntity
  8
002
100
AcDbLine
 10
1481.528804124581
 20
-1318.091359808379
 30
0.0
 11
1488.392461124581
 21
-1318.091359808379
 31
0.0
  0
LINE
  5
8678
330
1E
100
AcDbEntity
  8
002
100
AcDbLine
 10
1480.225795124581
 20
-1320.09135980838
 30
0.0
 11
1481.528804124581
 21
-1318.091359808379
 31
0.0
  0
LINE
  5
8679
330
1E
100
AcDbEntity
  8
002
100
AcDbLine
 10
1480.225795124581
 20
-1319.091359808379
 30
0.0
 11
1479.225795124581
 21
-1320.09135980838
 31
0.0
  0
LINE
  5
867A
330
1E
100
AcDbEntity
  8
002
100
AcDbLine
 10
1489.392461124581
 20
-1321.091359808379
 30
0.0
 11
1491.892461124581
 21
-1322.823410808379
 31
0.0
  0
LINE
  5
867B
330
1E
100
AcDbEntity
  8
002
100
AcDbLine
 10
1489.392461124581
 20
-1319.091359808379
 30
0.0
 11
1488.392461124581
 21
-1318.091359808379
 31
0.0
  0
LINE
  5
867C
330
1E
100
AcDbEntity
  8
002
100
AcDbLine
 10
1489.392461124581
 20
-1319.091359808379
 30
0.0
 11
1489.392461124581
 21
-1321.091359808379
 31
0.0
  0
LINE
  5
867D
330
1E
100
AcDbEntity
  8
002
100
AcDbLine
 10
1480.225795124581
 20
-1319.091359808379
 30
0.0
 11
1480.225795124581
 21
-1301.534735808379
 31
0.0
  0
LINE
  5
867E
330
1E
100
AcDbEntity
  8
002
100
AcDbLine
 10
1490.392461124581
 20
-1307.493283808379
 30
0.0
 11
1491.892461124581
 21
-1310.091359808379
 31
0.0
  0
ARC
  5
867F
330
1E
100
AcDbEntity
  8
002
100
AcDbCircle
 10
1481.475795124581
 20
-1260.053771808379
 30
0.0
 40
8.333332999999999
100
AcDbArc
 50
0.0
 51
43.15654500000391
  0
ARC
  5
8680
330
1E
100
AcDbEntity
  8
002
100
AcDbCircle
 10
1486.106986124581
 20
-1260.476383808379
 30
0.0
 40
8.333332999999999
100
AcDbArc
 50
8.530765999990322
 51
42.05481199998909
  0
LINE
  5
8681
330
1E
100
AcDbEntity
  8
002
100
AcDbLine
 10
1471.525274124581
 20
-1257.652294808379
 30
0.0
 11
1465.725795124581
 21
-1304.885264808379
 31
0.0
  0
LINE
  5
8682
330
1E
100
AcDbEntity
  8
002
100
AcDbLine
 10
1465.075795124581
 20
-1296.467191808379
 30
0.0
 11
1465.075795124581
 21
-1257.091359808379
 31
0.0
  0
TEXT
  5
8683
330
1E
100
AcDbEntity
  8
001
100
AcDbText
 10
1548.966541124581
 20
-1143.560980808379
 30
0.0
 40
11.19999999999999
  1
ＰＣ鋼より線
 41
0.716146
100
AcDbText
  0
LWPOLYLINE
  5
8684
330
1E
100
AcDbEntity
  8
001
100
AcDbPolyline
 90
        3
 70
     0
 43
0.0
 10
1614.60677280867
 20
-1061.694187323889
 10
1609.76109380867
 20
-1067.082827323891
 10
1616.65189480867
 20
-1064.83896732389
  0
TEXT
  5
8685
330
1E
100
AcDbEntity
  8
001
100
AcDbText
 10
1677.638157386419
 20
-1037.658733181046
 30
0.0
 40
11.19999999999999
  1
(高さ180mm)
 41
0.716146
100
AcDbText
  0
LINE
  5
8686
330
1E
100
AcDbEntity
  8
001
100
AcDbLine
 10
1676.94237680867
 20
-1023.39330732389
 30
0.0
 11
1739.402577252448
 21
-1023.39330732389
 31
0.0
  0
TEXT
  5
8687
330
1E
100
AcDbEntity
  8
001
100
AcDbText
 10
1686.56737680867
 20
-1019.893289323889
 30
0.0
 40
11.19999999999999
  1
蓋
 41
0.716146
100
AcDbText
  0
LINE
  5
8688
330
1E
100
AcDbEntity
  8
003
100
AcDbLine
 10
1811.252471332758
 20
-1422.149267536802
 30
0.0
 11
1811.252471332758
 21
-1195.128733872264
 31
0.0
  0
LINE
  5
8689
330
1E
100
AcDbEntity
  8
003
100
AcDbLine
 10
1811.252471332758
 20
-1468.751304536802
 30
0.0
 11
1811.252471332758
 21
-1607.788079907889
 31
0.0
  0
LINE
  5
868A
330
1E
100
AcDbEntity
  8
003
100
AcDbLine
 10
1830.976354332758
 20
-1422.149267536802
 30
0.0
 11
1792.852073332759
 21
-1468.751304536802
 31
0.0
  0
LINE
  5
868B
330
1E
100
AcDbEntity
  8
003
100
AcDbLine
 10
1792.852073332759
 20
-1468.751304536802
 30
0.0
 11
1811.252471332758
 21
-1468.751304536802
 31
0.0
  0
LINE
  5
868C
330
1E
100
AcDbEntity
  8
003
100
AcDbLine
 10
1811.252471332758
 20
-1422.149267536802
 30
0.0
 11
1830.976354332758
 21
-1422.149267536802
 31
0.0
  0
DIMENSION
  5
877E
330
1E
100
AcDbEntity
  8
001
100
AcDbDimension
  2
*D12
 10
429.2388725055793
 20
-1086.857673944271
 30
0.0
 11
466.0837843082455
 21
-1043.065650813274
 31
0.0
 70
    34
 71
     5
 42
0.1745329251994323
  3
ISO-25
100
AcDb2LineAngularDimension
 13
392.9749797106192
 23
-1669.867675724998
 33
0.0
 14
495.577228483518
 24
-1087.981407607366
 34
0.0
 15
429.2388725055793
 25
-1669.867675724998
 35
0.0
 16
476.7931947638444
 26
-1057.351691088662
 36
0.0
  0
ENDSEC
  0
SECTION
  2
OBJECTS
  0
DICTIONARY
  5
C
330
0
100
AcDbDictionary
281
     1
  3
ACAD_GROUP
350
D
  3
ACAD_LAYOUT
350
19
  3
ACAD_MLINESTYLE
350
16
  3
ACAD_PLOTSETTINGS
350
18
  3
ACAD_PLOTSTYLENAME
350
E
  3
AcDbVariableDictionary
350
4BD
  3
DWGPROPS
350
8767
  0
DICTIONARY
  5
D
102
{ACAD_REACTORS
330
C
102
}
330
C
100
AcDbDictionary
281
     1
  0
DICTIONARY
  5
19
102
{ACAD_REACTORS
330
C
102
}
330
C
100
AcDbDictionary
281
     1
  3
Model
350
21
  3
ﾚｲｱｳﾄ1
350
1D
  0
DICTIONARY
  5
16
102
{ACAD_REACTORS
330
C
102
}
330
C
100
AcDbDictionary
281
     1
  3
Standard
350
17
  0
DICTIONARY
  5
18
102
{ACAD_REACTORS
330
C
102
}
330
C
100
AcDbDictionary
281
     1
  0
ACDBDICTIONARYWDFLT
  5
E
102
{ACAD_REACTORS
330
C
102
}
330
C
100
AcDbDictionary
281
     1
  3
Normal
350
F
100
AcDbDictionaryWithDefault
340
F
  0
DICTIONARY
  5
4BD
102
{ACAD_REACTORS
330
C
102
}
330
C
100
AcDbDictionary
281
     1
  3
DIMASSOC
350
4BE
  0
XRECORD
  5
8767
102
{ACAD_REACTORS
330
C
102
}
330
C
100
AcDbXrecord
280
     1
  1
DWGPROPS COOKIE
  2

  3

  4

  6

  7

  8

  9

300
=
301
=
302
=
303
=
304
=
305
=
306
=
307
=
308
=
309
=
 40
0.779382638888889
 41
2453874.389934525
 42
2454273.746117765
  1

 90
        0
  0
LAYOUT
  5
21
102
{ACAD_REACTORS
330
19
102
}
330
19
100
AcDbPlotSettings
  1

  2
EPSON LP-9000C
  4
A3
  6

 40
5.873749732971191
 41
5.873747825622558
 42
5.873748779296875
 43
5.873748779296875
 44
297.0106506347656
 45
419.9466552734374
 46
0.0
 47
0.0
 48
-2444.473247740116
 49
-2353.693260414427
140
-371.7732451070324
141
-887.998260414427
142
1.0
143
5.138045306919282
 70
 11952
 72
     1
 73
     1
 74
     4
  7
ZenithProtter.ctb
 75
     0
147
0.1946265438051556
148
2444.473247740116
149
2353.693260414427
100
AcDbLayout
  1
Model
 70
     1
 71
     0
 10
0.0
 20
0.0
 11
12.0
 21
9.0
 12
0.0
 22
0.0
 32
0.0
 14
0.0
 24
0.0
 34
0.0
 15
0.0
 25
0.0
 35
0.0
146
0.0
 13
0.0
 23
0.0
 33
0.0
 16
1.0
 26
0.0
 36
0.0
 17
0.0
 27
1.0
 37
0.0
 76
     0
330
1E
  0
LAYOUT
  5
1D
102
{ACAD_REACTORS
330
19
102
}
330
19
100
AcDbPlotSettings
  1

  2
EPSON LP-9000C
  4

  6

 40
0.0
 41
0.0
 42
0.0
 43
0.0
 44
0.0
 45
0.0
 46
0.0
 47
0.0
 48
0.0
 49
0.0
140
0.0
141
0.0
142
1.0
143
1.0
 70
   688
 72
     0
 73
     0
 74
     5
  7
ZenithProtter.ctb
 75
    16
147
1.0
148
0.0
149
0.0
100
AcDbLayout
  1
ﾚｲｱｳﾄ1
 70
     1
 71
     1
 10
0.0
 20
0.0
 11
12.0
 21
9.0
 12
0.0
 22
0.0
 32
0.0
 14
1.000000000000000E+20
 24
1.000000000000000E+20
 34
1.000000000000000E+20
 15
-1.000000000000000E+20
 25
-1.000000000000000E+20
 35
-1.000000000000000E+20
146
0.0
 13
0.0
 23
0.0
 33
0.0
 16
1.0
 26
0.0
 36
0.0
 17
0.0
 27
1.0
 37
0.0
 76
     0
330
1A
  0
MLINESTYLE
  5
17
102
{ACAD_REACTORS
330
16
102
}
330
16
100
AcDbMlineStyle
  2
STANDARD
 70
     0
  3

 62
   256
 51
90.0
 52
90.0
 71
     2
 49
0.5
 62
   256
  6
BYLAYER
 49
-0.5
 62
   256
  6
BYLAYER
  0
ACDBPLACEHOLDER
  5
F
102
{ACAD_REACTORS
330
E
102
}
330
E
  0
DICTIONARYVAR
  5
4BE
102
{ACAD_REACTORS
330
4BD
102
}
330
4BD
100
DictionaryVariables
280
     0
  1
1
  0
ENDSEC
  0
EOF
